<?xml version="1.0" standalone="no"?>
<!DOCTYPE svg PUBLIC "-//W3C//DTD SVG 1.1//EN" "http://www.w3.org/Graphics/SVG/1.1/DTD/svg11.dtd" >
<svg>
<metadata>
Created by FontForge 20090622 at Thu May  9 06:30:29 2019
 By deploy user
Copyright 1990-2003 Bitstream Inc. All rights reserved.
</metadata>
<defs>
<font id="EngraversGothicBT-Regular" horiz-adv-x="1024" >
  <font-face 
    font-family="EngraversGothic BT"
    font-weight="400"
    font-stretch="semi-expanded"
    units-per-em="2048"
    panose-1="2 11 5 7 2 2 3 2 2 4"
    ascent="1556"
    descent="-492"
    x-height="852"
    cap-height="1110"
    bbox="-342 -483 2419 1696"
    underline-thickness="84"
    underline-position="-97"
    unicode-range="U+0020-U+F002"
  />
<missing-glyph horiz-adv-x="1229" 
d="M102 -362v1806h1024v-1806h-1024zM217 -248h795v1577h-795v-1577z" />
    <glyph glyph-name=".notdef" horiz-adv-x="1229" 
d="M102 -362v1806h1024v-1806h-1024zM217 -248h795v1577h-795v-1577z" />
    <glyph glyph-name=".null" horiz-adv-x="0" 
 />
    <glyph glyph-name="nonmarkingreturn" horiz-adv-x="682" 
 />
    <glyph glyph-name="space" unicode=" " horiz-adv-x="682" 
 />
    <glyph glyph-name="exclam" unicode="!" horiz-adv-x="682" 
d="M401 287h-118l-17 817h152zM342 154q35 0 58.5 -26t23.5 -67q0 -39 -23.5 -64.5t-58.5 -25.5q-36 0 -60 25.5t-24 64.5q0 40 24.5 66.5t59.5 26.5z" />
    <glyph glyph-name="quotedbl" unicode="&#x22;" horiz-adv-x="569" 
d="M473 1434v-553h-102v553h102zM199 1434v-553h-101v553h101z" />
    <glyph glyph-name="numbersign" unicode="#" horiz-adv-x="1575" 
d="M975 864h-266l-97 -276h267zM918 1454l-168 -483h264l172 483h127l-170 -483h315l-37 -107h-317l-98 -276h340l-37 -109h-340l-170 -479h-129l172 479h-269l-172 -479h-127l170 479h-327l39 109h325l101 276h-353l35 107h354l173 483h127z" />
    <glyph glyph-name="dollar" unicode="$" horiz-adv-x="1366" 
d="M741 506l1 -414q143 9 227 69t84 152q0 88 -83.5 140.5t-228.5 52.5zM178 158l76 110q87 -68 181 -109.5t190 -56.5v410q-196 11 -299 80t-103 190q0 126 111.5 208t289.5 85l1 164h116v-174q113 -19 208.5 -59t183.5 -105l-70 -104q-78 60 -156.5 96t-165.5 51l1 -315
q210 -5 329 -90.5t119 -229.5t-126 -241t-323 -97v-233h-116v239q-127 14 -236.5 58.5t-210.5 122.5zM625 635v317q-120 -6 -192.5 -51.5t-72.5 -112.5q0 -66 65.5 -104t199.5 -49z" />
    <glyph glyph-name="percent" unicode="%" horiz-adv-x="1726" 
d="M1358 90q79 0 132.5 57t53.5 142q0 86 -53 143t-133 57q-79 0 -131.5 -57t-52.5 -143t52.5 -142.5t131.5 -56.5zM1358 -29q-135 0 -224.5 90.5t-89.5 227.5t89 227t225 90q137 0 226 -89.5t89 -227.5t-89.5 -228t-225.5 -90zM1071 1051h143l-561 -1051h-143zM367 557
q79 0 132.5 58t53.5 143t-53 141.5t-133 56.5t-132.5 -56t-52.5 -142t53 -143.5t132 -57.5zM367 438q-135 0 -225.5 90.5t-90.5 227.5t90 228t226 91t224.5 -90t88.5 -229q0 -138 -89 -228t-224 -90z" />
    <glyph glyph-name="ampersand" unicode="&#x26;" horiz-adv-x="1266" 
d="M895 248l-340 399q-136 -58 -204 -136.5t-68 -176.5q0 -105 73 -170.5t191 -65.5q89 0 176.5 37.5t171.5 112.5zM1188 356q-23 -32 -50 -62t-59 -58l197 -228h-176l-123 139q-112 -93 -213.5 -135.5t-214.5 -42.5q-187 0 -299.5 98t-112.5 261q0 130 81 231.5t251 185.5
l-303 359h725l76 -121h-518l540 -637q43 43 67 69.5t44 53.5z" />
    <glyph glyph-name="quotesingle" unicode="'" horiz-adv-x="295" 
d="M199 1434v-553h-101v553h101z" />
    <glyph glyph-name="parenleft" unicode="(" horiz-adv-x="559" 
d="M389 1128l66 -77q-106 -91 -155.5 -212t-49.5 -288q0 -168 49.5 -290t155.5 -212l-66 -78q-141 129 -206.5 269t-65.5 311q0 170 65.5 309.5t206.5 267.5z" />
    <glyph glyph-name="parenright" unicode=")" horiz-adv-x="559" 
d="M170 1128q141 -128 206.5 -267.5t65.5 -309.5q0 -171 -65.5 -311t-206.5 -269l-66 78q106 90 155.5 212t49.5 290q0 167 -49.5 288t-155.5 212z" />
    <glyph glyph-name="asterisk" unicode="*" 
d="M510 729l-141 -207l-88 62l159 198l-233 62l37 102l221 -82v240h96l-4 -240l223 78l35 -100l-235 -64l161 -194l-90 -66z" />
    <glyph glyph-name="plus" unicode="+" horiz-adv-x="1706" 
d="M903 1221v-562h549v-98h-549v-561h-98v561h-551v98h551v562h98z" />
    <glyph glyph-name="comma" unicode="," horiz-adv-x="682" 
d="M248 -174q30 44 52 87t36 87h-8q-31 0 -51.5 25.5t-20.5 64.5q0 43 24.5 70.5t61.5 27.5q42 0 68 -36.5t26 -98.5q0 -55 -38 -120.5t-113 -141.5z" />
    <glyph glyph-name="hyphen" unicode="-" horiz-adv-x="526" 
d="M47 610h432v-121h-432v121z" />
    <glyph glyph-name="period" unicode="." horiz-adv-x="682" 
d="M342 154q35 0 58.5 -26t23.5 -67q0 -39 -23.5 -64.5t-58.5 -25.5q-36 0 -60 25.5t-24 64.5q0 40 24.5 66.5t59.5 26.5z" />
    <glyph glyph-name="slash" unicode="/" horiz-adv-x="569" 
d="M487 1128h121l-526 -1318h-121z" />
    <glyph glyph-name="zero" unicode="0" horiz-adv-x="1366" 
d="M682 98q202 0 333.5 121t131.5 303q0 184 -131 304t-334 120t-334 -120t-131 -304q0 -181 132 -302.5t333 -121.5zM682 -29q-265 0 -435.5 156.5t-170.5 394.5q0 239 171 396t435 157q265 0 436.5 -157t171.5 -396q0 -238 -171.5 -394.5t-436.5 -156.5z" />
    <glyph glyph-name="one" unicode="1" horiz-adv-x="1366" 
d="M612 -6v1061h140v-1061h-140z" />
    <glyph glyph-name="two" unicode="2" horiz-adv-x="1366" 
d="M240 0q-1 36 -2.5 80t-1.5 51q0 169 69 258t240 150l161 54q308 103 308 189q0 71 -73 117.5t-187 46.5q-99 0 -202.5 -39.5t-223.5 -124.5l-82 107q123 95 245 140.5t250 45.5q184 0 300 -83.5t116 -211.5q0 -170 -383 -298q-33 -12 -49 -17q-235 -79 -292.5 -134
t-57.5 -151q0 -9 0.5 -19.5t3.5 -33.5h799v-127h-938z" />
    <glyph glyph-name="three" unicode="3" horiz-adv-x="1366" 
d="M203 319q131 -119 248.5 -170t259.5 -51q172 0 285.5 67.5t113.5 162.5q0 94 -86.5 140t-263.5 46h-47v127q12 -1 27 -1.5t42 -0.5q129 0 188.5 34t59.5 107q0 74 -73 120t-195 46q-109 0 -215 -38t-213 -115l-82 112q113 84 244 127t272 43q184 0 293.5 -80.5
t109.5 -214.5q0 -60 -23.5 -108.5t-72.5 -85.5q88 -39 133 -103t45 -151q0 -151 -151 -256t-383 -105q-184 0 -329.5 59t-272.5 185z" />
    <glyph glyph-name="four" unicode="4" horiz-adv-x="1366" 
d="M326 383h628v500zM954 0v254h-839v129l839 668h138v-668h176v-129h-176v-254h-138z" />
    <glyph glyph-name="five" unicode="5" horiz-adv-x="1366" 
d="M166 166l70 117q138 -97 249.5 -140t221.5 -43q149 0 247.5 80t98.5 197q0 103 -100 170t-261 67q-94 0 -180.5 -25.5t-179.5 -80.5h-86v543h850v-129h-713v-234q88 29 163.5 42t145.5 13q225 0 364.5 -107t139.5 -276q0 -164 -140.5 -276.5t-355.5 -112.5
q-139 0 -271 48.5t-263 146.5z" />
    <glyph glyph-name="six" unicode="6" horiz-adv-x="1366" 
d="M272 463q19 -152 161.5 -257.5t332.5 -105.5q153 0 256.5 75t103.5 179q0 108 -108 182t-266 74q-120 0 -236.5 -35.5t-243.5 -111.5zM1124 799q-90 72 -190.5 109.5t-202.5 37.5q-187 0 -309.5 -89t-147.5 -243q124 65 237.5 95t236.5 30q228 0 375 -108t147 -275
q0 -171 -138.5 -278t-365.5 -107q-282 0 -464.5 160t-182.5 399q0 241 168.5 393t437.5 152q137 0 253 -43.5t226 -136.5z" />
    <glyph glyph-name="seven" unicode="7" horiz-adv-x="1366" 
d="M377 0l645 922h-809v129h1067l-741 -1051h-162z" />
    <glyph glyph-name="eight" unicode="8" horiz-adv-x="1366" 
d="M299 326q0 -102 103.5 -164t279.5 -62q175 0 278 61.5t103 164.5q0 105 -88 151.5t-293 46.5t-294 -47t-89 -151zM1018 598q95 -45 141.5 -111.5t46.5 -158.5q0 -163 -141 -260t-383 -97q-243 0 -384.5 96.5t-141.5 258.5q0 92 48 160.5t142 111.5q-57 37 -87 86t-30 107
q0 129 122 205.5t331 76.5t331 -76.5t122 -205.5q0 -58 -30 -107t-87 -86zM991 797q0 66 -84 107.5t-225 41.5q-142 0 -224.5 -42t-82.5 -111q0 -66 80.5 -103t226.5 -37q149 0 229 37.5t80 106.5z" />
    <glyph glyph-name="nine" unicode="9" horiz-adv-x="1366" 
d="M1092 584q-19 151 -161.5 256.5t-332.5 105.5q-152 0 -256 -75.5t-104 -180.5q0 -108 108.5 -182t267.5 -74q118 0 233.5 36t244.5 114zM242 246q89 -72 189.5 -109t203.5 -37q187 0 309.5 88.5t147.5 241.5q-122 -64 -235.5 -93.5t-238.5 -29.5q-228 0 -376 108.5
t-148 274.5q0 171 139.5 278t366.5 107q282 0 464.5 -160t182.5 -399q0 -240 -168.5 -392.5t-437.5 -152.5q-138 0 -255 44t-226 137z" />
    <glyph glyph-name="colon" unicode=":" horiz-adv-x="682" 
d="M342 154q35 0 58.5 -26t23.5 -67q0 -39 -23.5 -64.5t-58.5 -25.5q-36 0 -60 25.5t-24 64.5q0 40 24.5 66.5t59.5 26.5zM342 727q35 0 58.5 -25t23.5 -65t-23.5 -66t-58.5 -26t-59.5 26t-24.5 66q0 39 24 64.5t60 25.5z" />
    <glyph glyph-name="semicolon" unicode=";" horiz-adv-x="682" 
d="M342 727q35 0 58.5 -25t23.5 -65t-23.5 -66t-58.5 -26t-59.5 26t-24.5 66q0 39 24 64.5t60 25.5zM248 -174q30 44 52 87t36 87h-8q-31 0 -51.5 25.5t-20.5 64.5q0 43 24.5 70.5t61.5 27.5q42 0 68 -36.5t26 -98.5q0 -55 -38 -120.5t-113 -141.5z" />
    <glyph glyph-name="less" unicode="&#x3c;" horiz-adv-x="1706" 
d="M1442 1026l-1022 -416l1022 -413v-109l-1178 481v82l1178 484v-109z" />
    <glyph glyph-name="equal" unicode="=" horiz-adv-x="1706" 
d="M1452 473v-98h-1198v98h1198zM1452 846v-98h-1198v98h1198z" />
    <glyph glyph-name="greater" unicode="&#x3e;" horiz-adv-x="1706" 
d="M1442 651v-82l-1178 -481v109l1022 413l-1022 416v109z" />
    <glyph glyph-name="question" unicode="?" horiz-adv-x="739" 
d="M256 268v178q0 49 16 86.5t68 90.5l170 170q21 20 29 39.5t8 48.5q0 54 -44.5 88.5t-115.5 34.5q-81 0 -134.5 -40t-70.5 -114l-127 47q31 115 115 173t219 58q138 0 217.5 -69.5t79.5 -190.5q0 -47 -18.5 -87t-59.5 -79l-174 -170q-20 -20 -30.5 -50t-10.5 -70v-144
h-137zM328 154q35 0 59.5 -26.5t24.5 -66.5q0 -39 -24.5 -64.5t-59.5 -25.5q-36 0 -60 25.5t-24 64.5q0 40 24 66.5t60 26.5z" />
    <glyph glyph-name="at" unicode="@" horiz-adv-x="2048" 
d="M1298 836l60 125h94l-139 -562q-10 -44 -13.5 -62.5t-3.5 -29.5q0 -43 28.5 -67.5t78.5 -24.5q52 0 106.5 21t104.5 61q97 77 151 204.5t54 282.5q0 254 -198 417t-509 163q-175 0 -320 -49.5t-262 -149.5q-147 -126 -222 -290.5t-75 -362.5q0 -174 60 -305t184 -232
q102 -82 244 -128t301 -46q171 0 334.5 49.5t300.5 143.5l39 -55q-147 -111 -311 -166.5t-343 -55.5q-191 0 -347 46.5t-275 138.5q-155 118 -229 273.5t-74 361.5q0 204 86 381.5t252 314.5q132 109 298.5 165t360.5 56q162 0 308 -44t249 -124q129 -99 194.5 -228
t65.5 -280q0 -171 -62 -309.5t-181 -232.5q-70 -54 -149 -82.5t-161 -28.5q-97 0 -144.5 37.5t-47.5 113.5q0 4 1 14t1 15q-51 -87 -127 -133.5t-168 -46.5q-153 0 -233 83.5t-80 244.5q0 230 135 388t329 158q94 0 158 -41t96 -122zM1210 469l62 248q-18 93 -75.5 145.5
t-139.5 52.5q-154 0 -254.5 -133.5t-100.5 -337.5q0 -111 55 -173t152 -62q107 0 189.5 71.5t111.5 188.5z" />
    <glyph glyph-name="A" unicode="A" horiz-adv-x="1204" 
d="M356 426h486l-244 489zM0 0l541 1104h114l547 -1104h-149l-150 297h-610l-146 -297h-147z" />
    <glyph glyph-name="B" unicode="B" horiz-adv-x="1337" 
d="M303 668h528q87 0 133 39.5t46 113.5q0 78 -44.5 117t-134.5 39h-528v-309zM303 127h578q94 0 148 55.5t54 151.5q0 95 -54 151t-148 56h-578v-414zM166 0v1104h653q163 0 246.5 -69.5t83.5 -205.5q0 -66 -26 -118t-74 -84q88 -51 133 -125t45 -170q0 -153 -100.5 -242.5
t-272.5 -89.5h-688z" />
    <glyph glyph-name="C" unicode="C" horiz-adv-x="1237" 
d="M1047 352l110 -82q-76 -144 -208 -221.5t-300 -77.5q-248 0 -409.5 163.5t-161.5 414.5q0 252 162 415.5t409 163.5q153 0 279 -67t205 -191l-115 -82q-52 99 -150 155t-219 56q-186 0 -308 -127.5t-122 -322.5t122 -322t308 -127q130 0 231 64t167 188z" />
    <glyph glyph-name="D" unicode="D" horiz-adv-x="1294" 
d="M639 977h-336v-850h336q204 0 321 114.5t117 309.5q0 192 -119 309t-319 117zM639 1104q261 0 420.5 -154t159.5 -401q0 -249 -157 -399t-423 -150h-473v1104h473z" />
    <glyph glyph-name="E" unicode="E" horiz-adv-x="1118" 
d="M166 0v1104h868v-127h-731v-324h442v-127h-442v-399h776v-127h-913z" />
    <glyph glyph-name="F" unicode="F" horiz-adv-x="1014" 
d="M166 0v1104h868v-127h-731v-324h442v-127h-442v-526h-137z" />
    <glyph glyph-name="G" unicode="G" horiz-adv-x="1266" 
d="M1012 299v162h-301v127h438v-332q-80 -138 -208.5 -211.5t-291.5 -73.5q-248 0 -409.5 163.5t-161.5 414.5q0 252 162 415.5t409 163.5q153 0 279 -67t205 -191l-115 -82q-52 99 -150 155t-219 56q-186 0 -308 -127.5t-122 -322.5t122 -322t308 -127q116 0 206.5 50
t156.5 149z" />
    <glyph glyph-name="H" unicode="H" horiz-adv-x="1262" 
d="M166 0v1104h139v-436h651v436h138v-1104h-138v541h-651v-541h-139z" />
    <glyph glyph-name="I" unicode="I" horiz-adv-x="473" 
d="M168 0v1110h139v-1110h-139z" />
    <glyph glyph-name="J" unicode="J" horiz-adv-x="1100" 
d="M39 475h137v-172q0 -107 78.5 -155t255.5 -48q174 0 237.5 60t63.5 229v715h137v-752q0 -204 -107 -292.5t-356 -88.5q-227 0 -336.5 81t-109.5 247v176z" />
    <glyph glyph-name="K" unicode="K" horiz-adv-x="1200" 
d="M166 0v1106h137v-551l633 551h180l-446 -393l514 -713h-166l-447 618l-268 -225v-393h-137z" />
    <glyph glyph-name="L" unicode="L" 
d="M166 0v1104h137v-977h721v-127h-858z" />
    <glyph glyph-name="M" unicode="M" horiz-adv-x="1464" 
d="M160 0v1104h127l446 -676l449 676h125v-1104h-136v862l-438 -653l-438 653v-862h-135z" />
    <glyph glyph-name="N" unicode="N" horiz-adv-x="1255" 
d="M166 0v1104h72l716 -825v825h138v-1104h-70l-719 825v-825h-137z" />
    <glyph glyph-name="O" unicode="O" horiz-adv-x="1298" 
d="M649 100q186 0 308 127t122 322q0 196 -121.5 323t-308.5 127q-186 0 -308 -127.5t-122 -322.5t122 -322t308 -127zM649 -29q-248 0 -409.5 163.5t-161.5 414.5q0 252 162 415.5t409 163.5q248 0 411 -164t163 -415t-162.5 -414.5t-411.5 -163.5z" />
    <glyph glyph-name="P" unicode="P" horiz-adv-x="1200" 
d="M297 612h487q104 0 157.5 46t53.5 135q0 87 -53.5 135.5t-150.5 48.5h-494v-365zM160 0v1104h633q161 0 253.5 -80t92.5 -219q0 -144 -89.5 -233t-238.5 -89h-514v-483h-137z" />
    <glyph glyph-name="Q" unicode="Q" horiz-adv-x="1298" 
d="M664 102l-68 142h154l55 -117q129 51 201.5 162.5t72.5 259.5q0 195 -122 322.5t-308 127.5t-308 -127.5t-122 -322.5q0 -194 120.5 -320.5t305.5 -126.5h19zM723 -25q-17 -2 -35 -3t-51 -1q-238 0 -398.5 165t-160.5 413q0 252 162 415.5t409 163.5q248 0 411 -164
t163 -415q0 -188 -94.5 -330t-266.5 -213l74 -151h-154z" />
    <glyph glyph-name="R" unicode="R" horiz-adv-x="1223" 
d="M297 612h487q104 0 157.5 46t53.5 135q0 87 -53.5 135.5t-150.5 48.5h-494v-365zM160 0v1104h633q162 0 254 -81.5t92 -225.5q0 -120 -72 -205.5t-190 -106.5l276 -485h-152l-276 483h-428v-483h-137z" />
    <glyph glyph-name="S" unicode="S" horiz-adv-x="1223" 
d="M61 166l80 119q117 -91 243.5 -139t250.5 -48q153 0 248.5 65t95.5 167q0 81 -68.5 133.5t-189.5 62.5q-29 3 -84 6q-272 19 -371 64q-77 37 -117 95.5t-40 131.5q0 133 119 219t309 86q138 0 272.5 -45.5t255.5 -134.5l-80 -114q-102 82 -214.5 123.5t-231.5 41.5
q-125 0 -206 -48.5t-81 -121.5q0 -29 13 -53t40 -45q68 -51 294 -65q104 -6 161 -13q168 -19 266 -108t98 -219q0 -155 -134.5 -255t-352.5 -100q-165 0 -306.5 48t-269.5 147z" />
    <glyph glyph-name="T" unicode="T" horiz-adv-x="854" 
d="M358 0v977h-464v127h1067v-127h-465v-977h-138z" />
    <glyph glyph-name="U" unicode="U" horiz-adv-x="1186" 
d="M274 1104v-715q0 -172 64.5 -230.5t253.5 -58.5t253 58.5t64 230.5v715h138v-752q0 -204 -106 -292.5t-349 -88.5t-349 88.5t-106 292.5v752h137z" />
    <glyph glyph-name="V" unicode="V" horiz-adv-x="1124" 
d="M604 0h-86l-532 1104h149l426 -885l426 885h152z" />
    <glyph glyph-name="W" unicode="W" horiz-adv-x="1475" 
d="M348 0l-360 1104h135l274 -852l281 852h123l280 -850l275 850h131l-359 -1104h-100l-291 889l-288 -889h-101z" />
    <glyph glyph-name="X" unicode="X" horiz-adv-x="1124" 
d="M29 0l450 555l-444 549h168l362 -442l361 442h166l-445 -543l457 -561h-176l-367 455l-371 -455h-161z" />
    <glyph glyph-name="Y" unicode="Y" horiz-adv-x="930" 
d="M395 0v553l-497 551h172l395 -436l393 436h174l-500 -553v-551h-137z" />
    <glyph glyph-name="Z" unicode="Z" horiz-adv-x="1042" 
d="M-4 0l745 977h-682v127h932l-729 -977h725v-127h-991z" />
    <glyph glyph-name="bracketleft" unicode="[" horiz-adv-x="559" 
d="M115 0v1104h319v-119h-192v-866h192v-119h-319z" />
    <glyph glyph-name="backslash" unicode="\" horiz-adv-x="569" 
d="M487 -190l-526 1318h121l526 -1318h-121z" />
    <glyph glyph-name="bracketright" unicode="]" horiz-adv-x="559" 
d="M446 0h-321v119h192v866h-192v119h321v-1104z" />
    <glyph glyph-name="asciicircum" unicode="^" horiz-adv-x="2048" 
d="M1094 1458l530 -557h-143l-457 455l-459 -455h-143l532 557h140z" />
    <glyph glyph-name="underscore" unicode="_" 
d="M1024 -383v-100h-1024v100h1024z" />
    <glyph glyph-name="grave" unicode="`" 
d="M545 987l-269 350h152l209 -350h-92z" />
    <glyph glyph-name="a" unicode="a" horiz-adv-x="920" 
d="M291 330h334l-166 327zM-18 0l434 854h84l438 -854h-143l-111 217h-451l-110 -217h-141z" />
    <glyph glyph-name="b" unicode="b" horiz-adv-x="1114" 
d="M668 729h-387v-201h389q64 0 96.5 25.5t32.5 75.5t-32.5 75t-98.5 25zM713 403h-432v-280h432q70 0 108.5 37t38.5 104q0 66 -38.5 102.5t-108.5 36.5zM147 0v852h525q130 0 197 -53.5t67 -157.5q0 -52 -21 -92.5t-61 -65.5q71 -40 107 -97.5t36 -129.5
q0 -119 -79.5 -187.5t-219.5 -68.5h-551z" />
    <glyph glyph-name="c" unicode="c" horiz-adv-x="1128" 
d="M1049 209q-73 -115 -191.5 -175.5t-269.5 -60.5q-225 0 -370.5 127.5t-145.5 323.5t145.5 324.5t370.5 128.5q140 0 254 -52.5t184 -148.5l-106 -74q-53 73 -139.5 112.5t-192.5 39.5q-164 0 -271.5 -93.5t-107.5 -234.5t108 -234.5t271 -93.5q114 0 201 45t153 140z" />
    <glyph glyph-name="d" unicode="d" horiz-adv-x="1057" 
d="M526 854q209 0 337 -119.5t128 -310.5q0 -193 -125.5 -308.5t-339.5 -115.5h-379v854h379zM528 731h-247v-608h247q152 0 239 81.5t87 221.5q0 135 -90 220t-236 85z" />
    <glyph glyph-name="e" unicode="e" horiz-adv-x="1028" 
d="M145 0v854h801v-125h-667v-213h438v-123h-438v-270h704v-123h-838z" />
    <glyph glyph-name="f" unicode="f" horiz-adv-x="963" 
d="M279 393v-393h-134v854h789v-125h-655v-213h423v-123h-423z" />
    <glyph glyph-name="g" unicode="g" horiz-adv-x="1176" 
d="M725 332v123h352v-258q-74 -110 -193 -167t-276 -57q-236 0 -386 127.5t-150 323.5t151 324.5t385 128.5q148 0 262.5 -51t190.5 -150l-103 -74q-54 71 -146.5 111.5t-203.5 40.5q-175 0 -287 -93t-112 -235t111.5 -235t287.5 -93q110 0 203.5 40t130.5 102v92h-217z" />
    <glyph glyph-name="h" unicode="h" horiz-adv-x="1157" 
d="M279 397v-397h-134v854h134v-332h600v332h133v-854h-133v397h-600z" />
    <glyph glyph-name="i" unicode="i" horiz-adv-x="432" 
d="M147 0v856h136v-856h-136z" />
    <glyph glyph-name="j" unicode="j" horiz-adv-x="915" 
d="M49 365h133v-91q0 -92 59 -135t185 -43q127 0 174 52t47 198v506h133v-549q0 -177 -85.5 -253.5t-284.5 -76.5q-183 0 -272 70t-89 213v109z" />
    <glyph glyph-name="k" unicode="k" horiz-adv-x="973" 
d="M147 0v852h134v-379l452 379h176l-358 -303l412 -549h-150l-356 471l-176 -149v-322h-134z" />
    <glyph glyph-name="l" unicode="l" horiz-adv-x="920" 
d="M145 0v854h134v-731h634v-123h-768z" />
    <glyph glyph-name="m" unicode="m" horiz-adv-x="1214" 
d="M145 0v854h111l350 -500l350 500h111v-854h-133v614l-328 -475l-327 475v-614h-134z" />
    <glyph glyph-name="n" unicode="n" horiz-adv-x="1038" 
d="M147 0v854h70l543 -600v600h131v-854h-70l-542 598v-598h-132z" />
    <glyph glyph-name="o" unicode="o" horiz-adv-x="1190" 
d="M594 98q171 0 279 92.5t108 235.5q0 142 -108.5 235t-278.5 93t-277.5 -92.5t-107.5 -235.5t107.5 -235.5t277.5 -92.5zM594 -27q-228 0 -375 129t-147 324q0 196 146.5 323.5t375.5 127.5q231 0 377.5 -127t146.5 -324q0 -196 -147 -324.5t-377 -128.5z" />
    <glyph glyph-name="p" unicode="p" horiz-adv-x="1090" 
d="M281 498h487q68 0 104.5 30t36.5 86q0 55 -35 85t-100 30h-493v-231zM281 373v-373h-134v854h621q132 0 205.5 -62.5t73.5 -175.5q0 -107 -73 -175t-192 -68h-501z" />
    <glyph glyph-name="q" unicode="q" horiz-adv-x="1190" 
d="M764 123q103 43 160 123t57 180q0 142 -108.5 235t-278.5 93t-277.5 -92.5t-107.5 -235.5q0 -141 106 -234.5t269 -93.5q6 0 18 1t19 1l-86 105h161zM848 25l117 -142h-164l-84 100l-89.5 -8t-33.5 -2q-228 0 -375 129t-147 324q0 196 146.5 323.5t375.5 127.5
q231 0 377.5 -127t146.5 -324q0 -132 -71 -236.5t-199 -164.5z" />
    <glyph glyph-name="r" unicode="r" horiz-adv-x="1110" 
d="M281 498h454q69 0 105.5 30t36.5 86t-36.5 85.5t-105.5 29.5h-454v-231zM281 373v-373h-134v852h588q131 0 205 -63t74 -175q0 -91 -58.5 -157.5t-152.5 -81.5l237 -375h-145l-242 373h-372z" />
    <glyph glyph-name="s" unicode="s" horiz-adv-x="1014" 
d="M72 109l65 112q88 -59 192 -92t199 -33q114 0 184 46.5t70 119.5t-64 108.5t-202 39.5q-233 3 -320 54t-87 169q0 110 95.5 177t256.5 67q110 0 213.5 -31t199.5 -92l-67 -111q-80 54 -172 83.5t-176 29.5q-97 0 -156 -34t-59 -89q0 -57 59.5 -81t206.5 -24
q204 0 308 -69t104 -205q0 -121 -105.5 -201t-273.5 -80q-124 0 -246.5 35.5t-224.5 100.5z" />
    <glyph glyph-name="t" unicode="t" horiz-adv-x="829" 
d="M348 0v735h-360v119h854v-119h-361v-735h-133z" />
    <glyph glyph-name="u" unicode="u" horiz-adv-x="1139" 
d="M147 852h134v-547q0 -123 58 -166t230 -43q173 0 231 43t58 166v547h133v-582q0 -157 -99.5 -227t-324.5 -70q-224 0 -322 69t-98 228v582z" />
    <glyph glyph-name="v" unicode="v" horiz-adv-x="967" 
d="M518 0h-69l-429 854h142l321 -639l316 639h147z" />
    <glyph glyph-name="w" unicode="w" horiz-adv-x="1255" 
d="M307 0l-289 854h132l208 -625l215 625h111l215 -625l209 625h131l-287 -854h-96l-227 657l-228 -657h-94z" />
    <glyph glyph-name="x" unicode="x" horiz-adv-x="924" 
d="M20 0l359 428l-354 426h161l275 -328l274 328h164l-356 -422l360 -432h-162l-280 334l-283 -334h-158z" />
    <glyph glyph-name="y" unicode="y" horiz-adv-x="915" 
d="M391 0v436l-389 418h172l283 -303l278 303h178l-391 -416v-438h-131z" />
    <glyph glyph-name="z" unicode="z" horiz-adv-x="895" 
d="M35 0l553 729h-504v125h750l-558 -731h553v-123h-794z" />
    <glyph glyph-name="braceleft" unicode="{" 
d="M854 1370h-37q-131 0 -177 -49.5t-46 -204.5v-242q0 -168 -43.5 -240t-153.5 -104q110 -31 153.5 -103t43.5 -241v-241q0 -155 45 -204.5t170 -49.5q7 0 22 1t23 1v-107h-47q-197 0 -266.5 72.5t-69.5 296.5v244q0 154 -57 217t-195 63q-7 0 -21.5 -1t-23.5 -1v109
q9 0 23.5 -1t21.5 -1q138 0 195 63t57 217v242q0 223 70 297t266 74h47v-107z" />
    <glyph glyph-name="bar" unicode="|" 
d="M567 1565v-2048h-108v2048h108z" />
    <glyph glyph-name="braceright" unicode="}" 
d="M555 1106v-242q0 -154 57 -217t195 -63q7 0 22 1t23 1v-109q-8 0 -23 1t-22 1q-138 0 -195 -63t-57 -217v-244q0 -223 -69.5 -296t-266.5 -73h-47v107h39q130 0 175.5 49t45.5 203v241q0 171 43 242t154 102q-111 32 -154 103t-43 241v242q0 157 -45 206.5t-170 49.5
q-7 0 -22 -1t-23 -1v107h47q196 0 266 -74t70 -297z" />
    <glyph glyph-name="asciitilde" unicode="~" horiz-adv-x="1706" 
d="M1530 637q-102 -72 -198 -107.5t-189 -35.5q-99 0 -260 57l-29 10l-16 6q-176 64 -273 64q-83 0 -175 -38t-212 -122v113q106 73 202 109t185 36q104 0 272 -61q11 -4 18 -7q9 -3 31 -11q167 -60 257 -60q85 0 177 38t210 122v-113z" />
    <glyph glyph-name="Adieresis" unicode="&#xc4;" horiz-adv-x="1204" 
d="M356 426h486l-244 489zM0 0l541 1104h114l547 -1104h-149l-150 297h-610l-146 -297h-147zM674 1399q0 37 25.5 63.5t62.5 26.5t63.5 -26.5t26.5 -63.5q0 -38 -26.5 -64t-63.5 -26t-62.5 26t-25.5 64zM352 1399q0 37 26.5 63.5t63.5 26.5t62.5 -26.5t25.5 -63.5
q0 -38 -25.5 -64t-62.5 -26t-63.5 26t-26.5 64z" />
    <glyph glyph-name="Aring" unicode="&#xc5;" horiz-adv-x="1204" 
d="M449 1456q0 -63 44 -107t107 -44q62 0 106 44t44 107q0 62 -44 106t-106 44q-63 0 -107 -43.5t-44 -106.5zM358 1456q0 100 70.5 170t171.5 70q100 0 170 -70t70 -170t-70 -171t-170 -71q-101 0 -171.5 71t-70.5 171zM356 426h486l-244 489zM0 0l541 1104h114l547 -1104
h-149l-150 297h-610l-146 -297h-147z" />
    <glyph glyph-name="Ccedilla" unicode="&#xc7;" horiz-adv-x="1237" 
d="M1047 352l110 -82q-76 -144 -208 -221.5t-300 -77.5q-248 0 -409.5 163.5t-161.5 414.5q0 252 162 415.5t409 163.5q153 0 279 -67t205 -191l-115 -82q-52 99 -150 155t-219 56q-186 0 -308 -127.5t-122 -322.5t122 -322t308 -127q130 0 231 64t167 188zM405 -418v76
q95 -20 146 -27.5t90 -7.5q64 0 97.5 23t33.5 67q0 55 -34.5 80t-108.5 25q-19 0 -28.5 -0.5t-18.5 -1.5v184h63v-111h20q106 0 162 -44t56 -128q0 -85 -58 -130.5t-168 -45.5q-54 0 -111.5 9t-140.5 32z" />
    <glyph glyph-name="Eacute" unicode="&#xc9;" horiz-adv-x="1118" 
d="M166 0v1104h868v-127h-731v-324h442v-127h-442v-399h776v-127h-913zM583 1239h-92l209 350h152z" />
    <glyph glyph-name="Ntilde" unicode="&#xd1;" horiz-adv-x="1255" 
d="M166 0v1104h72l716 -825v825h138v-1104h-70l-719 825v-825h-137zM918 1503q-26 -91 -74 -136.5t-117 -45.5q-13 0 -29.5 2.5t-35.5 7.5l-97 31q-16 5 -27.5 6.5t-25.5 1.5q-29 0 -53 -18.5t-39 -52.5h-80q22 88 72 135t123 47q16 0 29 -2t24 -6l96 -31q16 -6 31 -9t25 -3
q32 0 55 17.5t41 55.5h82z" />
    <glyph glyph-name="Odieresis" unicode="&#xd6;" horiz-adv-x="1298" 
d="M649 100q186 0 308 127t122 322q0 196 -121.5 323t-308.5 127q-186 0 -308 -127.5t-122 -322.5t122 -322t308 -127zM649 -29q-248 0 -409.5 163.5t-161.5 414.5q0 252 162 415.5t409 163.5q248 0 411 -164t163 -415t-162.5 -414.5t-411.5 -163.5zM721 1399
q0 37 25.5 63.5t62.5 26.5t63.5 -26.5t26.5 -63.5q0 -38 -26.5 -64t-63.5 -26t-62.5 26t-25.5 64zM399 1399q0 37 26.5 63.5t63.5 26.5t62.5 -26.5t25.5 -63.5q0 -38 -25.5 -64t-62.5 -26t-63.5 26t-26.5 64z" />
    <glyph glyph-name="Udieresis" unicode="&#xdc;" horiz-adv-x="1186" 
d="M274 1104v-715q0 -172 64.5 -230.5t253.5 -58.5t253 58.5t64 230.5v715h138v-752q0 -204 -106 -292.5t-349 -88.5t-349 88.5t-106 292.5v752h137zM666 1399q0 37 25.5 63.5t62.5 26.5t63.5 -26.5t26.5 -63.5q0 -38 -26.5 -64t-63.5 -26t-62.5 26t-25.5 64zM344 1399
q0 37 26.5 63.5t63.5 26.5t62.5 -26.5t25.5 -63.5q0 -38 -25.5 -64t-62.5 -26t-63.5 26t-26.5 64z" />
    <glyph glyph-name="aacute" unicode="&#xe1;" horiz-adv-x="920" 
d="M291 330h334l-166 327zM-18 0l434 854h84l438 -854h-143l-111 217h-451l-110 -217h-141zM428 987h-92l209 350h152z" />
    <glyph glyph-name="agrave" unicode="&#xe0;" horiz-adv-x="920" 
d="M291 330h334l-166 327zM-18 0l434 854h84l438 -854h-143l-111 217h-451l-110 -217h-141zM494 987l-269 350h152l209 -350h-92z" />
    <glyph glyph-name="acircumflex" unicode="&#xe2;" horiz-adv-x="920" 
d="M291 330h334l-166 327zM-18 0l434 854h84l438 -854h-143l-111 217h-451l-110 -217h-141zM185 987l200 350h152l200 -350h-92l-184 264l-184 -264h-92z" />
    <glyph glyph-name="adieresis" unicode="&#xe4;" horiz-adv-x="920" 
d="M291 330h334l-166 327zM-18 0l434 854h84l438 -854h-143l-111 217h-451l-110 -217h-141zM533 1147q0 37 25.5 63.5t62.5 26.5t63.5 -26.5t26.5 -63.5q0 -38 -26.5 -64t-63.5 -26t-62.5 26t-25.5 64zM211 1147q0 37 26.5 63.5t63.5 26.5t62.5 -26.5t25.5 -63.5
q0 -38 -25.5 -64t-62.5 -26t-63.5 26t-26.5 64z" />
    <glyph glyph-name="atilde" unicode="&#xe3;" horiz-adv-x="920" 
d="M291 330h334l-166 327zM-18 0l434 854h84l438 -854h-143l-111 217h-451l-110 -217h-141zM750 1251q-26 -91 -74 -136.5t-117 -45.5q-13 0 -29.5 2.5t-35.5 7.5l-97 31q-16 5 -27.5 6.5t-25.5 1.5q-29 0 -53 -18.5t-39 -52.5h-80q22 88 72 135t123 47q16 0 29 -2t24 -6
l96 -31q16 -6 31 -9t25 -3q32 0 55 17.5t41 55.5h82z" />
    <glyph glyph-name="aring" unicode="&#xe5;" horiz-adv-x="920" 
d="M291 330h334l-166 327zM-18 0l434 854h84l438 -854h-143l-111 217h-451l-110 -217h-141zM311 1208q0 -63 43.5 -106t106.5 -43q62 0 107 43.5t45 105.5q0 63 -45 107.5t-107 44.5q-63 0 -106.5 -44t-43.5 -108zM221 1210q0 101 69.5 170.5t170.5 69.5q100 0 171 -70
t71 -170q0 -99 -71 -170t-171 -71t-170 70.5t-70 170.5z" />
    <glyph glyph-name="ccedilla" unicode="&#xe7;" horiz-adv-x="1128" 
d="M1049 209q-73 -115 -191.5 -175.5t-269.5 -60.5q-225 0 -370.5 127.5t-145.5 323.5t145.5 324.5t370.5 128.5q140 0 254 -52.5t184 -148.5l-106 -74q-53 73 -139.5 112.5t-192.5 39.5q-164 0 -271.5 -93.5t-107.5 -234.5t108 -234.5t271 -93.5q114 0 201 45t153 140z
M325 -418v76q95 -20 146 -27.5t90 -7.5q64 0 97.5 23t33.5 67q0 55 -34.5 80t-108.5 25q-19 0 -28.5 -0.5t-18.5 -1.5v184h63v-111h20q106 0 162 -44t56 -128q0 -85 -58 -130.5t-168 -45.5q-54 0 -111.5 9t-140.5 32z" />
    <glyph glyph-name="eacute" unicode="&#xe9;" horiz-adv-x="1028" 
d="M145 0v854h801v-125h-667v-213h438v-123h-438v-270h704v-123h-838zM520 987h-92l209 350h152z" />
    <glyph glyph-name="egrave" unicode="&#xe8;" horiz-adv-x="1028" 
d="M145 0v854h801v-125h-667v-213h438v-123h-438v-270h704v-123h-838zM586 987l-269 350h152l209 -350h-92z" />
    <glyph glyph-name="ecircumflex" unicode="&#xea;" horiz-adv-x="1028" 
d="M145 0v854h801v-125h-667v-213h438v-123h-438v-270h704v-123h-838zM277 987l200 350h152l200 -350h-92l-184 264l-184 -264h-92z" />
    <glyph glyph-name="edieresis" unicode="&#xeb;" horiz-adv-x="1028" 
d="M145 0v854h801v-125h-667v-213h438v-123h-438v-270h704v-123h-838zM625 1147q0 37 25.5 63.5t62.5 26.5t63.5 -26.5t26.5 -63.5q0 -38 -26.5 -64t-63.5 -26t-62.5 26t-25.5 64zM303 1147q0 37 26.5 63.5t63.5 26.5t62.5 -26.5t25.5 -63.5q0 -38 -25.5 -64t-62.5 -26
t-63.5 26t-26.5 64z" />
    <glyph glyph-name="iacute" unicode="&#xed;" horiz-adv-x="432" 
d="M147 0v856h136v-856h-136zM184 987h-92l209 350h152z" />
    <glyph glyph-name="igrave" unicode="&#xec;" horiz-adv-x="432" 
d="M147 0v856h136v-856h-136zM250 987l-269 350h152l209 -350h-92z" />
    <glyph glyph-name="icircumflex" unicode="&#xee;" horiz-adv-x="432" 
d="M147 0v856h136v-856h-136zM-59 987l200 350h152l200 -350h-92l-184 264l-184 -264h-92z" />
    <glyph glyph-name="idieresis" unicode="&#xef;" horiz-adv-x="432" 
d="M147 0v856h136v-856h-136zM289 1147q0 37 25.5 63.5t62.5 26.5t63.5 -26.5t26.5 -63.5q0 -38 -26.5 -64t-63.5 -26t-62.5 26t-25.5 64zM-33 1147q0 37 26.5 63.5t63.5 26.5t62.5 -26.5t25.5 -63.5q0 -38 -25.5 -64t-62.5 -26t-63.5 26t-26.5 64z" />
    <glyph glyph-name="ntilde" unicode="&#xf1;" horiz-adv-x="1038" 
d="M147 0v854h70l543 -600v600h131v-854h-70l-542 598v-598h-132zM809 1251q-26 -91 -74 -136.5t-117 -45.5q-13 0 -29.5 2.5t-35.5 7.5l-97 31q-16 5 -27.5 6.5t-25.5 1.5q-29 0 -53 -18.5t-39 -52.5h-80q22 88 72 135t123 47q16 0 29 -2t24 -6l96 -31q16 -6 31 -9t25 -3
q32 0 55 17.5t41 55.5h82z" />
    <glyph glyph-name="oacute" unicode="&#xf3;" horiz-adv-x="1190" 
d="M594 98q171 0 279 92.5t108 235.5q0 142 -108.5 235t-278.5 93t-277.5 -92.5t-107.5 -235.5t107.5 -235.5t277.5 -92.5zM594 -27q-228 0 -375 129t-147 324q0 196 146.5 323.5t375.5 127.5q231 0 377.5 -127t146.5 -324q0 -196 -147 -324.5t-377 -128.5zM563 987h-92
l209 350h152z" />
    <glyph glyph-name="ograve" unicode="&#xf2;" horiz-adv-x="1190" 
d="M594 98q171 0 279 92.5t108 235.5q0 142 -108.5 235t-278.5 93t-277.5 -92.5t-107.5 -235.5t107.5 -235.5t277.5 -92.5zM594 -27q-228 0 -375 129t-147 324q0 196 146.5 323.5t375.5 127.5q231 0 377.5 -127t146.5 -324q0 -196 -147 -324.5t-377 -128.5zM629 987
l-269 350h152l209 -350h-92z" />
    <glyph glyph-name="ocircumflex" unicode="&#xf4;" horiz-adv-x="1190" 
d="M594 98q171 0 279 92.5t108 235.5q0 142 -108.5 235t-278.5 93t-277.5 -92.5t-107.5 -235.5t107.5 -235.5t277.5 -92.5zM594 -27q-228 0 -375 129t-147 324q0 196 146.5 323.5t375.5 127.5q231 0 377.5 -127t146.5 -324q0 -196 -147 -324.5t-377 -128.5zM320 987l200 350
h152l200 -350h-92l-184 264l-184 -264h-92z" />
    <glyph glyph-name="odieresis" unicode="&#xf6;" horiz-adv-x="1190" 
d="M594 98q171 0 279 92.5t108 235.5q0 142 -108.5 235t-278.5 93t-277.5 -92.5t-107.5 -235.5t107.5 -235.5t277.5 -92.5zM594 -27q-228 0 -375 129t-147 324q0 196 146.5 323.5t375.5 127.5q231 0 377.5 -127t146.5 -324q0 -196 -147 -324.5t-377 -128.5zM668 1147
q0 37 25.5 63.5t62.5 26.5t63.5 -26.5t26.5 -63.5q0 -38 -26.5 -64t-63.5 -26t-62.5 26t-25.5 64zM346 1147q0 37 26.5 63.5t63.5 26.5t62.5 -26.5t25.5 -63.5q0 -38 -25.5 -64t-62.5 -26t-63.5 26t-26.5 64z" />
    <glyph glyph-name="otilde" unicode="&#xf5;" horiz-adv-x="1190" 
d="M594 98q171 0 279 92.5t108 235.5q0 142 -108.5 235t-278.5 93t-277.5 -92.5t-107.5 -235.5t107.5 -235.5t277.5 -92.5zM594 -27q-228 0 -375 129t-147 324q0 196 146.5 323.5t375.5 127.5q231 0 377.5 -127t146.5 -324q0 -196 -147 -324.5t-377 -128.5zM885 1251
q-26 -91 -74 -136.5t-117 -45.5q-13 0 -29.5 2.5t-35.5 7.5l-97 31q-16 5 -27.5 6.5t-25.5 1.5q-29 0 -53 -18.5t-39 -52.5h-80q22 88 72 135t123 47q16 0 29 -2t24 -6l96 -31q16 -6 31 -9t25 -3q32 0 55 17.5t41 55.5h82z" />
    <glyph glyph-name="uacute" unicode="&#xfa;" horiz-adv-x="1139" 
d="M147 852h134v-547q0 -123 58 -166t230 -43q173 0 231 43t58 166v547h133v-582q0 -157 -99.5 -227t-324.5 -70q-224 0 -322 69t-98 228v582zM536 987h-92l209 350h152z" />
    <glyph glyph-name="ugrave" unicode="&#xf9;" horiz-adv-x="1139" 
d="M147 852h134v-547q0 -123 58 -166t230 -43q173 0 231 43t58 166v547h133v-582q0 -157 -99.5 -227t-324.5 -70q-224 0 -322 69t-98 228v582zM602 987l-269 350h152l209 -350h-92z" />
    <glyph glyph-name="ucircumflex" unicode="&#xfb;" horiz-adv-x="1139" 
d="M147 852h134v-547q0 -123 58 -166t230 -43q173 0 231 43t58 166v547h133v-582q0 -157 -99.5 -227t-324.5 -70q-224 0 -322 69t-98 228v582zM293 987l200 350h152l200 -350h-92l-184 264l-184 -264h-92z" />
    <glyph glyph-name="udieresis" unicode="&#xfc;" horiz-adv-x="1139" 
d="M147 852h134v-547q0 -123 58 -166t230 -43q173 0 231 43t58 166v547h133v-582q0 -157 -99.5 -227t-324.5 -70q-224 0 -322 69t-98 228v582zM641 1147q0 37 25.5 63.5t62.5 26.5t63.5 -26.5t26.5 -63.5q0 -38 -26.5 -64t-63.5 -26t-62.5 26t-25.5 64zM319 1147
q0 37 26.5 63.5t63.5 26.5t62.5 -26.5t25.5 -63.5q0 -38 -25.5 -64t-62.5 -26t-63.5 26t-26.5 64z" />
    <glyph glyph-name="dagger" unicode="&#x2020;" 
d="M449 -154v830h-283v117h283v311h129v-311h280v-117h-280v-830h-129z" />
    <glyph glyph-name="degree" unicode="&#xb0;" horiz-adv-x="674" 
d="M545 1174q0 86 -60.5 147t-146.5 61t-147.5 -61t-61.5 -147q0 -87 61 -147t148 -60t147 60t60 147zM338 1452q115 0 195.5 -81.5t80.5 -196.5t-81.5 -197t-196.5 -82q-117 0 -197 81t-80 198q0 116 81.5 197t197.5 81z" />
    <glyph glyph-name="cent" unicode="&#xa2;" horiz-adv-x="1366" 
d="M664 201v645q-117 -20 -190 -109.5t-73 -214.5t70.5 -211t192.5 -110zM1001 698q-37 61 -90.5 96.5t-128.5 49.5v-645q83 20 138 61.5t100 118.5l110 -74q-54 -100 -142 -158.5t-206 -72.5v-336h-118v334q-180 24 -290 148t-110 302q0 179 110 302.5t290 146.5v268h118
v-270q105 -11 187.5 -60t140.5 -135z" />
    <glyph glyph-name="sterling" unicode="&#xa3;" horiz-adv-x="1366" 
d="M238 0l8 127h121l-29 332h-156v129h146l-11 86v5q-4 36 -4 52q0 160 108.5 252t297.5 92q127 0 249 -45.5t246 -140.5l-81 -107q-121 85 -220.5 124.5t-189.5 39.5q-125 0 -199.5 -63t-74.5 -168q0 -17 3 -62q0 -5 1 -8l6 -57h342v-129h-330l29 -332h719v-127h-981z" />
    <glyph glyph-name="section" unicode="&#xa7;" 
d="M236 76h131v-4q0 -64 39 -98.5t110 -34.5q61 0 96 29t35 79q0 46 -35.5 83t-136.5 91l-139 76q-79 43 -117.5 96.5t-38.5 120.5q0 64 35.5 120.5t103.5 100.5q-36 29 -53.5 66.5t-17.5 87.5q0 105 71.5 172t184.5 67q123 0 194.5 -65t71.5 -178v-8h-131q-2 62 -38.5 98.5
t-96.5 36.5q-56 0 -88.5 -28t-32.5 -77q0 -38 25 -68t90 -65l190 -102q80 -43 117 -97t37 -126q0 -73 -40 -134t-104 -86q41 -33 61.5 -74.5t20.5 -91.5q0 -104 -79 -174.5t-199 -70.5t-193 70t-73 184v4zM625 303q35 21 55 54.5t20 70.5q0 42 -25.5 73t-109.5 77l-166 94
q-40 -24 -61 -53t-21 -62q0 -41 24.5 -72t113.5 -84z" />
    <glyph glyph-name="bullet" unicode="&#x2022;" horiz-adv-x="1208" 
d="M307 762q0 123 87 209t210 86q122 0 208.5 -86.5t86.5 -208.5t-87.5 -209.5t-209.5 -87.5q-123 0 -209 87t-86 210z" />
    <glyph glyph-name="paragraph" unicode="&#xb6;" 
d="M940 1409h-127v-1409h-82v1409h-186v-1409h-84v782q-174 8 -275.5 102.5t-101.5 245.5q0 157 107.5 253t285.5 96h463v-70z" />
    <glyph glyph-name="germandbls" unicode="&#xdf;" horiz-adv-x="2028" 
d="M72 109l65 112q88 -59 192 -92t199 -33q114 0 184 46.5t70 119.5t-64 108.5t-202 39.5q-233 3 -320 54t-87 169q0 110 95.5 177t256.5 67q110 0 213.5 -31t199.5 -92l-67 -111q-80 54 -172 83.5t-176 29.5q-97 0 -156 -34t-59 -89q0 -57 59.5 -81t206.5 -24
q204 0 308 -69t104 -205q0 -121 -105.5 -201t-273.5 -80q-124 0 -246.5 35.5t-224.5 100.5zM1086 109l65 112q88 -59 192 -92t199 -33q114 0 184 46.5t70 119.5t-64 108.5t-202 39.5q-233 3 -320 54t-87 169q0 110 95.5 177t256.5 67q110 0 213.5 -31t199.5 -92l-67 -111
q-80 54 -172 83.5t-176 29.5q-97 0 -156 -34t-59 -89q0 -57 59.5 -81t206.5 -24q204 0 308 -69t104 -205q0 -121 -105.5 -201t-273.5 -80q-124 0 -246.5 35.5t-224.5 100.5z" />
    <glyph glyph-name="registered" unicode="&#xae;" horiz-adv-x="1706" 
d="M850 1071h-158v-303h158q134 0 188 33.5t54 113.5q0 83 -57 119.5t-185 36.5zM874 1157q178 0 263.5 -57t85.5 -176q0 -89 -54 -149t-145 -73l188 -389h-145l-178 371h-197v-371h-127v844h309zM1505 721q0 134 -48 253t-138 210q-94 93 -213.5 142.5t-253.5 49.5
q-130 0 -246.5 -48t-208.5 -140q-95 -97 -145.5 -216.5t-50.5 -248.5t49.5 -247t142.5 -212q94 -93 212 -142.5t247 -49.5q130 0 250.5 50t216.5 144q91 89 138.5 204.5t47.5 250.5zM852 1456q152 0 285.5 -55t236.5 -160q102 -102 156.5 -235.5t54.5 -282.5
q0 -150 -53.5 -281t-157.5 -233q-107 -106 -242 -162.5t-280 -56.5q-147 0 -279.5 55.5t-236.5 161.5q-105 104 -160 237t-55 279q0 144 56.5 279.5t162.5 242.5q101 103 232 157t280 54z" />
    <glyph glyph-name="copyright" unicode="&#xa9;" horiz-adv-x="1706" 
d="M1073 915q-18 80 -75 124t-142 44q-122 0 -190 -95t-68 -267q0 -166 69 -260t189 -94q89 0 151 50.5t78 137.5h115q-11 -125 -108.5 -205t-241.5 -80q-177 0 -279 122t-102 335q0 203 107.5 326t283.5 123q135 0 226.5 -72t103.5 -189h-117zM1505 723q0 132 -48.5 251
t-139.5 210q-94 94 -213 143t-252 49q-132 0 -249 -48t-208 -140q-94 -96 -144 -215.5t-50 -249.5q0 -129 49.5 -247t142.5 -212q94 -93 212 -142.5t247 -49.5q130 0 250.5 50t216.5 144q91 89 138.5 206t47.5 251zM852 1456q149 0 283.5 -55.5t238.5 -159.5
q102 -102 156.5 -235.5t54.5 -282.5q0 -150 -53.5 -281t-157.5 -233q-107 -106 -242 -162.5t-280 -56.5t-278 55.5t-238 161.5q-105 104 -160 237t-55 279q0 145 56.5 279.5t162.5 242.5q101 103 232 157t280 54z" />
    <glyph glyph-name="trademark" unicode="&#x2122;" horiz-adv-x="1706" 
d="M938 1454l166 -422l156 422h116v-530h-71v467l-177 -467h-49l-186 467v-467h-72v530h117zM694 1454v-57h-172v-473h-82v473h-176v57h430z" />
    <glyph glyph-name="acute" unicode="&#xb4;" 
d="M479 987h-92l209 350h152z" />
    <glyph glyph-name="dieresis" unicode="&#xa8;" 
d="M584 1147q0 37 25.5 63.5t62.5 26.5t63.5 -26.5t26.5 -63.5q0 -38 -26.5 -64t-63.5 -26t-62.5 26t-25.5 64zM262 1147q0 37 26.5 63.5t63.5 26.5t62.5 -26.5t25.5 -63.5q0 -38 -25.5 -64t-62.5 -26t-63.5 26t-26.5 64z" />
    <glyph glyph-name="notequal" unicode="&#x2260;" horiz-adv-x="1706" 
d="M1288 1110l-205 -264h369v-96h-432l-215 -277h647v-98h-709l-254 -324l-73 60l205 264h-367v98h428l215 277h-643v96h707l253 323z" />
    <glyph glyph-name="AE" unicode="&#xc6;" horiz-adv-x="1759" 
d="M848 0v297h-580l-174 -297h-145l641 1104h1126v-127h-731v-324h445v-127h-445v-399h778v-127h-915zM340 426h508v551h-186z" />
    <glyph glyph-name="Oslash" unicode="&#xd8;" horiz-adv-x="1298" 
d="M1004 1157h157l-123 -174q89 -78 137 -190.5t48 -243.5q0 -251 -162.5 -414.5t-411.5 -163.5q-77 0 -146.5 17.5t-137.5 54.5l-70 -100h-158l123 174q-88 77 -135 188.5t-47 243.5q0 252 162 415.5t409 163.5q77 0 146.5 -17t138.5 -54zM342 227l516 721
q-53 27 -103.5 39t-105.5 12q-186 0 -308 -127.5t-122 -322.5q0 -94 29.5 -171t93.5 -151zM958 870l-518 -720q51 -26 101.5 -38t107.5 -12q186 0 308 127t122 322q0 95 -29.5 173.5t-91.5 147.5z" />
    <glyph glyph-name="infinity" unicode="&#x221e;" horiz-adv-x="1706" 
d="M897 559q52 -100 122 -149.5t159 -49.5q106 0 173.5 75t67.5 192q0 113 -62.5 187.5t-156.5 74.5q-86 0 -155 -74t-148 -256zM811 668q-52 99 -121.5 147.5t-159.5 48.5q-106 0 -173.5 -74.5t-67.5 -189.5q0 -112 63 -187t156 -75q87 0 156.5 75t146.5 255zM838 721
q72 144 149 206t182 62q124 0 215 -107.5t91 -265.5q0 -169 -81.5 -273.5t-211.5 -104.5q-95 0 -168 60.5t-146 203.5q-71 -139 -148 -201.5t-173 -62.5q-132 0 -223 106.5t-91 267.5q0 169 81.5 273t211.5 104q97 0 171.5 -64t140.5 -204z" />
    <glyph glyph-name="plusminus" unicode="&#xb1;" horiz-adv-x="1706" 
d="M1452 150v-99h-1198v99h1198zM903 1169v-348h549v-98h-549v-348h-98v348h-551v98h551v348h98z" />
    <glyph glyph-name="lessequal" unicode="&#x2264;" horiz-adv-x="1706" 
d="M1442 139v-98h-1178v98h1178zM1442 1075l-1010 -338l1010 -336v-106l-1178 401v84l1178 402v-107z" />
    <glyph glyph-name="greaterequal" unicode="&#x2265;" horiz-adv-x="1706" 
d="M1442 139v-98h-1178v98h1178zM1442 780v-84l-1178 -401v106l1010 336l-1010 338v107z" />
    <glyph glyph-name="yen" unicode="&#xa5;" horiz-adv-x="1290" 
d="M911 760h263v-92h-343l-108 -115h451v-92h-463v-461h-133v461h-461v92h446l-102 115h-344v92h260l-283 313h168l383 -424l381 424h170z" />
    <glyph glyph-name="mu" unicode="&#xb5;" horiz-adv-x="1110" 
d="M344 1065l-125 -592q-8 -39 -12 -73t-4 -66q0 -117 58 -180.5t167 -63.5q125 0 215 107.5t133 310.5l121 557h139l-164 -770q-12 -55 -17 -85t-5 -48q0 -33 17 -49.5t51 -16.5q7 0 16.5 0.5t19.5 1.5l-20 -110q-19 -5 -41 -8t-45 -3q-70 0 -103.5 36t-33.5 110v14
q-42 -77 -120 -119.5t-179 -42.5q-92 0 -161 40t-108 116l-114 -557h-140l316 1491h139z" />
    <glyph glyph-name="partialdiff" unicode="&#x2202;" horiz-adv-x="1034" 
d="M752 592q12 83 18 160t6 149q0 158 -40 242t-115 84q-50 0 -108 -68.5t-103 -68.5q-31 0 -52.5 20t-21.5 47q0 62 63.5 107t155.5 45q165 0 264 -150.5t99 -406.5q0 -334 -136 -556.5t-333 -222.5q-143 0 -233.5 107t-90.5 278q0 179 109 304.5t262 125.5q98 0 160.5 -48
t95.5 -148zM711 463q0 128 -45 193t-134 65q-113 0 -186.5 -124.5t-73.5 -322.5q0 -126 44.5 -188.5t134.5 -62.5q112 0 186 125.5t74 314.5z" />
    <glyph glyph-name="summation" unicode="&#x2211;" horiz-adv-x="1317" 
d="M49 1473h1223v-144h-1014l705 -766l-740 -813h1057v-143h-1266v133l744 821l-709 772v140z" />
    <glyph glyph-name="product" unicode="&#x220f;" horiz-adv-x="1509" 
d="M160 1473h1188v-1866h-168v1718h-852v-1718h-168v1866z" />
    <glyph glyph-name="pi" unicode="&#x3c0;" horiz-adv-x="1171" 
d="M1120 944h-182l-115 -541q-15 -69 -22.5 -117t-7.5 -71q0 -58 25 -82t85 -24q29 0 51 2.5t41 6.5l-26 -118q-28 -8 -53.5 -12t-47.5 -4q-101 0 -157 53t-56 149q0 46 11 118t45 233l86 407h-365l-199 -944h-139l199 944h-39q-55 0 -85.5 -31.5t-41.5 -99.5h-131
q25 143 88 197.5t215 54.5h848z" />
    <glyph glyph-name="integral" unicode="&#x222b;" horiz-adv-x="985" 
d="M293 -272q104 0 117 713q2 127 4 196q11 486 98 698.5t268 212.5q70 0 114 -37t44 -96q0 -48 -28.5 -76t-78.5 -28q-78 0 -103 69.5t-34 69.5q-105 0 -116 -623q-4 -185 -7 -289q-15 -497 -101 -703t-267 -206q-69 0 -113.5 36t-44.5 91q0 51 31 81t82 30
q36 0 61.5 -16.5t40.5 -51.5q4 -9 7 -33q4 -38 26 -38z" />
    <glyph glyph-name="ordfeminine" unicode="&#xaa;" horiz-adv-x="606" 
d="M193 616h219l-109 197zM-12 418l286 512h56l288 -512h-94l-73 131h-297l-72 -131h-94z" />
    <glyph glyph-name="ordmasculine" unicode="&#xba;" horiz-adv-x="784" 
d="M391 477q114 0 185 55.5t71 141.5q0 85 -71.5 140.5t-184.5 55.5q-112 0 -183 -55.5t-71 -140.5q0 -86 71 -141.5t183 -55.5zM391 401q-150 0 -247 77.5t-97 195.5q0 117 96.5 193.5t247.5 76.5q153 0 249.5 -76t96.5 -194q0 -119 -96.5 -196t-249.5 -77z" />
    <glyph glyph-name="Omega" unicode="&#x3a9;" horiz-adv-x="1579" 
d="M1462 139v-139h-581v127q207 124 313 293.5t106 374.5q0 260 -141.5 420.5t-367.5 160.5q-228 0 -370 -160t-142 -419q0 -207 106.5 -377.5t312.5 -292.5v-127h-581v139h344q-173 133 -256.5 291.5t-83.5 353.5q0 320 188.5 524.5t481.5 204.5q291 0 480 -203.5
t189 -523.5q0 -196 -83.5 -354t-258.5 -293h344z" />
    <glyph glyph-name="ae" unicode="&#xe6;" horiz-adv-x="1659" 
d="M322 330h454v399h-225zM252 217l-125 -217h-143l491 854h1106v-125h-672v-213h437v-123h-437v-270h705v-123h-838v217h-524z" />
    <glyph glyph-name="oslash" unicode="&#xf8;" horiz-adv-x="1094" 
d="M63 -39l138 158q-57 66 -85 141.5t-28 165.5q0 195 130.5 323t328.5 128q72 0 134 -17t122 -53l69 84h158l-137 -160q57 -66 85 -141t28 -164q0 -195 -130.5 -324t-328.5 -129q-73 0 -134.5 17t-121.5 53l-70 -82h-158zM287 217l436 498q-39 24 -81 35.5t-95 11.5
q-141 0 -233.5 -95.5t-92.5 -240.5q0 -58 16.5 -110.5t49.5 -98.5zM807 637l-434 -500q39 -23 80.5 -34t93.5 -11q142 0 234.5 94.5t92.5 239.5q0 62 -16.5 114t-50.5 97z" />
    <glyph glyph-name="questiondown" unicode="&#xbf;" horiz-adv-x="739" 
d="M483 831v-178q0 -49 -15.5 -86.5t-68.5 -89.5l-170 -170q-20 -20 -28 -39.5t-8 -48.5q0 -54 44 -88.5t115 -34.5q82 0 135 40t70 114l127 -47q-31 -116 -114 -174t-218 -58q-138 0 -218.5 70.5t-80.5 189.5q0 47 19 87.5t59 78.5l174 170q21 21 31 51t10 70v143h137z
M412 946q-36 0 -60 26.5t-24 65.5q0 40 24 65t60 25q35 0 59.5 -25t24.5 -65q0 -39 -24.5 -65.5t-59.5 -26.5z" />
    <glyph glyph-name="exclamdown" unicode="&#xa1;" horiz-adv-x="682" 
d="M401 813l17 -813h-152l17 813h118zM342 946q-35 0 -59.5 26.5t-24.5 65.5q0 40 24 65t60 25q35 0 58.5 -25t23.5 -65t-23.5 -66t-58.5 -26z" />
    <glyph glyph-name="logicalnot" unicode="&#xac;" horiz-adv-x="1706" 
d="M1452 858v-502h-96v402h-1102v100h1198z" />
    <glyph glyph-name="radical" unicode="&#x221a;" horiz-adv-x="1276" 
d="M1276 1636v-71h-125l-594 -1606h-41l-328 899l-114 -39l-19 58l246 86l272 -746l525 1419h178z" />
    <glyph glyph-name="florin" unicode="&#x192;" horiz-adv-x="1366" 
d="M647 76q-39 -178 -127 -258t-241 -80q-39 0 -89 8.5t-122 28.5l45 121q47 -15 86 -22t69 -7q101 0 158.5 52t81.5 165l106 494h-245l26 129h246l41 194q37 176 126 257t243 81q38 0 88 -8.5t123 -28.5l-45 -121q-48 15 -87 22t-69 7q-101 0 -160 -53t-82 -164l-37 -186
h279l-27 -129h-278z" />
    <glyph glyph-name="approxequal" unicode="&#x2248;" horiz-adv-x="1706" 
d="M1530 469q-106 -74 -201 -109.5t-186 -35.5q-101 0 -291 69.5t-287 69.5q-82 0 -171 -36.5t-216 -123.5v111q107 74 202 109.5t185 35.5q109 0 298.5 -68.5t279.5 -68.5q86 0 175 35.5t212 122.5v-111zM1530 807q-104 -74 -199 -109.5t-188 -35.5q-103 0 -292 69.5
t-286 69.5q-82 0 -171 -36.5t-216 -123.5v113q105 73 201 109t186 36q109 0 298.5 -69.5t279.5 -69.5q84 0 171 34.5t216 123.5v-111z" />
    <glyph glyph-name="Delta" unicode="&#x2206;" horiz-adv-x="1346" 
d="M1139 139l-467 1186l-465 -1186h932zM766 1473l590 -1473h-1366l590 1473h186z" />
    <glyph glyph-name="guillemotleft" unicode="&#xab;" horiz-adv-x="829" 
d="M371 84l-324 242v198l324 244v-145l-254 -197l254 -201v-141zM780 84l-323 242v198l323 244v-145l-254 -197l254 -201v-141z" />
    <glyph glyph-name="guillemotright" unicode="&#xbb;" horiz-adv-x="829" 
d="M461 84v141l252 201l-252 197v145l321 -244v-198zM49 84v141l254 201l-254 197v145l324 -244v-198z" />
    <glyph glyph-name="ellipsis" unicode="&#x2026;" horiz-adv-x="2048" 
d="M342 154q35 0 58.5 -26t23.5 -67q0 -39 -23.5 -64.5t-58.5 -25.5q-36 0 -60 25.5t-24 64.5q0 40 24.5 66.5t59.5 26.5zM1024 154q35 0 58.5 -26t23.5 -67q0 -39 -23.5 -64.5t-58.5 -25.5q-36 0 -60 25.5t-24 64.5q0 40 24.5 66.5t59.5 26.5zM1708 154q35 0 58.5 -26
t23.5 -67q0 -39 -23.5 -64.5t-58.5 -25.5q-36 0 -60 25.5t-24 64.5q0 40 24.5 66.5t59.5 26.5z" />
    <glyph glyph-name="nonbreakingspace" unicode="&#xa0;" horiz-adv-x="1366" 
 />
    <glyph glyph-name="Agrave" unicode="&#xc0;" horiz-adv-x="1204" 
d="M356 426h486l-244 489zM0 0l541 1104h114l547 -1104h-149l-150 297h-610l-146 -297h-147zM635 1239l-269 350h152l209 -350h-92z" />
    <glyph glyph-name="Atilde" unicode="&#xc3;" horiz-adv-x="1204" 
d="M356 426h486l-244 489zM0 0l541 1104h114l547 -1104h-149l-150 297h-610l-146 -297h-147zM891 1503q-26 -91 -74 -136.5t-117 -45.5q-13 0 -29.5 2.5t-35.5 7.5l-97 31q-16 5 -27.5 6.5t-25.5 1.5q-29 0 -53 -18.5t-39 -52.5h-80q22 88 72 135t123 47q16 0 29 -2t24 -6
l96 -31q16 -6 31 -9t25 -3q32 0 55 17.5t41 55.5h82z" />
    <glyph glyph-name="Otilde" unicode="&#xd5;" horiz-adv-x="1298" 
d="M649 100q186 0 308 127t122 322q0 196 -121.5 323t-308.5 127q-186 0 -308 -127.5t-122 -322.5t122 -322t308 -127zM649 -29q-248 0 -409.5 163.5t-161.5 414.5q0 252 162 415.5t409 163.5q248 0 411 -164t163 -415t-162.5 -414.5t-411.5 -163.5zM938 1503
q-26 -91 -74 -136.5t-117 -45.5q-13 0 -29.5 2.5t-35.5 7.5l-97 31q-16 5 -27.5 6.5t-25.5 1.5q-29 0 -53 -18.5t-39 -52.5h-80q22 88 72 135t123 47q16 0 29 -2t24 -6l96 -31q16 -6 31 -9t25 -3q32 0 55 17.5t41 55.5h82z" />
    <glyph glyph-name="OE" unicode="&#x152;" horiz-adv-x="2019" 
d="M1069 0v166q-78 -98 -182 -146.5t-238 -48.5q-248 0 -409.5 163.5t-161.5 414.5q0 252 162 415.5t409 163.5q136 0 237 -47t183 -149v172h870v-127h-731v-324h443v-127h-443v-399h777v-127h-916zM649 100q186 0 308 127t122 322q0 196 -121.5 323t-308.5 127
q-186 0 -308 -127.5t-122 -322.5t122 -322t308 -127z" />
    <glyph glyph-name="oe" unicode="&#x153;" horiz-adv-x="1858" 
d="M975 854h803v-125h-670v-213h438v-123h-438v-270h704v-123h-837v111q-79 -71 -170.5 -104.5t-210.5 -33.5q-228 0 -375 129t-147 324q0 199 148.5 325t387.5 126q117 0 203.5 -32t163.5 -104v113zM594 98q171 0 279 92.5t108 235.5q0 142 -108.5 235t-278.5 93
t-277.5 -92.5t-107.5 -235.5t107.5 -235.5t277.5 -92.5z" />
    <glyph glyph-name="endash" unicode="&#x2013;" 
d="M0 592h1024v-84h-1024v84z" />
    <glyph glyph-name="emdash" unicode="&#x2014;" horiz-adv-x="2048" 
d="M2048 592v-84h-2048v84h2048z" />
    <glyph glyph-name="quotedblleft" unicode="&#x201c;" horiz-adv-x="1014" 
d="M436 1094q-31 -46 -53.5 -90t-36.5 -86h8q31 0 51.5 -26t20.5 -65q0 -42 -23.5 -69t-60.5 -27q-42 0 -68 36t-26 97q0 57 38 124t111 140zM768 1094q-31 -46 -53.5 -90t-36.5 -86h8q30 0 51 -26t21 -65q0 -42 -23.5 -69t-60.5 -27q-42 0 -68 36t-26 97q0 57 37.5 124
t111.5 140z" />
    <glyph glyph-name="quotedblright" unicode="&#x201d;" horiz-adv-x="1014" 
d="M580 766q29 43 51 87t37 89h-11q-30 0 -49.5 24.5t-19.5 63.5q0 43 24.5 70.5t61.5 27.5q42 0 68 -36.5t26 -98.5q0 -55 -38 -120.5t-114 -141.5zM248 766q29 43 51 87t37 89h-10q-31 0 -50.5 24.5t-19.5 63.5q0 43 24.5 70.5t61.5 27.5q42 0 68 -36.5t26 -98.5
q0 -55 -38 -120.5t-113 -141.5z" />
    <glyph glyph-name="quoteleft" unicode="&#x2018;" horiz-adv-x="682" 
d="M436 1094q-31 -46 -53.5 -90t-36.5 -86h8q31 0 51.5 -26t20.5 -65q0 -42 -23.5 -69t-60.5 -27q-42 0 -68 36t-26 97q0 57 38 124t111 140z" />
    <glyph glyph-name="quoteright" unicode="&#x2019;" horiz-adv-x="682" 
d="M248 766q29 43 51 87t37 89h-10q-31 0 -50.5 24.5t-19.5 63.5q0 43 24.5 70.5t61.5 27.5q42 0 68 -36.5t26 -98.5q0 -55 -38 -120.5t-113 -141.5z" />
    <glyph glyph-name="divide" unicode="&#xf7;" horiz-adv-x="1706" 
d="M854 365q45 0 76 -31t31 -76q0 -44 -31 -75t-76 -31t-75.5 31t-30.5 75t31 75.5t75 31.5zM1452 659v-98h-1198v98h1198zM854 1071q44 0 75.5 -32t31.5 -76q0 -45 -31 -76t-76 -31t-75.5 30.5t-30.5 76.5q0 44 31.5 76t74.5 32z" />
    <glyph glyph-name="lozenge" unicode="&#x25ca;" horiz-adv-x="1012" 
d="M506 1409l-385 -817l385 -825l385 825zM506 1653l500 -1061l-500 -1069l-500 1069z" />
    <glyph glyph-name="ydieresis" unicode="&#xff;" horiz-adv-x="915" 
d="M391 0v436l-389 418h172l283 -303l278 303h178l-391 -416v-438h-131zM531 1147q0 37 25.5 63.5t62.5 26.5t63.5 -26.5t26.5 -63.5q0 -38 -26.5 -64t-63.5 -26t-62.5 26t-25.5 64zM209 1147q0 37 26.5 63.5t63.5 26.5t62.5 -26.5t25.5 -63.5q0 -38 -25.5 -64t-62.5 -26
t-63.5 26t-26.5 64z" />
    <glyph glyph-name="Ydieresis" unicode="&#x178;" horiz-adv-x="930" 
d="M395 0v553l-497 551h172l395 -436l393 436h174l-500 -553v-551h-137zM537 1399q0 37 25.5 63.5t62.5 26.5t63.5 -26.5t26.5 -63.5q0 -38 -26.5 -64t-63.5 -26t-62.5 26t-25.5 64zM215 1399q0 37 26.5 63.5t63.5 26.5t62.5 -26.5t25.5 -63.5q0 -38 -25.5 -64t-62.5 -26
t-63.5 26t-26.5 64z" />
    <glyph glyph-name="fraction" unicode="&#x2215;" horiz-adv-x="342" 
d="M545 1073h137l-885 -1102h-139z" />
    <glyph glyph-name="currency" unicode="&#xa4;" horiz-adv-x="1366" 
d="M1321 244q-80 -130 -220 -201.5t-317 -71.5q-222 0 -385 113t-211 299h-155l47 92l98 1q-1 8 -1.5 17.5t-0.5 28.5q0 12 1 26l3 41l-147 1l47 92h115q54 179 214 286t375 107q163 0 298 -64t221 -182l-115 -84q-56 95 -163 148t-239 53q-154 0 -272 -71t-168 -193h744
l-50 -92h-716q-3 -29 -3.5 -42t-1.5 -26q0 -19 0.5 -28.5t2.5 -18.5h659l-49 -92h-594q45 -130 166.5 -206.5t281.5 -76.5q132 0 250 62.5t189 169.5z" />
    <glyph glyph-name="guilsinglleft" unicode="&#x2039;" horiz-adv-x="418" 
d="M371 84l-324 242v198l324 244v-145l-254 -197l254 -201v-141z" />
    <glyph glyph-name="guilsinglright" unicode="&#x203a;" horiz-adv-x="418" 
d="M47 84v141l254 201l-254 197v145l324 -244v-198z" />
    <glyph glyph-name="fi" unicode="&#xf001;" horiz-adv-x="1395" 
d="M279 393v-393h-134v854h789v-125h-655v-213h423v-123h-423zM1110 0v856h136v-856h-136z" />
    <glyph glyph-name="fi" unicode="&#xfb01;" horiz-adv-x="1395" 
d="M279 393v-393h-134v854h789v-125h-655v-213h423v-123h-423zM1110 0v856h136v-856h-136z" />
    <glyph glyph-name="fl" unicode="&#xf002;" horiz-adv-x="1882" 
d="M279 393v-393h-134v854h789v-125h-655v-213h423v-123h-423zM1108 0v854h134v-731h634v-123h-768z" />
    <glyph glyph-name="fl" unicode="&#xfb02;" horiz-adv-x="1882" 
d="M279 393v-393h-134v854h789v-125h-655v-213h423v-123h-423zM1108 0v854h134v-731h634v-123h-768z" />
    <glyph glyph-name="daggerdbl" unicode="&#x2021;" 
d="M446 676h-280v119h280v309h132v-309h280v-119h-280v-402h280v-118h-280v-310h-132v310h-280v118h280v402z" />
    <glyph glyph-name="periodcentered" unicode="&#xb7;" horiz-adv-x="682" 
d="M256 535q0 36 24 61t60 25t62 -25.5t26 -60.5q0 -36 -25.5 -61t-62.5 -25q-35 0 -59.5 25t-24.5 61z" />
    <glyph glyph-name="quotesinglbase" unicode="&#x201a;" horiz-adv-x="682" 
d="M248 -174q30 44 52 87t36 87h-8q-31 0 -51.5 25.5t-20.5 64.5q0 43 24.5 70.5t61.5 27.5q42 0 68 -36.5t26 -98.5q0 -55 -38 -120.5t-113 -141.5z" />
    <glyph glyph-name="quotedblbase" unicode="&#x201e;" horiz-adv-x="1014" 
d="M580 -176q29 42 51 86.5t37 89.5h-11q-30 0 -49.5 24.5t-19.5 63.5q0 43 24.5 70.5t61.5 27.5q42 0 68 -36.5t26 -98.5q0 -55 -38 -120.5t-114 -141.5zM248 -176q29 42 51 86.5t37 89.5h-10q-31 0 -50.5 24.5t-19.5 63.5q0 43 24.5 70.5t61.5 27.5q42 0 68 -36.5
t26 -98.5q0 -55 -38 -120.5t-113 -141.5z" />
    <glyph glyph-name="perthousand" unicode="&#x2030;" horiz-adv-x="2470" 
d="M2101 90q80 0 133.5 57t53.5 142q0 86 -53.5 143t-133.5 57q-79 0 -131.5 -57t-52.5 -143t52.5 -142.5t131.5 -56.5zM2105 -29q-135 0 -225 90.5t-90 227.5t89.5 227t225.5 90q137 0 225.5 -89.5t88.5 -227.5t-89 -228t-225 -90zM1358 90q79 0 132.5 57t53.5 142
q0 86 -53 143t-133 57q-79 0 -131.5 -57t-52.5 -143t52.5 -142.5t131.5 -56.5zM1358 -29q-135 0 -224.5 90.5t-89.5 227.5t89 227t225 90q137 0 226 -89.5t89 -227.5t-89.5 -228t-225.5 -90zM1071 1051h143l-561 -1051h-143zM367 557q79 0 132.5 58t53.5 143t-53 141.5
t-133 56.5t-132.5 -56t-52.5 -142t53 -143.5t132 -57.5zM367 438q-135 0 -225.5 90.5t-90.5 227.5t90 228t226 91t224.5 -90t88.5 -229q0 -138 -89 -228t-224 -90z" />
    <glyph glyph-name="Acircumflex" unicode="&#xc2;" horiz-adv-x="1204" 
d="M356 426h486l-244 489zM0 0l541 1104h114l547 -1104h-149l-150 297h-610l-146 -297h-147zM326 1239l200 350h152l200 -350h-92l-184 264l-184 -264h-92z" />
    <glyph glyph-name="Ecircumflex" unicode="&#xca;" horiz-adv-x="1118" 
d="M166 0v1104h868v-127h-731v-324h442v-127h-442v-399h776v-127h-913zM340 1239l200 350h152l200 -350h-92l-184 264l-184 -264h-92z" />
    <glyph glyph-name="Aacute" unicode="&#xc1;" horiz-adv-x="1204" 
d="M356 426h486l-244 489zM0 0l541 1104h114l547 -1104h-149l-150 297h-610l-146 -297h-147zM569 1239h-92l209 350h152z" />
    <glyph glyph-name="Edieresis" unicode="&#xcb;" horiz-adv-x="1118" 
d="M166 0v1104h868v-127h-731v-324h442v-127h-442v-399h776v-127h-913zM688 1399q0 37 25.5 63.5t62.5 26.5t63.5 -26.5t26.5 -63.5q0 -38 -26.5 -64t-63.5 -26t-62.5 26t-25.5 64zM366 1399q0 37 26.5 63.5t63.5 26.5t62.5 -26.5t25.5 -63.5q0 -38 -25.5 -64t-62.5 -26
t-63.5 26t-26.5 64z" />
    <glyph glyph-name="Egrave" unicode="&#xc8;" horiz-adv-x="1118" 
d="M166 0v1104h868v-127h-731v-324h442v-127h-442v-399h776v-127h-913zM649 1239l-269 350h152l209 -350h-92z" />
    <glyph glyph-name="Iacute" unicode="&#xcd;" horiz-adv-x="473" 
d="M168 0v1110h139v-1110h-139zM205 1239h-92l209 350h152z" />
    <glyph glyph-name="Icircumflex" unicode="&#xce;" horiz-adv-x="473" 
d="M168 0v1110h139v-1110h-139zM-38 1239l200 350h152l200 -350h-92l-184 264l-184 -264h-92z" />
    <glyph glyph-name="Idieresis" unicode="&#xcf;" horiz-adv-x="473" 
d="M168 0v1110h139v-1110h-139zM310 1399q0 37 25.5 63.5t62.5 26.5t63.5 -26.5t26.5 -63.5q0 -38 -26.5 -64t-63.5 -26t-62.5 26t-25.5 64zM-12 1399q0 37 26.5 63.5t63.5 26.5t62.5 -26.5t25.5 -63.5q0 -38 -25.5 -64t-62.5 -26t-63.5 26t-26.5 64z" />
    <glyph glyph-name="Igrave" unicode="&#xcc;" horiz-adv-x="473" 
d="M168 0v1110h139v-1110h-139zM271 1239l-269 350h152l209 -350h-92z" />
    <glyph glyph-name="Oacute" unicode="&#xd3;" horiz-adv-x="1298" 
d="M649 100q186 0 308 127t122 322q0 196 -121.5 323t-308.5 127q-186 0 -308 -127.5t-122 -322.5t122 -322t308 -127zM649 -29q-248 0 -409.5 163.5t-161.5 414.5q0 252 162 415.5t409 163.5q248 0 411 -164t163 -415t-162.5 -414.5t-411.5 -163.5zM616 1239h-92l209 350
h152z" />
    <glyph glyph-name="Ocircumflex" unicode="&#xd4;" horiz-adv-x="1298" 
d="M649 100q186 0 308 127t122 322q0 196 -121.5 323t-308.5 127q-186 0 -308 -127.5t-122 -322.5t122 -322t308 -127zM649 -29q-248 0 -409.5 163.5t-161.5 414.5q0 252 162 415.5t409 163.5q248 0 411 -164t163 -415t-162.5 -414.5t-411.5 -163.5zM373 1239l200 350h152
l200 -350h-92l-184 264l-184 -264h-92z" />
    <glyph glyph-name="apple" unicode="&#xf000;" horiz-adv-x="1618" 
d="M836 1216q-1 6 -1.5 14t-0.5 23q0 124 95 229.5t236 131.5q1 -10 1.5 -23t0.5 -39q0 -131 -103.5 -234.5t-203.5 -103.5h-8q-3 0 -7.5 1t-8.5 1zM1505 403q-114 -247 -205 -342.5t-204 -95.5q-50 0 -131.5 33t-122.5 33q-45 0 -131 -33t-127 -33q-64 0 -128.5 44
t-129.5 132q-102 140 -157.5 295.5t-55.5 300.5q0 219 125 356.5t323 137.5q68 0 155 -34t124 -34q34 0 121.5 34t152.5 34q111 0 199 -39.5t160 -122.5q-102 -65 -151.5 -145.5t-49.5 -182.5q0 -113 60 -200t173 -138z" />
    <glyph glyph-name="Ograve" unicode="&#xd2;" horiz-adv-x="1298" 
d="M649 100q186 0 308 127t122 322q0 196 -121.5 323t-308.5 127q-186 0 -308 -127.5t-122 -322.5t122 -322t308 -127zM649 -29q-248 0 -409.5 163.5t-161.5 414.5q0 252 162 415.5t409 163.5q248 0 411 -164t163 -415t-162.5 -414.5t-411.5 -163.5zM682 1239l-269 350h152
l209 -350h-92z" />
    <glyph glyph-name="Uacute" unicode="&#xda;" horiz-adv-x="1186" 
d="M274 1104v-715q0 -172 64.5 -230.5t253.5 -58.5t253 58.5t64 230.5v715h138v-752q0 -204 -106 -292.5t-349 -88.5t-349 88.5t-106 292.5v752h137zM561 1239h-92l209 350h152z" />
    <glyph glyph-name="Ucircumflex" unicode="&#xdb;" horiz-adv-x="1186" 
d="M274 1104v-715q0 -172 64.5 -230.5t253.5 -58.5t253 58.5t64 230.5v715h138v-752q0 -204 -106 -292.5t-349 -88.5t-349 88.5t-106 292.5v752h137zM318 1239l200 350h152l200 -350h-92l-184 264l-184 -264h-92z" />
    <glyph glyph-name="Ugrave" unicode="&#xd9;" horiz-adv-x="1186" 
d="M274 1104v-715q0 -172 64.5 -230.5t253.5 -58.5t253 58.5t64 230.5v715h138v-752q0 -204 -106 -292.5t-349 -88.5t-349 88.5t-106 292.5v752h137zM627 1239l-269 350h152l209 -350h-92z" />
    <glyph glyph-name="dotlessi" unicode="&#x131;" horiz-adv-x="432" 
d="M147 0v856h136v-856h-136z" />
    <glyph glyph-name="circumflex" unicode="&#x2c6;" 
d="M236 987l200 350h152l200 -350h-92l-184 264l-184 -264h-92z" />
    <glyph glyph-name="tilde" unicode="&#x2dc;" 
d="M801 1251q-26 -91 -74 -136.5t-117 -45.5q-13 0 -29.5 2.5t-35.5 7.5l-97 31q-16 5 -27.5 6.5t-25.5 1.5q-29 0 -53 -18.5t-39 -52.5h-80q22 88 72 135t123 47q16 0 29 -2t24 -6l96 -31q16 -6 31 -9t25 -3q32 0 55 17.5t41 55.5h82z" />
    <glyph glyph-name="macron" unicode="&#xaf;" 
d="M256 1087v117h512v-117h-512z" />
    <glyph glyph-name="breve" unicode="&#x2d8;" 
d="M238 1292h79q6 -75 53 -110t142 -35q96 0 141 34.5t52 110.5h81q-9 -136 -74.5 -199t-199.5 -63q-133 0 -199 63t-75 199z" />
    <glyph glyph-name="dotaccent" unicode="&#x2d9;" 
d="M412 1147q0 41 29.5 70.5t70.5 29.5t69.5 -29t28.5 -71t-28.5 -70t-69.5 -28t-70.5 29t-29.5 69z" />
    <glyph glyph-name="ring" unicode="&#x2da;" 
d="M362 1208q0 -63 43.5 -106t106.5 -43q62 0 107 43.5t45 105.5q0 63 -45 107.5t-107 44.5q-63 0 -106.5 -44t-43.5 -108zM272 1210q0 101 69.5 170.5t170.5 69.5q100 0 171 -70t71 -170q0 -99 -71 -170t-171 -71t-170 70.5t-70 170.5z" />
    <glyph glyph-name="cedilla" unicode="&#xb8;" 
d="M272 -418v76q95 -20 146 -27.5t90 -7.5q64 0 97.5 23t33.5 67q0 55 -34.5 80t-108.5 25q-19 0 -28.5 -0.5t-18.5 -1.5v184h63v-111h20q106 0 162 -44t56 -128q0 -85 -58 -130.5t-168 -45.5q-54 0 -111.5 9t-140.5 32z" />
    <glyph glyph-name="hungarumlaut" unicode="&#x2dd;" 
d="M571 987l168 350h133l-227 -350h-74zM336 987l149 350h133l-208 -350h-74z" />
    <glyph glyph-name="ogonek" unicode="&#x2db;" 
d="M578 0q-73 -63 -109.5 -122.5t-36.5 -113.5q0 -46 24.5 -66t84.5 -20h75v-104h-71q-108 0 -159.5 39.5t-51.5 122.5q0 61 46 128t136 136h62z" />
    <glyph glyph-name="caron" unicode="&#x2c7;" 
d="M236 1337h92l184 -262l184 262h92l-200 -350h-152z" />
    <glyph glyph-name="Lslash" unicode="&#x141;" horiz-adv-x="1165" 
d="M307 0v502l-307 -174v131l307 174v471h137v-410l361 209v-131l-361 -209v-436h721v-127h-858z" />
    <glyph glyph-name="lslash" unicode="&#x142;" horiz-adv-x="958" 
d="M180 0v342l-180 -102v125l180 102v387h133v-311l279 162v-127l-279 -162v-293h637v-123h-770z" />
    <glyph glyph-name="Scaron" unicode="&#x160;" horiz-adv-x="1223" 
d="M61 166l80 119q117 -91 243.5 -139t250.5 -48q153 0 248.5 65t95.5 167q0 81 -68.5 133.5t-189.5 62.5q-29 3 -84 6q-272 19 -371 64q-77 37 -117 95.5t-40 131.5q0 133 119 219t309 86q138 0 272.5 -45.5t255.5 -134.5l-80 -114q-102 82 -214.5 123.5t-231.5 41.5
q-125 0 -206 -48.5t-81 -121.5q0 -29 13 -53t40 -45q68 -51 294 -65q104 -6 161 -13q168 -19 266 -108t98 -219q0 -155 -134.5 -255t-352.5 -100q-165 0 -306.5 48t-269.5 147zM336 1589h92l184 -262l184 262h92l-200 -350h-152z" />
    <glyph glyph-name="scaron" unicode="&#x161;" horiz-adv-x="1014" 
d="M72 109l65 112q88 -59 192 -92t199 -33q114 0 184 46.5t70 119.5t-64 108.5t-202 39.5q-233 3 -320 54t-87 169q0 110 95.5 177t256.5 67q110 0 213.5 -31t199.5 -92l-67 -111q-80 54 -172 83.5t-176 29.5q-97 0 -156 -34t-59 -89q0 -57 59.5 -81t206.5 -24
q204 0 308 -69t104 -205q0 -121 -105.5 -201t-273.5 -80q-124 0 -246.5 35.5t-224.5 100.5zM232 1337h92l184 -262l184 262h92l-200 -350h-152z" />
    <glyph glyph-name="Zcaron" unicode="&#x17d;" horiz-adv-x="1042" 
d="M-4 0l745 977h-682v127h932l-729 -977h725v-127h-991zM246 1589h92l184 -262l184 262h92l-200 -350h-152z" />
    <glyph glyph-name="zcaron" unicode="&#x17e;" horiz-adv-x="895" 
d="M35 0l553 729h-504v125h750l-558 -731h553v-123h-794zM173 1337h92l184 -262l184 262h92l-200 -350h-152z" />
    <glyph glyph-name="brokenbar" unicode="&#xa6;" 
d="M567 408v-758h-108v758h108zM567 1432v-758h-108v758h108z" />
    <glyph glyph-name="Eth" unicode="&#xd0;" horiz-adv-x="1370" 
d="M713 977h-336v-315h387v-115h-387v-420h336q204 0 321 114.5t117 309.5q0 192 -119.5 309t-318.5 117zM713 1104q260 0 419.5 -154t159.5 -401q0 -249 -157 -399t-422 -150h-473v547h-238v115h238v442h473z" />
    <glyph glyph-name="eth" unicode="&#xf0;" horiz-adv-x="1090" 
d="M561 854q209 0 337 -119.5t128 -310.5q0 -193 -125.5 -308.5t-339.5 -115.5h-381v403h-180v113h180v338h381zM563 731h-250v-215h262v-113h-262v-280h250q152 0 239 81.5t87 221.5q0 135 -90 220t-236 85z" />
    <glyph glyph-name="Yacute" unicode="&#xdd;" horiz-adv-x="930" 
d="M395 0v553l-497 551h172l395 -436l393 436h174l-500 -553v-551h-137zM432 1239h-92l209 350h152z" />
    <glyph glyph-name="yacute" unicode="&#xfd;" horiz-adv-x="915" 
d="M391 0v436l-389 418h172l283 -303l278 303h178l-391 -416v-438h-131zM426 987h-92l209 350h152z" />
    <glyph glyph-name="Thorn" unicode="&#xde;" horiz-adv-x="1200" 
d="M297 762v-367h487q103 0 157 47t54 136q0 87 -53.5 135.5t-150.5 48.5h-494zM160 1104h137v-215h496q162 0 254 -81.5t92 -225.5q0 -139 -90 -226.5t-238 -87.5h-514v-268h-137v1104z" />
    <glyph glyph-name="thorn" unicode="&#xfe;" horiz-adv-x="1090" 
d="M281 563v-231h487q68 0 104.5 30t36.5 87q0 54 -35 84t-100 30h-493zM281 688h487q131 0 205 -63t74 -174q0 -108 -73 -176t-192 -68h-501v-207h-134v854h134v-166z" />
    <glyph glyph-name="minus" unicode="&#x2212;" horiz-adv-x="1706" 
d="M1452 659v-98h-1198v98h1198z" />
    <glyph glyph-name="multiply" unicode="&#xd7;" horiz-adv-x="1706" 
d="M856 680l481 481l70 -69l-481 -482l481 -481l-70 -70l-481 482l-481 -482l-70 70l481 481l-481 482l70 69z" />
    <glyph glyph-name="onesuperior" unicode="&#xb9;" horiz-adv-x="901" 
d="M403 414v637h93v-637h-93z" />
    <glyph glyph-name="twosuperior" unicode="&#xb2;" horiz-adv-x="901" 
d="M158 418q0 31 -2 66v12q0 102 45.5 156t158.5 89q41 14 111 35q199 60 199 111q0 42 -48.5 70t-123.5 28q-66 0 -134.5 -24t-146.5 -74l-55 63q83 58 163 85.5t164 27.5q121 0 198 -50.5t77 -125.5q0 -103 -248 -179q-24 -8 -37 -12q-155 -46 -193 -79t-38 -91
q0 -12 0.5 -19t1.5 -13h528v-76h-620z" />
    <glyph glyph-name="threesuperior" unicode="&#xb3;" horiz-adv-x="901" 
d="M133 610q87 -72 164.5 -102.5t171.5 -30.5q115 0 189.5 40t74.5 97t-57.5 85t-173.5 28h-31v75q8 0 18 -0.5t27 -0.5q86 0 125 20.5t39 65.5q0 43 -48.5 70.5t-127.5 27.5q-73 0 -143 -22.5t-140 -69.5l-55 68q74 50 160.5 76t181.5 26q122 0 194 -48t72 -128
q0 -36 -16 -65.5t-47 -51.5q57 -23 86.5 -62.5t29.5 -91.5q0 -89 -100 -152t-252 -63q-123 0 -219 35.5t-178 110.5z" />
    <glyph glyph-name="onequarter" unicode="&#xbc;" horiz-adv-x="2062" 
d="M1407 215h397v279zM1804 0v141h-530v74l530 373h86v-373h111v-74h-111v-141h-86zM1405 1073h137l-885 -1102h-139zM385 455v594h88v-594h-88z" />
    <glyph glyph-name="onehalf" unicode="&#xbd;" horiz-adv-x="2062" 
d="M1354 0q-1 19 -2.5 44t-1.5 30q0 93 44 143.5t152 83.5l103 32q192 57 192 105q0 40 -46 66t-118 26q-62 0 -127.5 -22t-140.5 -70l-51 60q76 53 152.5 78.5t158.5 25.5q116 0 189 -47t73 -119q0 -95 -246 -168q-17 -5 -26 -8q-150 -45 -185.5 -76t-35.5 -84
q0 -4 0.5 -9.5t3.5 -18.5h502v-72h-590zM1405 1073h137l-885 -1102h-139zM385 455v594h88v-594h-88z" />
    <glyph glyph-name="threequarters" unicode="&#xbe;" horiz-adv-x="2062" 
d="M1407 215h397v279zM1804 0v141h-530v74l530 373h86v-373h111v-74h-111v-141h-86zM1405 1073h137l-885 -1102h-139zM127 637q82 -66 157 -94.5t165 -28.5q108 0 178.5 37.5t70.5 91.5q0 53 -54.5 79t-164.5 26h-30v69h45q80 0 117.5 19t37.5 59q0 42 -46 68t-124 26
q-68 0 -134.5 -21t-133.5 -65l-53 64q71 46 154 70t171 24q117 0 185.5 -45t68.5 -121q0 -33 -14.5 -59.5t-44.5 -49.5q56 -21 84.5 -56.5t28.5 -84.5q0 -85 -96 -144t-242 -59q-116 0 -207.5 33.5t-171.5 104.5z" />
    <glyph glyph-name="franc" unicode="&#x20a3;" horiz-adv-x="2124" 
d="M166 0v1104h868v-127h-731v-324h442v-127h-442v-526h-137zM1295 498h454q69 0 105.5 30t36.5 86t-36.5 85.5t-105.5 29.5h-454v-231zM1295 373v-373h-134v852h588q131 0 205 -63t74 -175q0 -91 -58.5 -157.5t-152.5 -81.5l237 -375h-145l-242 373h-372z" />
    <glyph glyph-name="Gbreve" unicode="&#x11e;" horiz-adv-x="1266" 
d="M1012 299v162h-301v127h438v-332q-80 -138 -208.5 -211.5t-291.5 -73.5q-248 0 -409.5 163.5t-161.5 414.5q0 252 162 415.5t409 163.5q153 0 279 -67t205 -191l-115 -82q-52 99 -150 155t-219 56q-186 0 -308 -127.5t-122 -322.5t122 -322t308 -127q116 0 206.5 50
t156.5 149zM359 1544h79q6 -75 53 -110t142 -35q96 0 141 34.5t52 110.5h81q-9 -136 -74.5 -199t-199.5 -63q-133 0 -199 63t-75 199z" />
    <glyph glyph-name="gbreve" unicode="&#x11f;" horiz-adv-x="1176" 
d="M725 332v123h352v-258q-74 -110 -193 -167t-276 -57q-236 0 -386 127.5t-150 323.5t151 324.5t385 128.5q148 0 262.5 -51t190.5 -150l-103 -74q-54 71 -146.5 111.5t-203.5 40.5q-175 0 -287 -93t-112 -235t111.5 -235t287.5 -93q110 0 203.5 40t130.5 102v92h-217z
M314 1292h79q6 -75 53 -110t142 -35q96 0 141 34.5t52 110.5h81q-9 -136 -74.5 -199t-199.5 -63q-133 0 -199 63t-75 199z" />
    <glyph glyph-name="Idotaccent" unicode="&#x130;" horiz-adv-x="473" 
d="M168 0v1110h139v-1110h-139zM138 1399q0 41 29.5 70.5t70.5 29.5t69.5 -29t28.5 -71t-28.5 -70t-69.5 -28t-70.5 29t-29.5 69z" />
    <glyph glyph-name="Scedilla" unicode="&#x15e;" horiz-adv-x="1223" 
d="M61 166l80 119q117 -91 243.5 -139t250.5 -48q153 0 248.5 65t95.5 167q0 81 -68.5 133.5t-189.5 62.5q-29 3 -84 6q-272 19 -371 64q-77 37 -117 95.5t-40 131.5q0 133 119 219t309 86q138 0 272.5 -45.5t255.5 -134.5l-80 -114q-102 82 -214.5 123.5t-231.5 41.5
q-125 0 -206 -48.5t-81 -121.5q0 -29 13 -53t40 -45q68 -51 294 -65q104 -6 161 -13q168 -19 266 -108t98 -219q0 -155 -134.5 -255t-352.5 -100q-165 0 -306.5 48t-269.5 147zM372 -418v76q95 -20 146 -27.5t90 -7.5q64 0 97.5 23t33.5 67q0 55 -34.5 80t-108.5 25
q-19 0 -28.5 -0.5t-18.5 -1.5v184h63v-111h20q106 0 162 -44t56 -128q0 -85 -58 -130.5t-168 -45.5q-54 0 -111.5 9t-140.5 32z" />
    <glyph glyph-name="scedilla" unicode="&#x15f;" horiz-adv-x="1014" 
d="M72 109l65 112q88 -59 192 -92t199 -33q114 0 184 46.5t70 119.5t-64 108.5t-202 39.5q-233 3 -320 54t-87 169q0 110 95.5 177t256.5 67q110 0 213.5 -31t199.5 -92l-67 -111q-80 54 -172 83.5t-176 29.5q-97 0 -156 -34t-59 -89q0 -57 59.5 -81t206.5 -24
q204 0 308 -69t104 -205q0 -121 -105.5 -201t-273.5 -80q-124 0 -246.5 35.5t-224.5 100.5zM268 -418v76q95 -20 146 -27.5t90 -7.5q64 0 97.5 23t33.5 67q0 55 -34.5 80t-108.5 25q-19 0 -28.5 -0.5t-18.5 -1.5v184h63v-111h20q106 0 162 -44t56 -128q0 -85 -58 -130.5
t-168 -45.5q-54 0 -111.5 9t-140.5 32z" />
    <glyph glyph-name="Cacute" unicode="&#x106;" horiz-adv-x="1237" 
d="M1047 352l110 -82q-76 -144 -208 -221.5t-300 -77.5q-248 0 -409.5 163.5t-161.5 414.5q0 252 162 415.5t409 163.5q153 0 279 -67t205 -191l-115 -82q-52 99 -150 155t-219 56q-186 0 -308 -127.5t-122 -322.5t122 -322t308 -127q130 0 231 64t167 188zM624 1239h-92
l209 350h152z" />
    <glyph glyph-name="cacute" unicode="&#x107;" horiz-adv-x="1128" 
d="M1049 209q-73 -115 -191.5 -175.5t-269.5 -60.5q-225 0 -370.5 127.5t-145.5 323.5t145.5 324.5t370.5 128.5q140 0 254 -52.5t184 -148.5l-106 -74q-53 73 -139.5 112.5t-192.5 39.5q-164 0 -271.5 -93.5t-107.5 -234.5t108 -234.5t271 -93.5q114 0 201 45t153 140z
M532 987h-92l209 350h152z" />
    <glyph glyph-name="Ccaron" unicode="&#x10c;" horiz-adv-x="1237" 
d="M1047 352l110 -82q-76 -144 -208 -221.5t-300 -77.5q-248 0 -409.5 163.5t-161.5 414.5q0 252 162 415.5t409 163.5q153 0 279 -67t205 -191l-115 -82q-52 99 -150 155t-219 56q-186 0 -308 -127.5t-122 -322.5t122 -322t308 -127q130 0 231 64t167 188zM381 1589h92
l184 -262l184 262h92l-200 -350h-152z" />
    <glyph glyph-name="ccaron" unicode="&#x10d;" horiz-adv-x="1128" 
d="M1049 209q-73 -115 -191.5 -175.5t-269.5 -60.5q-225 0 -370.5 127.5t-145.5 323.5t145.5 324.5t370.5 128.5q140 0 254 -52.5t184 -148.5l-106 -74q-53 73 -139.5 112.5t-192.5 39.5q-164 0 -271.5 -93.5t-107.5 -234.5t108 -234.5t271 -93.5q114 0 201 45t153 140z
M289 1337h92l184 -262l184 262h92l-200 -350h-152z" />
    <glyph glyph-name="dcroat" unicode="&#x111;" horiz-adv-x="1090" 
d="M561 854q209 0 337 -119.5t128 -310.5q0 -193 -125.5 -308.5t-339.5 -115.5h-381v403h-180v113h180v338h381zM563 731h-250v-215h262v-113h-262v-280h250q152 0 239 81.5t87 221.5q0 135 -90 220t-236 85z" />
    <glyph glyph-name="sfthyphen" unicode="&#xad;" horiz-adv-x="526" 
d="M47 610h432v-121h-432v121z" />
    <glyph glyph-name="periodcentered" unicode="&#x2219;" horiz-adv-x="682" 
d="M256 535q0 36 24 61t60 25t62 -25.5t26 -60.5q0 -36 -25.5 -61t-62.5 -25q-35 0 -59.5 25t-24.5 61z" />
    <glyph glyph-name="Euro" horiz-adv-x="1366" 
d="M1321 244q-80 -130 -220 -201.5t-317 -71.5q-222 0 -385 113t-211 299h-155l47 92l98 1q-1 8 -1.5 17.5t-0.5 28.5q0 12 1 26l3 41l-147 1l47 92h115q54 179 214 286t375 107q163 0 298 -64t221 -182l-115 -84q-56 95 -163 148t-239 53q-154 0 -272 -71t-168 -193h744
l-50 -92h-716q-3 -29 -3.5 -42t-1.5 -26q0 -19 0.5 -28.5t2.5 -18.5h659l-49 -92h-594q45 -130 166.5 -206.5t281.5 -76.5q132 0 250 62.5t189 169.5z" />
    <glyph glyph-name="Euro" unicode="&#x20ac;" horiz-adv-x="1366" 
d="M1321 244q-80 -130 -220 -201.5t-317 -71.5q-222 0 -385 113t-211 299h-155l47 92l98 1q-1 8 -1.5 17.5t-0.5 28.5q0 12 1 26l3 41l-147 1l47 92h115q54 179 214 286t375 107q163 0 298 -64t221 -182l-115 -84q-56 95 -163 148t-239 53q-154 0 -272 -71t-168 -193h744
l-50 -92h-716q-3 -29 -3.5 -42t-1.5 -26q0 -19 0.5 -28.5t2.5 -18.5h659l-49 -92h-594q45 -130 166.5 -206.5t281.5 -76.5q132 0 250 62.5t189 169.5z" />
    </font>
</defs>
</svg>
