<?xml version="1.0" standalone="no"?>
<!DOCTYPE svg PUBLIC "-//W3C//DTD SVG 1.1//EN" "http://www.w3.org/Graphics/SVG/1.1/DTD/svg11.dtd" >
<svg>
<metadata>
Created by FontForge 20090622 at Mon Nov  4 15:32:36 2019
 By deploy user
Digitized data copyright Monotype Typography, Ltd 1999. All rights reserved. Monotype Bodoni&#194;&#174; is a trademark of Monotype Typography, Ltd which may be registered in certain jurisdictions.
</metadata>
<defs>
<font id="BodoniMT" horiz-adv-x="1004" >
  <font-face 
    font-family="Bodoni MT"
    font-weight="400"
    font-stretch="normal"
    units-per-em="2048"
    panose-1="2 7 6 3 8 6 6 2 2 3"
    ascent="1638"
    descent="-410"
    x-height="786"
    cap-height="1341"
    bbox="-207 -569 2060 1878"
    underline-thickness="102"
    underline-position="-103"
    unicode-range="U+0020-U+FB02"
  />
<missing-glyph horiz-adv-x="2048" 
d="M256 0v1536h1536v-1536h-1536zM384 128h1280v1280h-1280v-1280z" />
    <glyph glyph-name=".notdef" horiz-adv-x="2048" 
d="M256 0v1536h1536v-1536h-1536zM384 128h1280v1280h-1280v-1280z" />
    <glyph glyph-name=".null" horiz-adv-x="0" 
 />
    <glyph glyph-name="nonmarkingreturn" horiz-adv-x="502" 
 />
    <glyph glyph-name="space" unicode=" " horiz-adv-x="502" 
 />
    <glyph glyph-name="exclam" unicode="!" horiz-adv-x="555" 
d="M303 406h-49q-2 242 -14 355t-43 258.5t-31 209.5q0 50 34 88.5t83 38.5q50 0 82 -39t32 -96q0 -80 -35.5 -236.5t-46 -260t-12.5 -318.5zM152 102q0 53 37.5 89t89.5 36q50 0 87 -36.5t37 -88.5t-36.5 -89.5t-87.5 -37.5q-52 0 -89.5 37.5t-37.5 89.5z" />
    <glyph glyph-name="quotedbl" unicode="&#x22;" horiz-adv-x="836" 
d="M580 788l-54 297q-22 123 -22 166q0 121 96 121q43 0 72.5 -29t29.5 -77q0 -41 -6 -82l-73 -396h-43zM209 788l-53 297q-23 123 -23 166q0 121 96 121q44 0 73.5 -29t29.5 -77q0 -41 -6 -82l-74 -396h-43z" />
    <glyph glyph-name="numbersign" unicode="#" horiz-adv-x="1368" 
d="M94 963h330l88 409h102l-86 -409h439l86 409h104l-86 -409h205v-107h-225l-82 -387h307v-104h-328l-86 -410h-104l86 410h-441l-84 -410h-106l86 410h-205v104h228l81 387h-309v107zM948 856h-440l-82 -385h442z" />
    <glyph glyph-name="dollar" unicode="$" 
d="M410 1274v98h45v-92q40 4 66 4q23 0 71 -4v92h45v-96q144 -22 214.5 -94.5t70.5 -155.5q0 -53 -30.5 -83t-68.5 -30t-65 28.5t-27 74.5q0 66 61 93q29 14 29 24q0 16 -46 49t-138 47v-494q297 -124 297 -377q0 -114 -74 -216t-223 -144v-215h-45v203q-76 -13 -137 -9
v-194h-45v199q-166 29 -242 118t-76 183q0 48 31 88.5t80 40.5q38 0 70 -29.5t32 -75.5t-28.5 -74t-65.5 -28q-2 0 -14.5 3t-14.5 3q-12 0 -12 -16q0 -29 62 -87t178 -75v588q-281 105 -281 333q0 244 281 320zM455 1229v-422q40 -18 137 -51v475l-66 4q-15 0 -41 -3t-30 -3
zM410 829v390q-174 -56 -174 -197q0 -121 174 -193zM592 37v500l-137 59v-567q20 -2 35 -2q26 0 102 10zM637 518v-467q192 65 192 232q0 156 -192 235z" />
    <glyph glyph-name="percent" unicode="%" horiz-adv-x="1898" 
d="M475 668q-106 0 -185 98.5t-79 241.5q0 159 81.5 259.5t188.5 100.5t185.5 -101.5t78.5 -246.5t-77 -248.5t-193 -103.5zM481 1335q-56 0 -78 -62t-22 -243q0 -197 20.5 -264.5t77.5 -67.5q51 0 73.5 56.5t22.5 351.5q0 229 -94 229zM1489 1368l-987 -1431h-90l985 1431
h92zM1417 -63q-106 0 -185 98.5t-79 240.5q0 160 81.5 260.5t188.5 100.5t186 -101.5t79 -246.5t-77.5 -248.5t-193.5 -103.5zM1423 604q-56 0 -78 -62.5t-22 -242.5q0 -198 20.5 -265t77.5 -67q51 0 74 56.5t23 351.5q0 229 -95 229z" />
    <glyph glyph-name="ampersand" unicode="&#x26;" horiz-adv-x="1450" 
d="M778 741l234 -372q4 -13 32 -52q126 171 152 467h-195v52h396v-52h-154q-20 -320 -170 -508l162 -225h149v-51h-401q-44 63 -80 106q-173 -137 -385 -137q-211 0 -327.5 110.5t-116.5 266.5q0 147 104 264t297 176q-115 196 -115 299q0 108 94.5 189.5t235.5 81.5
q138 0 238 -66t100 -172q0 -87 -66.5 -153t-238.5 -129zM698 877q97 39 126.5 93t29.5 146q0 189 -160 189q-61 0 -101 -32.5t-40 -82.5q0 -89 145 -313zM500 743q-213 -80 -213 -223q0 -133 107.5 -304t248.5 -171q109 0 236 102q-223 320 -379 596z" />
    <glyph glyph-name="quotesingle" unicode="'" horiz-adv-x="369" 
d="M160 788l-54 297q-22 123 -22 166q0 121 96 121q43 0 73 -29t30 -77q0 -41 -7 -82l-73 -396h-43z" />
    <glyph glyph-name="parenleft" unicode="(" horiz-adv-x="662" 
d="M573 -506h-53q-208 217 -300.5 465t-92.5 473q0 245 101 499.5t292 424.5h53q-274 -350 -274 -910q0 -593 274 -952z" />
    <glyph glyph-name="parenright" unicode=")" horiz-adv-x="662" 
d="M88 1356h53q209 -217 301.5 -463.5t92.5 -474.5q0 -245 -101.5 -499.5t-292.5 -424.5h-53q274 350 274 909q0 594 -274 953z" />
    <glyph glyph-name="asterisk" unicode="*" 
d="M420 1278q0 39 23.5 66.5t58.5 27.5q37 0 58.5 -27.5t21.5 -60.5q0 -40 -34 -112.5t-34 -94.5t16 -22q27 0 89.5 88t125.5 88q38 0 59 -24.5t21 -51.5q0 -36 -33.5 -64t-68.5 -30q-170 -8 -170 -43q0 -25 95 -34q102 -9 137.5 -37.5t35.5 -69.5q0 -30 -21.5 -52
t-49.5 -22q-67 0 -136 100q-45 76 -82 76q-16 0 -16 -21q0 -28 33 -98t33 -108q0 -33 -22.5 -61.5t-59.5 -28.5q-36 0 -57 27.5t-21 58.5q0 37 31.5 109.5t31.5 98.5q0 19 -14 19q-30 0 -88.5 -86t-124.5 -86q-36 0 -57 23t-21 51q0 93 156 104q113 8 113 37q0 31 -113 39
q-158 8 -158 106q0 28 21 52t57 24q63 0 126.5 -90t90.5 -90q10 0 10 14q0 29 -31.5 100t-31.5 105z" />
    <glyph glyph-name="plus" unicode="+" horiz-adv-x="1366" 
d="M141 713h488v485h106v-485h488v-107h-488v-485h-106v485h-488v107z" />
    <glyph glyph-name="comma" unicode="," horiz-adv-x="555" 
d="M244 -326l-31 33q180 158 180 287q0 88 -39 88q-16 0 -27 -33q-26 -78 -102 -78q-45 0 -75.5 32.5t-30.5 82.5q0 57 42 94t103 37q77 0 132 -57.5t55 -145.5q0 -165 -207 -340z" />
    <glyph glyph-name="hyphen" unicode="-" horiz-adv-x="662" 
d="M117 508h428v-166h-428v166z" />
    <glyph glyph-name="period" unicode="." horiz-adv-x="555" 
d="M152 102q0 51 36.5 88t87.5 37q53 0 90 -36.5t37 -88.5t-37 -89.5t-90 -37.5q-51 0 -87.5 37.5t-36.5 89.5z" />
    <glyph glyph-name="slash" unicode="/" horiz-adv-x="575" 
d="M575 1372l-466 -1403h-109l467 1403h108z" />
    <glyph glyph-name="zero" unicode="0" 
d="M500 -29q-172 0 -294 204t-122 454q0 267 124 477.5t298 210.5q168 0 291 -211t123 -465q0 -248 -124 -459t-296 -211zM707 496v344q0 428 -201 428q-101 0 -155 -100t-54 -349v-389q0 -410 207 -410q100 0 151.5 106.5t51.5 369.5z" />
    <glyph glyph-name="one" unicode="1" 
d="M598 1317v-1266h231v-51h-651v51h230v1174h-230v51h35q219 0 385 41z" />
    <glyph glyph-name="two" unicode="2" 
d="M885 371l-33 -371h-750v119q117 131 343.5 341t226.5 464q0 143 -63 231t-179 88q-103 0 -168 -65.5t-65 -141.5q0 -39 18 -39q4 0 16 7q33 22 64 22q39 0 66.5 -30.5t27.5 -71.5q0 -42 -30 -72.5t-74 -30.5q-62 0 -103 53.5t-41 133.5q0 122 100.5 215.5t258.5 93.5
q155 0 267 -86t112 -225q0 -148 -99 -271t-291.5 -302t-273.5 -267h455q127 0 138.5 21t18.5 98l9 86h49z" />
    <glyph glyph-name="three" unicode="3" 
d="M518 700v-4q219 -18 303 -119.5t84 -224.5q0 -155 -131 -268t-315 -113q-144 0 -238 77t-94 169q0 52 29 87.5t73 35.5q41 0 69 -30.5t28 -73.5q0 -68 -54 -95q-34 -15 -34 -24q0 -19 62.5 -55.5t139.5 -36.5q244 0 244 297q0 214 -89.5 279t-195.5 65l-87 -6
q-48 0 -48 32q0 31 41 31q13 0 63.5 -5t51.5 -5q31 0 90.5 33t88 87.5t28.5 172.5q0 157 -43.5 209.5t-124.5 52.5q-74 0 -126 -29.5t-52 -54.5q0 -11 39.5 -32.5t39.5 -74.5q0 -37 -29 -64.5t-65 -27.5q-41 0 -67.5 34t-26.5 79q0 82 87 150.5t224 68.5q153 0 256 -86.5
t103 -210.5q0 -236 -324 -320z" />
    <glyph glyph-name="four" unicode="4" 
d="M715 1317v-909h168v147h49v-358h-49v159h-168v-305h151v-51h-514v51h170v305h-471v52q337 629 570 909h94zM522 408v692h-4q-171 -254 -409 -692h413z" />
    <glyph glyph-name="five" unicode="5" 
d="M252 1116l-16 -375q106 33 206 33q189 0 315 -110.5t126 -276.5q0 -176 -137 -296t-324 -120q-154 0 -236 79t-82 181q0 45 28 77t77 32q40 0 67 -28t27 -70q0 -72 -64 -99q-26 -11 -26 -22q0 -28 53.5 -60t134.5 -32q261 0 261 323q0 367 -279 367q-81 0 -126.5 -23.5
t-55.5 -23.5q-20 0 -19 39l19 405q5 121 29.5 148.5t146.5 27.5h215q97 0 121 9t35 55h43q-6 -166 -50.5 -203t-152.5 -37h-336z" />
    <glyph glyph-name="six" unicode="6" 
d="M836 1356v-62q-456 -56 -508 -536l4 -4q92 106 219 106q154 0 265.5 -127.5t111.5 -296.5q0 -182 -120.5 -323.5t-287.5 -141.5q-182 0 -302 161.5t-120 406.5q0 325 208.5 552.5t529.5 264.5zM317 666l-6 -177q0 -366 74 -417.5t135 -51.5q94 0 144.5 79.5t50.5 324.5
q0 259 -46.5 323t-131.5 64q-118 0 -220 -145z" />
    <glyph glyph-name="seven" unicode="7" 
d="M211 1294h700l-139 -340q-5 -19 -68.5 -172.5t-89.5 -253t-26 -166.5q0 -59 27.5 -148t27.5 -132q0 -40 -28.5 -75.5t-77.5 -35.5q-56 0 -91.5 44t-35.5 116q0 75 47 191l325 786h-477q-70 0 -88.5 -17.5t-40.5 -101.5l-16 -61h-51z" />
    <glyph glyph-name="eight" unicode="8" 
d="M598 670v-4q165 -38 245.5 -128t80.5 -206q0 -147 -114.5 -254t-307.5 -107q-189 0 -304.5 103t-115.5 250q0 136 95.5 228t246.5 114v4q-153 29 -230 119t-77 198q0 134 111 231t274 97q177 0 284 -99t107 -229q0 -99 -74.5 -192t-220.5 -125zM508 692q86 0 133 64
t47 239q0 157 -46.5 214t-137.5 57q-87 0 -134.5 -57t-47.5 -263q0 -254 186 -254zM500 20q109 0 160 62.5t51 230.5q0 324 -209 324q-99 0 -153 -72.5t-54 -265.5q0 -156 48 -217.5t157 -61.5z" />
    <glyph glyph-name="nine" unicode="9" 
d="M182 -72v41q435 72 506 568l-4 4q-95 -107 -223 -107q-142 0 -258.5 126.5t-116.5 295.5q0 180 113.5 319.5t289.5 139.5q187 0 309 -154t122 -401q0 -317 -211 -552t-527 -280zM696 618l11 334q0 318 -209 318q-105 0 -152 -84.5t-47 -399.5q0 -301 174 -301
q123 0 223 133z" />
    <glyph glyph-name="colon" unicode=":" horiz-adv-x="555" 
d="M152 686q0 51 36.5 88t87.5 37q53 0 90 -37t37 -88q0 -52 -37 -89.5t-90 -37.5q-51 0 -87.5 37.5t-36.5 89.5zM152 102q0 51 36.5 88t87.5 37q53 0 90 -36.5t37 -88.5t-37 -89.5t-90 -37.5q-51 0 -87.5 37.5t-36.5 89.5z" />
    <glyph glyph-name="semicolon" unicode=";" horiz-adv-x="555" 
d="M152 686q0 51 36.5 88t87.5 37q53 0 90 -37t37 -88q0 -52 -37 -89.5t-90 -37.5q-51 0 -87.5 37.5t-36.5 89.5zM244 -326l-31 33q180 158 180 287q0 88 -39 88q-16 0 -27 -33q-26 -78 -102 -78q-45 0 -75.5 32.5t-30.5 82.5q0 57 42 94t103 37q77 0 132 -57.5t55 -145.5
q0 -165 -207 -340z" />
    <glyph glyph-name="less" unicode="&#x3c;" horiz-adv-x="1366" 
d="M1223 156l-1080 456v97l1080 454v-116l-934 -388l934 -387v-116z" />
    <glyph glyph-name="equal" unicode="=" horiz-adv-x="1366" 
d="M143 950h1080v-108h-1080v108zM143 483h1080v-108h-1080v108z" />
    <glyph glyph-name="greater" unicode="&#x3e;" horiz-adv-x="1366" 
d="M143 1163l1080 -456v-97l-1080 -454v116l936 385l-936 387v119z" />
    <glyph glyph-name="question" unicode="?" horiz-adv-x="897" 
d="M428 385h-43q-16 87 -16 137q0 219 136 325.5t174 152.5t38 112q0 79 -69 138t-173 59q-97 0 -160 -49.5t-63 -85.5q0 -15 38.5 -17t65.5 -31.5t27 -66.5q0 -40 -29.5 -68t-70.5 -28q-48 0 -79.5 32.5t-31.5 98.5q0 107 88.5 184.5t214.5 77.5q159 0 253.5 -108.5
t94.5 -246.5q0 -104 -50 -184.5t-214 -193.5q-135 -95 -135 -187q0 -26 4 -51zM303 102q0 52 36.5 88.5t88.5 36.5t89.5 -36.5t37.5 -88.5q0 -53 -37 -90t-90 -37q-52 0 -88.5 37.5t-36.5 89.5z" />
    <glyph glyph-name="at" unicode="@" horiz-adv-x="1886" 
d="M1409 958l-182 -628q-29 -100 -29 -152q0 -26 19 -51t55 -25q150 0 288 196t138 458q0 265 -181 439.5t-466 174.5q-372 0 -615 -285t-243 -667q0 -354 220 -576.5t562 -222.5q261 0 472.5 139.5t330.5 413.5h57q-97 -292 -338.5 -453t-527.5 -161q-373 0 -623 251.5
t-250 634.5q0 414 278 696.5t668 282.5q330 0 522.5 -196.5t192.5 -489.5q0 -270 -155 -488t-398 -218q-151 0 -151 137q0 67 18 143l-4 4q-221 -284 -391 -284q-81 0 -130.5 71t-49.5 160q0 232 190 467.5t361 235.5q140 0 170 -140h4l30 111zM1182 774q0 60 -34.5 102
t-88.5 42q-132 0 -269 -236.5t-137 -388.5q0 -55 33 -98t82 -43q97 0 210.5 123t158.5 268t45 231z" />
    <glyph glyph-name="A" unicode="A" horiz-adv-x="1450" 
d="M858 418h-426l-137 -367h248v-51h-486v51h185l489 1321h31l469 -1321h180v-51h-639v51h217zM451 469h389l-189 537h-4z" />
    <glyph glyph-name="B" unicode="B" horiz-adv-x="1430" 
d="M305 51v1239h-207v51h693q114 0 192 -11.5t150 -59.5t103.5 -118.5t31.5 -133.5q0 -239 -367 -313v-5q414 -67 414 -344q0 -68 -37 -143.5t-118 -130.5t-165.5 -68.5t-212.5 -13.5h-684v51h207zM748 1290h-205v-563h184q187 0 239 73t52 230q0 123 -34 179t-86.5 68.5
t-149.5 12.5zM725 676h-182v-625h188q105 0 167.5 16t106.5 85.5t44 218.5q0 159 -66.5 232t-257.5 73z" />
    <glyph glyph-name="C" unicode="C" horiz-adv-x="1217" 
d="M1085 1356v-398h-43q-70 363 -362 363q-157 0 -229 -123t-72 -518q0 -325 31 -442t107.5 -167.5t168.5 -50.5q120 0 225.5 90.5t163.5 290.5h47l-16 -409h-41q-23 64 -72 108q-158 -131 -325 -131q-212 0 -387 201t-175 492q0 297 172 503.5t398 206.5q174 0 307 -125
q39 62 59 109h43z" />
    <glyph glyph-name="D" unicode="D" horiz-adv-x="1556" 
d="M301 51v1239h-209v51h633q210 0 359.5 -59.5t249.5 -233t100 -376.5q0 -215 -110 -384t-253.5 -228.5t-349.5 -59.5h-629v51h209zM539 1290v-1239h174q137 0 223.5 25t143 109t76.5 213t20 337q0 250 -63.5 373t-155.5 152.5t-240 29.5h-178z" />
    <glyph glyph-name="E" unicode="E" horiz-adv-x="1430" 
d="M561 1290v-575h121q64 0 108.5 12.5t80 67.5t40.5 172h52v-568h-52q-8 162 -62.5 213.5t-166.5 51.5h-121v-613h273q232 0 321.5 97.5t106.5 300.5h51l-13 -449h-1189v51h213v1239h-213v51h1140l23 -358h-51q-26 163 -107 235t-270 72h-285z" />
    <glyph glyph-name="F" unicode="F" horiz-adv-x="1323" 
d="M324 51v1239h-211v51h1132l17 -405h-45q0 19 -35 137.5t-102.5 167.5t-227.5 49h-291v-581h55q88 0 139 12t88.5 67t45.5 173h51v-568h-51q-8 128 -40.5 185.5t-82.5 70.5t-150 13h-55v-611h236v-51h-684v51h211z" />
    <glyph glyph-name="G" unicode="G" horiz-adv-x="1450" 
d="M946 449h-227v51h694v-51h-194q0 -257 -165 -368.5t-345 -111.5q-263 0 -438 210t-175 491q0 285 179 493.5t446 208.5q138 0 264 -80q38 -24 53 -24q32 0 64 57h45l14 -364h-51q-83 360 -393 360q-161 0 -235 -72.5t-90.5 -183t-16.5 -315.5q0 -369 24.5 -489
t100.5 -180.5t186 -60.5q88 0 156.5 36t86 107.5t17.5 213.5v72z" />
    <glyph glyph-name="H" unicode="H" horiz-adv-x="1665" 
d="M305 51v1239h-211v51h662v-51h-213v-573h579v573h-209v51h658v-51h-211v-1239h211v-51h-658v51h209v615h-579v-615h213v-51h-662v51h211z" />
    <glyph glyph-name="I" unicode="I" horiz-adv-x="874" 
d="M317 51v1239h-219v51h678v-51h-221v-1239h221v-51h-678v51h219z" />
    <glyph glyph-name="J" unicode="J" horiz-adv-x="1110" 
d="M348 1341h664v-51h-197v-944q0 -175 -36.5 -273.5t-149.5 -174.5t-242 -76q-125 0 -216 66.5t-91 148.5q0 50 34 83.5t81 33.5q46 0 76 -29.5t30 -73.5q0 -32 -16 -59q-27 -27 -27 -47q0 -28 42.5 -50t92.5 -22q86 0 135.5 56t49.5 274v1087h-230v51z" />
    <glyph glyph-name="K" unicode="K" horiz-adv-x="1622" 
d="M360 51v1239h-210v51h659v-51h-211v-1239h211v-51h-659v51h210zM952 1341h506v-51h-205l-444 -456l649 -783h131v-51h-659v51h231l-540 662l559 577h-228v51z" />
    <glyph glyph-name="L" unicode="L" horiz-adv-x="1323" 
d="M549 1290v-1239h301q87 0 137 13t98.5 63t75 119t56.5 192h47l-37 -438h-1127v51h211v1239h-211v51h672v-51h-223z" />
    <glyph glyph-name="M" unicode="M" horiz-adv-x="1726" 
d="M90 1341h481l287 -948h4l289 948h469v-51h-199v-1239h199v-51h-631v51h205v1262h-4l-399 -1313h-46l-399 1313h-4v-1262h205v-51h-457v51h201v1239h-201v51z" />
    <glyph glyph-name="N" unicode="N" horiz-adv-x="1556" 
d="M1274 1290v-1321h-41l-883 1327h-4v-1245h227v-51h-477v51h199v1239h-213v51h512l625 -940h4v889h-222v51h476v-51h-203z" />
    <glyph glyph-name="O" unicode="O" horiz-adv-x="1450" 
d="M725 -31q-260 0 -441.5 218t-181.5 466q0 298 190.5 508.5t442.5 210.5q237 0 425 -214t188 -486q0 -280 -188.5 -491.5t-434.5 -211.5zM729 1321q-110 0 -197.5 -50.5t-119 -175.5t-31.5 -436q0 -215 18 -343t91.5 -212t230.5 -84q96 0 192.5 51t126 200.5t29.5 459.5
q0 281 -36.5 388t-117 154.5t-186.5 47.5z" />
    <glyph glyph-name="P" unicode="P" horiz-adv-x="1343" 
d="M551 614v-563h217v-51h-668v51h213v1239h-213v51h691q234 0 352.5 -104t118.5 -256q0 -156 -119.5 -261.5t-397.5 -105.5h-194zM551 1290v-624h129q101 0 168 17t115.5 90t48.5 226q0 135 -42.5 198.5t-100.5 78t-144 14.5h-174z" />
    <glyph glyph-name="Q" unicode="Q" horiz-adv-x="1450" 
d="M1225 -373v-51q-34 -4 -107 -4q-184 0 -366.5 91.5t-182.5 336.5q-215 72 -341 265.5t-126 408.5q0 274 186 486t439 212q235 0 428 -205t193 -487q0 -230 -144 -431t-354 -249q0 -218 73.5 -296.5t301.5 -76.5zM729 1321q-111 0 -203.5 -56t-118.5 -182t-26 -444
q0 -216 17 -337.5t91.5 -201.5t235.5 -80q120 0 206.5 62.5t112 202t25.5 432.5q0 281 -33.5 394.5t-126 161.5t-180.5 48z" />
    <glyph glyph-name="R" unicode="R" horiz-adv-x="1556" 
d="M346 51v1239h-211v51h735q144 0 236.5 -25t159.5 -103.5t67 -180.5q0 -127 -98 -206t-332 -119v-5q168 -33 275.5 -128t107.5 -322q0 -130 30.5 -166.5t84.5 -36.5q35 0 84 14v-49q-87 -30 -168 -30q-165 0 -233 92t-66 180l4 170q0 89 -56.5 175.5t-256.5 86.5h-125
v-637h211v-51h-660v51h211zM584 1290v-555h180q116 0 177 15.5t97.5 81t36.5 208.5q0 117 -37 171t-89.5 66.5t-137.5 12.5h-227z" />
    <glyph glyph-name="S" unicode="S" horiz-adv-x="1110" 
d="M922 1356l6 -348h-47q-100 313 -353 313q-140 0 -217.5 -77.5t-77.5 -160.5q0 -77 64.5 -131t235.5 -83.5t260.5 -72t151 -141.5t61.5 -227q0 -197 -128.5 -328t-318.5 -131q-155 0 -309 115l-94 -84h-35v375h43q59 -177 165 -266t232 -89q125 0 229.5 82.5t104.5 208.5
q0 106 -72.5 178.5t-235 100t-249.5 64t-149 127t-62 200.5q0 152 108 271.5t293 119.5q155 0 289 -98q37 35 64 82h41z" />
    <glyph glyph-name="T" unicode="T" horiz-adv-x="1323" 
d="M90 1341h1143l35 -456h-51q-47 229 -124.5 317t-203.5 88h-109v-1239h240v-51h-717v51h240v1239h-109q-126 0 -203.5 -88t-124.5 -317h-51z" />
    <glyph glyph-name="U" unicode="U" horiz-adv-x="1556" 
d="M1225 1290h-219v51h479v-51h-211v-811q0 -176 -26.5 -260t-96.5 -141t-167.5 -83t-201.5 -26q-220 0 -322 69t-125.5 170t-23.5 271v811h-194v51h641v-51h-211v-788q0 -163 15 -256t81 -155t209 -62q116 0 208 47.5t128.5 127.5t36.5 298v788z" />
    <glyph glyph-name="V" unicode="V" horiz-adv-x="1450" 
d="M45 1341h641v-51h-213l348 -946h4l322 946h-217v51h475v-51h-205l-450 -1321h-27l-498 1321h-180v51z" />
    <glyph glyph-name="W" unicode="W" horiz-adv-x="1985" 
d="M1137 891l243 -590l367 989h-195v51h390v-51h-138l-495 -1321h-35l-256 621l-250 -621h-37l-538 1321h-150v51h1399v-51h-144zM975 1290l135 -329l133 329h-268zM842 289l147 370l-258 631h-297z" />
    <glyph glyph-name="X" unicode="X" horiz-adv-x="1665" 
d="M920 764l518 -713h168v-51h-674v51h229l-385 531l-420 -531h262v-51h-530v51h203l450 574l-483 665h-170v51h668v-51h-221l350 -479l381 479h-230v51h486v-51h-189z" />
    <glyph glyph-name="Y" unicode="Y" horiz-adv-x="1556" 
d="M61 1341h670v-51h-221l393 -592l387 592h-243v51h475v-51h-174l-420 -641v-598h223v-51h-688v51h227v563l-450 676h-179v51z" />
    <glyph glyph-name="Z" unicode="Z" horiz-adv-x="1217" 
d="M1098 0h-1028v51l770 1239h-316q-173 0 -241 -70.5t-99 -238.5h-47l21 360h962v-36l-782 -1254h328q141 0 212 27.5t125.5 137t67.5 224.5h49z" />
    <glyph glyph-name="bracketleft" unicode="[" horiz-adv-x="682" 
d="M193 -494v1840h432v-52h-279v-1738h279v-50h-432z" />
    <glyph glyph-name="backslash" unicode="\" horiz-adv-x="575" 
d="M0 1372h109l466 -1403h-108z" />
    <glyph glyph-name="bracketright" unicode="]" horiz-adv-x="682" 
d="M489 1346v-1840h-432v52h279v1736h-279v52h432z" />
    <glyph glyph-name="asciicircum" unicode="^" horiz-adv-x="961" 
d="M502 1372l422 -717h-121l-322 547l-319 -547h-125l424 717h41z" />
    <glyph glyph-name="underscore" unicode="_" horiz-adv-x="1024" 
d="M1036 -256h-1048v102h1048v-102z" />
    <glyph glyph-name="grave" unicode="`" horiz-adv-x="682" 
d="M457 936l-250 151q-109 67 -130.5 95t-21.5 57q0 31 25 54.5t55 23.5q36 0 63 -23t85 -92l200 -241z" />
    <glyph glyph-name="a" unicode="a" 
d="M606 449v102q0 125 -20.5 164t-110.5 39q-162 0 -162 -62q0 -18 13.5 -39.5t13.5 -50.5q0 -41 -27 -62.5t-61 -21.5q-44 0 -68 27.5t-24 64.5q0 80 93.5 134.5t260.5 54.5q134 0 196 -31t76.5 -77t14.5 -130v-368q0 -81 11.5 -101t35.5 -20q36 0 70 49h24
q-26 -146 -170 -146q-139 0 -166 160q-117 -160 -274 -160q-104 0 -166 56.5t-62 138.5q0 255 502 279zM606 295v108q-185 -7 -244 -55.5t-59 -140.5q0 -67 35.5 -104t81.5 -37q59 0 106.5 39.5t63.5 79.5t16 110z" />
    <glyph glyph-name="b" unicode="b" horiz-adv-x="1110" 
d="M395 1356v-703h4q75 158 246 158q147 0 256 -124.5t109 -289.5q0 -162 -107 -292t-248 -130q-170 0 -256 183h-4v-170q-69 12 -188 12h-146v51h140v1239h-140v51h140q124 0 194 15zM643 27q100 0 121.5 79t21.5 297q0 222 -22.5 292.5t-124.5 70.5q-79 0 -139 -48.5
t-83.5 -114t-23.5 -230.5q0 -161 76.5 -253.5t173.5 -92.5z" />
    <glyph glyph-name="c" unicode="c" horiz-adv-x="874" 
d="M776 272h43q-30 -145 -118 -221t-212 -76q-169 0 -286 125.5t-117 288.5q0 168 120 295t298 127q127 0 207 -64.5t80 -144.5q0 -40 -27.5 -72t-71.5 -32q-43 0 -71.5 27t-28.5 71q0 31 24.5 61t24.5 41q0 27 -37 47.5t-96 20.5q-104 0 -154.5 -56t-50.5 -237t9.5 -267.5
t50.5 -136t135 -49.5q198 0 278 252z" />
    <glyph glyph-name="d" unicode="d" horiz-adv-x="1087" 
d="M903 1356v-1305h135v-51h-112q-106 0 -224 -12v164h-4q-80 -177 -256 -177q-141 0 -248.5 125.5t-107.5 284.5q0 170 113.5 298t267.5 128q157 0 231 -141h4v620h-182v51h182q101 0 201 15zM473 766q-109 0 -136.5 -81.5t-27.5 -330.5q0 -215 35 -271t113 -56
q84 0 148 57t84 130t20 237q0 156 -63 235.5t-173 79.5z" />
    <glyph glyph-name="e" unicode="e" horiz-adv-x="874" 
d="M807 453h-506q-7 -296 33 -364.5t143 -68.5q212 0 287 246h43q-33 -149 -125 -220t-205 -71q-161 0 -280 119.5t-119 300.5q0 176 116.5 296t270.5 120q134 0 234.5 -95t107.5 -263zM301 498h291q8 71 8 108q0 160 -145 160q-72 0 -113 -38.5t-41 -104.5v-125z" />
    <glyph glyph-name="f" unicode="f" horiz-adv-x="662" 
d="M217 51v684h-166v51h166q-8 265 109.5 417.5t279.5 152.5q78 0 135.5 -45t57.5 -109q0 -44 -27.5 -74t-69.5 -30q-36 0 -62 25t-26 63q0 59 66 98q-30 27 -88 27q-56 0 -106 -34t-61 -102.5t-11 -220.5v-168h186v-51h-186v-684h168v-51h-514v51h149z" />
    <glyph glyph-name="g" unicode="g" 
d="M752 682q59 -83 59 -164q0 -137 -110.5 -207.5t-180.5 -70.5l-50 -3q-35 0 -95 5.5t-64 5.5q-39 0 -91 -35.5t-52 -75.5q0 -35 27 -53t135 -18l342 14q107 0 174 -68t67 -194q0 -147 -121 -247.5t-335 -100.5q-166 0 -263.5 66.5t-97.5 156.5q0 55 31 92.5t139 99.5
q-166 40 -166 183q0 192 207 217v4q-160 76 -160 229q0 124 99 208.5t233 84.5q146 0 244 -100q72 100 160 100q34 0 59 -23t25 -63q0 -35 -22 -55.5t-48 -20.5q-38 0 -56.5 35t-31.5 35q-25 0 -57 -37zM475 760q-97 0 -120 -49t-23 -164q0 -166 21.5 -214t123.5 -48
q104 0 125 49t21 239q0 118 -37.5 152.5t-110.5 34.5zM324 -115q-95 -60 -95 -178q0 -186 254 -186q162 0 267.5 76t105.5 178q0 61 -53 94t-119 33q-26 0 -117 -6t-135 -7z" />
    <glyph glyph-name="h" unicode="h" horiz-adv-x="1130" 
d="M217 51v1239h-156v51h150q135 0 201 15v-746h4q100 189 280 189q73 0 142 -37.5t88.5 -107.5t19.5 -224v-379h129v-51h-452v51h129v398q0 162 -9 230.5t-90 68.5q-87 0 -146.5 -74.5t-77 -152t-17.5 -253.5v-217h129v-51h-465v51h141z" />
    <glyph glyph-name="i" unicode="i" horiz-adv-x="555" 
d="M188 1186q0 44 32.5 76t76.5 32t76.5 -31.5t32.5 -76.5q0 -47 -32 -78t-77 -31t-77 31.5t-32 77.5zM389 801v-750h131v-51h-465v51h140v684h-140v51h142q102 0 192 15z" />
    <glyph glyph-name="j" unicode="j" horiz-adv-x="641" 
d="M236 1186q0 44 32 76t76 32t76.5 -31.5t32.5 -76.5q0 -47 -32 -78t-77 -31t-76.5 31.5t-31.5 77.5zM444 801v-721q0 -195 -29 -316.5t-110 -204.5t-180 -83q-74 0 -124 39t-50 92q0 36 26 61t64 25q36 0 58 -21t22 -45q0 -16 -13.5 -43.5t-13.5 -38.5q0 -26 37 -26
q70 0 94.5 76t24.5 313v827h-180v51h178q118 0 196 15z" />
    <glyph glyph-name="k" unicode="k" horiz-adv-x="1087" 
d="M195 51v1239h-144v51h133q99 0 205 15v-1305h129v-51h-467v51h144zM741 51l-329 387l319 297h-168v51h422v-51h-190l-222 -205l412 -479h88v-51h-475v51h143z" />
    <glyph glyph-name="l" unicode="l" horiz-adv-x="555" 
d="M184 51v1239h-143v51h137q138 0 201 15v-1305h141v-51h-479v51h143z" />
    <glyph glyph-name="m" unicode="m" horiz-adv-x="1665" 
d="M215 51v684h-141v51h88q156 0 248 13v-193h4q79 193 282 193q221 0 244 -205h4q87 205 289 205q90 0 151.5 -45t76 -104t14.5 -195v-404h139v-51h-465v51h131v494q0 117 -13.5 161t-72.5 44q-81 0 -166.5 -91.5t-85.5 -347.5v-260h129v-51h-453v51h130v387
q0 226 -16.5 269t-78.5 43q-85 0 -148.5 -75t-79 -146t-15.5 -226v-252h129v-51h-465v51h141z" />
    <glyph glyph-name="n" unicode="n" horiz-adv-x="1110" 
d="M203 51v684h-142v51h91q135 0 245 15v-195h4q103 205 291 205q88 0 144.5 -45t77 -106t20.5 -189v-420h156v-51h-484v51h133v500q0 115 -14.5 159t-75.5 44q-97 0 -174.5 -99.5t-77.5 -267.5v-336h131v-51h-467v51h142z" />
    <glyph glyph-name="o" unicode="o" 
d="M90 395q0 173 119 294.5t295 121.5q172 0 291.5 -116.5t119.5 -291.5q0 -179 -124 -303.5t-293 -124.5q-166 0 -287 121.5t-121 298.5zM690 395q0 184 -12.5 243t-56 93.5t-119.5 34.5q-72 0 -118.5 -35.5t-57.5 -94.5t-11 -243q0 -185 13.5 -245t59 -94t114.5 -34
q70 0 116.5 34.5t59 96t12.5 244.5z" />
    <glyph glyph-name="p" unicode="p" horiz-adv-x="1110" 
d="M397 131v-598h162v-57h-491v57h135v1202h-148v51h113q124 0 229 13v-158h4q83 170 256 170q142 0 249.5 -117.5t107.5 -279.5q0 -173 -117.5 -299.5t-261.5 -126.5q-151 0 -234 143h-4zM791 391q0 187 -10.5 250.5t-48 94t-83.5 30.5q-98 0 -157 -65t-77 -127t-18 -183
q0 -127 17 -194t81.5 -115.5t143.5 -48.5q82 0 117 69.5t35 288.5z" />
    <glyph glyph-name="q" unicode="q" horiz-adv-x="1110" 
d="M721 131h-4q-83 -143 -234 -143q-144 0 -261.5 126.5t-117.5 299.5q0 162 107.5 279.5t249.5 117.5q173 0 256 -170h4v158q119 -13 229 -13h113v-51h-148v-1202h136v-57h-492v57h162v598zM721 391q0 121 -18.5 183.5t-77 127t-156.5 64.5q-48 0 -85.5 -32t-46.5 -101
t-9 -242q0 -219 35 -288.5t116 -69.5q80 0 144 48.5t81 115.5t17 194z" />
    <glyph glyph-name="r" unicode="r" horiz-adv-x="768" 
d="M201 51v684h-162v51h164q126 0 192 13v-189h4q70 189 207 189q60 0 96.5 -36.5t36.5 -88.5q0 -48 -29.5 -77.5t-76.5 -29.5q-86 0 -86 86l4 43q0 23 -21 23q-33 0 -84 -89t-51 -272v-307h166v-51h-522v51h162z" />
    <glyph glyph-name="s" unicode="s" horiz-adv-x="768" 
d="M625 795v-224h-41q-46 195 -224 195q-77 0 -128.5 -40.5t-51.5 -92.5q0 -44 36.5 -69.5t172.5 -43.5q299 -37 299 -272q0 -117 -77.5 -195t-192.5 -78q-113 0 -219 93l-70 -60h-35v295h35q86 -283 289 -283q77 0 140 49t63 115q0 55 -37.5 83t-202.5 52q-281 41 -281 250
q0 103 75.5 172.5t184.5 69.5q115 0 193 -76q20 21 41 60h31z" />
    <glyph glyph-name="t" unicode="t" horiz-adv-x="768" 
d="M422 1014v-228h237v-51h-237v-495q0 -109 14.5 -149t77.5 -40q48 0 92.5 32t67.5 99h43q-46 -194 -279 -194q-98 0 -144 35.5t-56.5 87.5t-10.5 141v483h-178v51h178v211q99 0 195 17z" />
    <glyph glyph-name="u" unicode="u" horiz-adv-x="1110" 
d="M920 786v-735h135v-51h-135q-156 0 -197 -12v186h-4q-90 -186 -283 -186q-111 0 -178.5 58.5t-67.5 246.5v442h-145v51h340v-528q0 -124 15 -171.5t77 -47.5q92 0 170 98.5t78 296.5v301h-160v51h355z" />
    <glyph glyph-name="v" unicode="v" horiz-adv-x="1110" 
d="M950 735l-379 -766h-26l-385 766h-121v51h491v-51h-151l262 -532l258 532h-151v51h325v-51h-123z" />
    <glyph glyph-name="w" unicode="w" horiz-adv-x="1450" 
d="M1290 735l-289 -760h-34l-230 545l-219 -545h-33l-319 760h-125v51h465v-51h-135l207 -493l219 544h32l228 -544l184 493h-145v51h315v-51h-121z" />
    <glyph glyph-name="x" unicode="x" horiz-adv-x="1110" 
d="M629 457l342 -406h96v-51h-469v51h131l-225 268l-244 -268h158v-51h-369v51h152l274 301l-319 383h-113v51h487v-51h-133l201 -243l221 243h-153v51h362v-51h-149z" />
    <glyph glyph-name="y" unicode="y" horiz-adv-x="1110" 
d="M373 735l280 -547l244 547h-174v51h354v-51h-133l-403 -913q-87 -196 -147.5 -274t-147.5 -78q-54 0 -83.5 34.5t-29.5 77.5q0 40 25.5 65t60.5 25q49 0 76 -45t45 -45q27 0 58 49t94 191l65 147l-395 766h-119v51h481v-51h-151z" />
    <glyph glyph-name="z" unicode="z" horiz-adv-x="874" 
d="M117 473v313h671v-43l-481 -698h137q124 0 195.5 56.5t110.5 234.5h38v-336h-702v51l479 690h-137q-67 0 -114 -13.5t-91 -72t-65 -182.5h-41z" />
    <glyph glyph-name="braceleft" unicode="{" horiz-adv-x="983" 
d="M803 -473v-35q-176 27 -275.5 141.5t-99.5 243.5q0 78 22.5 164t22.5 156q0 62 -55.5 126t-171.5 83v38q116 18 171.5 82.5t55.5 126.5q0 70 -22.5 156t-22.5 164q0 128 99.5 243t275.5 142v-37q-116 -25 -170.5 -89t-54.5 -138q0 -84 24 -166q21 -87 21 -158
q0 -98 -71 -191.5t-224 -148.5v-4q143 -53 219 -149t76 -197q0 -71 -21 -158q-24 -82 -24 -166q0 -75 54.5 -137t170.5 -92z" />
    <glyph glyph-name="bar" unicode="|" horiz-adv-x="1079" 
d="M485 1372h111v-1896h-111v1896z" />
    <glyph glyph-name="braceright" unicode="}" horiz-adv-x="983" 
d="M180 1323v35q176 -27 275.5 -141.5t99.5 -243.5q0 -78 -22.5 -164t-22.5 -156q0 -62 55.5 -126.5t171.5 -82.5v-38q-116 -18 -171.5 -82.5t-55.5 -126.5q0 -70 22.5 -156t22.5 -164q0 -128 -99.5 -243t-275.5 -142v37q116 25 171 89t55 138q0 84 -25 166q-21 87 -21 158
q0 98 71 191.5t224 148.5v4q-143 53 -219 148.5t-76 197.5q0 71 21 158q25 82 25 166q0 75 -55 137t-171 92z" />
    <glyph glyph-name="asciitilde" unicode="~" horiz-adv-x="1366" 
d="M1171 803h48q-5 -136 -76 -211.5t-172 -75.5q-56 0 -113 18.5t-238 92t-241 73.5q-149 0 -184 -182h-48q10 151 79.5 219t160.5 68q96 0 381 -121q150 -66 219 -66q72 0 123 46t61 139z" />
    <glyph glyph-name="Adieresis" unicode="&#xc4;" horiz-adv-x="1450" 
d="M858 418h-426l-137 -367h248v-51h-486v51h185l489 1321h31l469 -1321h180v-51h-639v51h217zM451 469h389l-189 537h-4zM840 1640q0 42 29.5 71.5t70.5 29.5q42 0 71 -29t29 -72q0 -42 -29 -71t-71 -29t-71 29t-29 71zM412 1640q0 42 29.5 71.5t70.5 29.5q42 0 71 -29
t29 -72q0 -42 -29 -71t-71 -29t-71 29t-29 71z" />
    <glyph glyph-name="Aring" unicode="&#xc5;" horiz-adv-x="1450" 
d="M858 418h-426l-137 -367h248v-51h-486v51h185l489 1321h31l469 -1321h180v-51h-639v51h217zM451 469h389l-189 537h-4zM557 1642q0 71 50 120.5t120 49.5q69 0 118.5 -49.5t49.5 -120.5q0 -69 -49.5 -118t-118.5 -49q-71 0 -120.5 48.5t-49.5 118.5zM850 1644
q0 51 -36.5 87t-88.5 36q-50 0 -86.5 -36t-36.5 -87q0 -50 36.5 -87t86.5 -37q52 0 88.5 36.5t36.5 87.5z" />
    <glyph glyph-name="Ccedilla" unicode="&#xc7;" horiz-adv-x="1217" 
d="M481 -365v46q60 -11 109 -11q45 0 75.5 19.5t30.5 52.5q0 63 -114 63q5 53 8 170q-200 45 -342 236t-142 451q0 296 172 503t398 207q174 0 307 -125q39 62 59 109h43v-398h-43q-76 363 -362 363q-157 0 -229 -120t-72 -521q0 -325 31 -442t107.5 -167.5t168.5 -50.5
q120 0 225.5 90.5t163.5 290.5h47l-16 -409h-41q-23 64 -72 108q-159 -131 -331 -131h-21v-57q87 5 133.5 -32.5t46.5 -96.5q0 -75 -63 -118.5t-146 -43.5q-58 0 -131 14z" />
    <glyph glyph-name="Eacute" unicode="&#xc9;" horiz-adv-x="1430" 
d="M561 1290v-575h121q64 0 108.5 12.5t80 67.5t40.5 172h52v-568h-52q-8 162 -62.5 213.5t-166.5 51.5h-121v-613h273q232 0 321.5 97.5t106.5 300.5h51l-13 -449h-1189v51h213v1239h-213v51h1140l23 -358h-51q-26 163 -107 235t-270 72h-285zM599 1450l-26 25l200 241
q56 67 84 91t62 24q32 0 57 -24.5t25 -51.5q0 -42 -32.5 -71.5t-119.5 -82.5z" />
    <glyph glyph-name="Ntilde" unicode="&#xd1;" horiz-adv-x="1556" 
d="M1274 1290v-1321h-41l-883 1327h-4v-1245h227v-51h-477v51h199v1239h-213v51h512l625 -940h4v889h-222v51h476v-51h-203zM1055 1749h39q-2 -109 -59.5 -166t-130.5 -57q-66 0 -168 44t-137 44q-76 0 -94 -88h-39q0 113 56.5 168t135.5 55q69 0 166.5 -43t138.5 -43
q67 0 92 86z" />
    <glyph glyph-name="Odieresis" unicode="&#xd6;" horiz-adv-x="1450" 
d="M725 -31q-260 0 -441.5 218t-181.5 466q0 298 190.5 508.5t442.5 210.5q237 0 425 -214t188 -486q0 -280 -188.5 -491.5t-434.5 -211.5zM729 1321q-110 0 -197.5 -50.5t-119 -175.5t-31.5 -436q0 -215 18 -343t91.5 -212t230.5 -84q96 0 192.5 51t126 200.5t29.5 459.5
q0 281 -36.5 388t-117 154.5t-186.5 47.5zM840 1640q0 42 29.5 71.5t70.5 29.5q42 0 71 -29t29 -72q0 -42 -29 -71t-71 -29t-71 29t-29 71zM412 1640q0 42 29.5 71.5t70.5 29.5q42 0 71 -29t29 -72q0 -42 -29 -71t-71 -29t-71 29t-29 71z" />
    <glyph glyph-name="Udieresis" unicode="&#xdc;" horiz-adv-x="1556" 
d="M1225 1290h-219v51h479v-51h-211v-811q0 -176 -26.5 -260t-96.5 -141t-167.5 -83t-201.5 -26q-220 0 -322 69t-125.5 170t-23.5 271v811h-194v51h641v-51h-211v-788q0 -163 15 -256t81 -155t209 -62q116 0 208 47.5t128.5 127.5t36.5 298v788zM960 1640q0 42 29.5 71.5
t70.5 29.5q42 0 71 -29t29 -72q0 -42 -29 -71t-71 -29t-71 29t-29 71zM532 1640q0 42 29.5 71.5t70.5 29.5q42 0 71 -29t29 -72q0 -42 -29 -71t-71 -29t-71 29t-29 71z" />
    <glyph glyph-name="aacute" unicode="&#xe1;" 
d="M606 449v102q0 125 -20.5 164t-110.5 39q-162 0 -162 -62q0 -18 13.5 -39.5t13.5 -50.5q0 -41 -27 -62.5t-61 -21.5q-44 0 -68 27.5t-24 64.5q0 80 93.5 134.5t260.5 54.5q134 0 196 -31t76.5 -77t14.5 -130v-368q0 -81 11.5 -101t35.5 -20q36 0 70 49h24
q-26 -146 -170 -146q-139 0 -166 160q-117 -160 -274 -160q-104 0 -166 56.5t-62 138.5q0 255 502 279zM606 295v108q-185 -7 -244 -55.5t-59 -140.5q0 -67 35.5 -104t81.5 -37q59 0 106.5 39.5t63.5 79.5t16 110zM386 936l-26 25l200 241q56 67 84 91t62 24q32 0 57 -24.5
t25 -51.5q0 -42 -32.5 -71.5t-119.5 -82.5z" />
    <glyph glyph-name="agrave" unicode="&#xe0;" 
d="M606 449v102q0 125 -20.5 164t-110.5 39q-162 0 -162 -62q0 -18 13.5 -39.5t13.5 -50.5q0 -41 -27 -62.5t-61 -21.5q-44 0 -68 27.5t-24 64.5q0 80 93.5 134.5t260.5 54.5q134 0 196 -31t76.5 -77t14.5 -130v-368q0 -81 11.5 -101t35.5 -20q36 0 70 49h24
q-26 -146 -170 -146q-139 0 -166 160q-117 -160 -274 -160q-104 0 -166 56.5t-62 138.5q0 255 502 279zM606 295v108q-185 -7 -244 -55.5t-59 -140.5q0 -67 35.5 -104t81.5 -37q59 0 106.5 39.5t63.5 79.5t16 110zM619 936l-250 151q-109 67 -130.5 95t-21.5 57
q0 31 25 54.5t55 23.5q36 0 63 -23t85 -92l200 -241z" />
    <glyph glyph-name="acircumflex" unicode="&#xe2;" 
d="M606 449v102q0 125 -20.5 164t-110.5 39q-162 0 -162 -62q0 -18 13.5 -39.5t13.5 -50.5q0 -41 -27 -62.5t-61 -21.5q-44 0 -68 27.5t-24 64.5q0 80 93.5 134.5t260.5 54.5q134 0 196 -31t76.5 -77t14.5 -130v-368q0 -81 11.5 -101t35.5 -20q36 0 70 49h24
q-26 -146 -170 -146q-139 0 -166 160q-117 -160 -274 -160q-104 0 -166 56.5t-62 138.5q0 255 502 279zM606 295v108q-185 -7 -244 -55.5t-59 -140.5q0 -67 35.5 -104t81.5 -37q59 0 106.5 39.5t63.5 79.5t16 110zM232 954l233 338h76l233 -338h-55l-215 189l-217 -189h-55z
" />
    <glyph glyph-name="adieresis" unicode="&#xe4;" 
d="M606 449v102q0 125 -20.5 164t-110.5 39q-162 0 -162 -62q0 -18 13.5 -39.5t13.5 -50.5q0 -41 -27 -62.5t-61 -21.5q-44 0 -68 27.5t-24 64.5q0 80 93.5 134.5t260.5 54.5q134 0 196 -31t76.5 -77t14.5 -130v-368q0 -81 11.5 -101t35.5 -20q36 0 70 49h24
q-26 -146 -170 -146q-139 0 -166 160q-117 -160 -274 -160q-104 0 -166 56.5t-62 138.5q0 255 502 279zM606 295v108q-185 -7 -244 -55.5t-59 -140.5q0 -67 35.5 -104t81.5 -37q59 0 106.5 39.5t63.5 79.5t16 110zM617 1126q0 42 29.5 71.5t70.5 29.5q42 0 71 -29t29 -72
q0 -42 -29 -71t-71 -29t-71 29t-29 71zM189 1126q0 42 29.5 71.5t70.5 29.5q42 0 71 -29t29 -72q0 -42 -29 -71t-71 -29t-71 29t-29 71z" />
    <glyph glyph-name="atilde" unicode="&#xe3;" 
d="M606 449v102q0 125 -20.5 164t-110.5 39q-162 0 -162 -62q0 -18 13.5 -39.5t13.5 -50.5q0 -41 -27 -62.5t-61 -21.5q-44 0 -68 27.5t-24 64.5q0 80 93.5 134.5t260.5 54.5q134 0 196 -31t76.5 -77t14.5 -130v-368q0 -81 11.5 -101t35.5 -20q36 0 70 49h24
q-26 -146 -170 -146q-139 0 -166 160q-117 -160 -274 -160q-104 0 -166 56.5t-62 138.5q0 255 502 279zM606 295v108q-185 -7 -244 -55.5t-59 -140.5q0 -67 35.5 -104t81.5 -37q59 0 106.5 39.5t63.5 79.5t16 110zM778 1235h39q-2 -109 -59.5 -166t-130.5 -57q-66 0 -168 44
t-137 44q-76 0 -94 -88h-39q0 113 56.5 168t135.5 55q69 0 166.5 -43t138.5 -43q67 0 92 86z" />
    <glyph glyph-name="aring" unicode="&#xe5;" 
d="M606 449v102q0 125 -20.5 164t-110.5 39q-162 0 -162 -62q0 -18 13.5 -39.5t13.5 -50.5q0 -41 -27 -62.5t-61 -21.5q-44 0 -68 27.5t-24 64.5q0 80 93.5 134.5t260.5 54.5q134 0 196 -31t76.5 -77t14.5 -130v-368q0 -81 11.5 -101t35.5 -20q36 0 70 49h24
q-26 -146 -170 -146q-139 0 -166 160q-117 -160 -274 -160q-104 0 -166 56.5t-62 138.5q0 255 502 279zM606 295v108q-185 -7 -244 -55.5t-59 -140.5q0 -67 35.5 -104t81.5 -37q59 0 106.5 39.5t63.5 79.5t16 110zM296 1128q0 71 50 120.5t120 49.5q69 0 118.5 -49.5
t49.5 -120.5q0 -69 -49.5 -118t-118.5 -49q-71 0 -120.5 48.5t-49.5 118.5zM589 1130q0 51 -36.5 87t-88.5 36q-50 0 -86.5 -36t-36.5 -87q0 -50 36.5 -87t86.5 -37q52 0 88.5 36.5t36.5 87.5z" />
    <glyph glyph-name="ccedilla" unicode="&#xe7;" horiz-adv-x="874" 
d="M471 -25v-63q86 5 133 -32.5t47 -96.5q0 -75 -63.5 -118.5t-147.5 -43.5q-54 0 -131 14v46q60 -11 109 -11q45 0 75.5 19.5t30.5 52.5q0 63 -114 63q10 83 10 177q-152 29 -243 148t-91 259q0 168 120.5 295t297.5 127q127 0 207 -64.5t80 -144.5q0 -40 -27.5 -72
t-71.5 -32q-43 0 -71.5 27t-28.5 71q0 31 24.5 61t24.5 41q0 27 -37 47.5t-96 20.5q-116 0 -160.5 -62.5t-44.5 -230.5q0 -263 32 -358t163 -95q198 0 278 252h43q-66 -303 -348 -297z" />
    <glyph glyph-name="eacute" unicode="&#xe9;" horiz-adv-x="874" 
d="M807 453h-506q-7 -296 33 -364.5t143 -68.5q212 0 287 246h43q-33 -149 -125 -220t-205 -71q-161 0 -280 119.5t-119 300.5q0 176 116.5 296t270.5 120q134 0 234.5 -95t107.5 -263zM301 498h291q8 71 8 108q0 160 -145 160q-72 0 -113 -38.5t-41 -104.5v-125zM321 936
l-26 25l200 241q56 67 84 91t62 24q32 0 57 -24.5t25 -51.5q0 -42 -32.5 -71.5t-119.5 -82.5z" />
    <glyph glyph-name="egrave" unicode="&#xe8;" horiz-adv-x="874" 
d="M807 453h-506q-7 -296 33 -364.5t143 -68.5q212 0 287 246h43q-33 -149 -125 -220t-205 -71q-161 0 -280 119.5t-119 300.5q0 176 116.5 296t270.5 120q134 0 234.5 -95t107.5 -263zM301 498h291q8 71 8 108q0 160 -145 160q-72 0 -113 -38.5t-41 -104.5v-125zM609 936
l-250 151q-109 67 -130.5 95t-21.5 57q0 31 25 54.5t55 23.5q36 0 63 -23t85 -92l200 -241z" />
    <glyph glyph-name="ecircumflex" unicode="&#xea;" horiz-adv-x="874" 
d="M807 453h-506q-7 -296 33 -364.5t143 -68.5q212 0 287 246h43q-33 -149 -125 -220t-205 -71q-161 0 -280 119.5t-119 300.5q0 176 116.5 296t270.5 120q134 0 234.5 -95t107.5 -263zM301 498h291q8 71 8 108q0 160 -145 160q-72 0 -113 -38.5t-41 -104.5v-125zM167 954
l233 338h76l233 -338h-55l-215 189l-217 -189h-55z" />
    <glyph glyph-name="edieresis" unicode="&#xeb;" horiz-adv-x="874" 
d="M807 453h-506q-7 -296 33 -364.5t143 -68.5q212 0 287 246h43q-33 -149 -125 -220t-205 -71q-161 0 -280 119.5t-119 300.5q0 176 116.5 296t270.5 120q134 0 234.5 -95t107.5 -263zM301 498h291q8 71 8 108q0 160 -145 160q-72 0 -113 -38.5t-41 -104.5v-125zM552 1126
q0 42 29.5 71.5t70.5 29.5q42 0 71 -29t29 -72q0 -42 -29 -71t-71 -29t-71 29t-29 71zM124 1126q0 42 29.5 71.5t70.5 29.5q42 0 71 -29t29 -72q0 -42 -29 -71t-71 -29t-71 29t-29 71z" />
    <glyph glyph-name="iacute" unicode="&#xed;" horiz-adv-x="555" 
d="M389 801v-750h131v-51h-465v51h142v684h-142v51h142q103 0 192 15zM161 936l-26 25l200 241q56 67 84 91t62 24q32 0 57 -24.5t25 -51.5q0 -42 -32.5 -71.5t-119.5 -82.5z" />
    <glyph glyph-name="igrave" unicode="&#xec;" horiz-adv-x="555" 
d="M389 801v-750h131v-51h-465v51h142v684h-142v51h142q103 0 192 15zM394 936l-250 151q-109 67 -130.5 95t-21.5 57q0 31 25 54.5t55 23.5q36 0 63 -23t85 -92l200 -241z" />
    <glyph glyph-name="icircumflex" unicode="&#xee;" horiz-adv-x="555" 
d="M389 801v-750h131v-51h-465v51h142v684h-142v51h142q103 0 192 15zM6 954l233 338h76l233 -338h-55l-215 189l-217 -189h-55z" />
    <glyph glyph-name="idieresis" unicode="&#xef;" horiz-adv-x="555" 
d="M389 801v-750h131v-51h-465v51h142v684h-142v51h142q103 0 192 15zM391 1126q0 42 29.5 71.5t70.5 29.5q42 0 71 -29t29 -72q0 -42 -29 -71t-71 -29t-71 29t-29 71zM-37 1126q0 42 29.5 71.5t70.5 29.5q42 0 71 -29t29 -72q0 -42 -29 -71t-71 -29t-71 29t-29 71z" />
    <glyph glyph-name="ntilde" unicode="&#xf1;" horiz-adv-x="1110" 
d="M203 51v684h-142v51h91q135 0 245 15v-195h4q103 205 291 205q88 0 144.5 -45t77 -106t20.5 -189v-420h156v-51h-484v51h133v500q0 115 -14.5 159t-75.5 44q-97 0 -174.5 -99.5t-77.5 -267.5v-336h131v-51h-467v51h142zM831 1235h39q-2 -109 -59.5 -166t-130.5 -57
q-66 0 -168 44t-137 44q-76 0 -94 -88h-39q0 113 56.5 168t135.5 55q69 0 166.5 -43t138.5 -43q67 0 92 86z" />
    <glyph glyph-name="oacute" unicode="&#xf3;" 
d="M90 395q0 173 119 294.5t295 121.5q172 0 291.5 -116.5t119.5 -291.5q0 -179 -124 -303.5t-293 -124.5q-166 0 -287 121.5t-121 298.5zM690 395q0 184 -12.5 243t-56 93.5t-119.5 34.5q-72 0 -118.5 -35.5t-57.5 -94.5t-11 -243q0 -185 13.5 -245t59 -94t114.5 -34
q70 0 116.5 34.5t59 96t12.5 244.5zM386 936l-26 25l200 241q56 67 84 91t62 24q32 0 57 -24.5t25 -51.5q0 -42 -32.5 -71.5t-119.5 -82.5z" />
    <glyph glyph-name="ograve" unicode="&#xf2;" 
d="M90 395q0 173 119 294.5t295 121.5q172 0 291.5 -116.5t119.5 -291.5q0 -179 -124 -303.5t-293 -124.5q-166 0 -287 121.5t-121 298.5zM690 395q0 184 -12.5 243t-56 93.5t-119.5 34.5q-72 0 -118.5 -35.5t-57.5 -94.5t-11 -243q0 -185 13.5 -245t59 -94t114.5 -34
q70 0 116.5 34.5t59 96t12.5 244.5zM619 936l-250 151q-109 67 -130.5 95t-21.5 57q0 31 25 54.5t55 23.5q36 0 63 -23t85 -92l200 -241z" />
    <glyph glyph-name="ocircumflex" unicode="&#xf4;" 
d="M90 395q0 173 119 294.5t295 121.5q172 0 291.5 -116.5t119.5 -291.5q0 -179 -124 -303.5t-293 -124.5q-166 0 -287 121.5t-121 298.5zM690 395q0 184 -12.5 243t-56 93.5t-119.5 34.5q-72 0 -118.5 -35.5t-57.5 -94.5t-11 -243q0 -185 13.5 -245t59 -94t114.5 -34
q70 0 116.5 34.5t59 96t12.5 244.5zM232 954l233 338h76l233 -338h-55l-215 189l-217 -189h-55z" />
    <glyph glyph-name="odieresis" unicode="&#xf6;" 
d="M90 395q0 173 119 294.5t295 121.5q172 0 291.5 -116.5t119.5 -291.5q0 -179 -124 -303.5t-293 -124.5q-166 0 -287 121.5t-121 298.5zM690 395q0 184 -12.5 243t-56 93.5t-119.5 34.5q-72 0 -118.5 -35.5t-57.5 -94.5t-11 -243q0 -185 13.5 -245t59 -94t114.5 -34
q70 0 116.5 34.5t59 96t12.5 244.5zM617 1126q0 42 29.5 71.5t70.5 29.5q42 0 71 -29t29 -72q0 -42 -29 -71t-71 -29t-71 29t-29 71zM189 1126q0 42 29.5 71.5t70.5 29.5q42 0 71 -29t29 -72q0 -42 -29 -71t-71 -29t-71 29t-29 71z" />
    <glyph glyph-name="otilde" unicode="&#xf5;" 
d="M90 395q0 173 119 294.5t295 121.5q172 0 291.5 -116.5t119.5 -291.5q0 -179 -124 -303.5t-293 -124.5q-166 0 -287 121.5t-121 298.5zM690 395q0 184 -12.5 243t-56 93.5t-119.5 34.5q-72 0 -118.5 -35.5t-57.5 -94.5t-11 -243q0 -185 13.5 -245t59 -94t114.5 -34
q70 0 116.5 34.5t59 96t12.5 244.5zM778 1235h39q-2 -109 -59.5 -166t-130.5 -57q-66 0 -168 44t-137 44q-76 0 -94 -88h-39q0 113 56.5 168t135.5 55q69 0 166.5 -43t138.5 -43q67 0 92 86z" />
    <glyph glyph-name="uacute" unicode="&#xfa;" horiz-adv-x="1110" 
d="M920 786v-735h135v-51h-135q-156 0 -197 -12v186h-4q-90 -186 -283 -186q-111 0 -178.5 58.5t-67.5 246.5v442h-145v51h340v-528q0 -124 15 -171.5t77 -47.5q92 0 170 98.5t78 296.5v301h-160v51h355zM440 936l-26 25l200 241q56 67 84 91t62 24q32 0 57 -24.5t25 -51.5
q0 -42 -32.5 -71.5t-119.5 -82.5z" />
    <glyph glyph-name="ugrave" unicode="&#xf9;" horiz-adv-x="1110" 
d="M920 786v-735h135v-51h-135q-156 0 -197 -12v186h-4q-90 -186 -283 -186q-111 0 -178.5 58.5t-67.5 246.5v442h-145v51h340v-528q0 -124 15 -171.5t77 -47.5q92 0 170 98.5t78 296.5v301h-160v51h355zM672 936l-250 151q-109 67 -130.5 95t-21.5 57q0 31 25 54.5t55 23.5
q36 0 63 -23t85 -92l200 -241z" />
    <glyph glyph-name="ucircumflex" unicode="&#xfb;" horiz-adv-x="1110" 
d="M920 786v-735h135v-51h-135q-156 0 -197 -12v186h-4q-90 -186 -283 -186q-111 0 -178.5 58.5t-67.5 246.5v442h-145v51h340v-528q0 -124 15 -171.5t77 -47.5q92 0 170 98.5t78 296.5v301h-160v51h355zM285 954l233 338h76l233 -338h-55l-215 189l-217 -189h-55z" />
    <glyph glyph-name="udieresis" unicode="&#xfc;" horiz-adv-x="1110" 
d="M920 786v-735h135v-51h-135q-156 0 -197 -12v186h-4q-90 -186 -283 -186q-111 0 -178.5 58.5t-67.5 246.5v442h-145v51h340v-528q0 -124 15 -171.5t77 -47.5q92 0 170 98.5t78 296.5v301h-160v51h355zM670 1126q0 42 29.5 71.5t70.5 29.5q42 0 71 -29t29 -72
q0 -42 -29 -71t-71 -29t-71 29t-29 71zM242 1126q0 42 29.5 71.5t70.5 29.5q42 0 71 -29t29 -72q0 -42 -29 -71t-71 -29t-71 29t-29 71z" />
    <glyph glyph-name="dagger" unicode="&#x2020;" 
d="M526 -512h-49q-4 695 -74 938q62 120 74 362q-88 0 -178 -29.5t-131 -29.5q-49 0 -83 23t-34 65q0 38 33.5 62t77.5 24q54 0 188 -49q37 -12 125 -12q0 84 -14 143q-45 192 -45 258q0 52 21.5 89.5t64.5 37.5q41 0 65.5 -37.5t24.5 -85.5q0 -61 -51 -272
q-15 -57 -15 -133q75 -5 163.5 29t146.5 34q116 0 116 -88q0 -41 -31.5 -65.5t-70.5 -24.5q-44 0 -135.5 30.5t-188.5 30.5q11 -254 74 -362q-69 -258 -74 -938z" />
    <glyph glyph-name="degree" unicode="&#xb0;" horiz-adv-x="819" 
d="M102 1065q0 127 90.5 217t217.5 90q125 0 216 -90.5t91 -216.5q0 -127 -90.5 -217t-216.5 -90q-127 0 -217.5 90t-90.5 217zM633 1065q0 92 -66 157.5t-157 65.5q-92 0 -158 -65t-66 -158q0 -92 66 -157.5t158 -65.5q91 0 157 66t66 157z" />
    <glyph glyph-name="cent" unicode="&#xa2;" horiz-adv-x="874" 
d="M600 553l-184 -516q42 -17 82 -17q196 0 278 252h43q-29 -145 -117.5 -221t-214.5 -76q-42 0 -90 11l-127 -359h-45l133 371q-125 46 -198.5 156.5t-73.5 234.5q0 169 120.5 295.5t297.5 126.5q68 0 137 -25l121 338h43l-127 -354q113 -68 113 -168q0 -40 -27.5 -72
t-71.5 -32q-68 0 -92 55zM379 57l242 676q-51 33 -113 33q-137 0 -171 -78t-34 -295q0 -161 15 -231.5t61 -104.5z" />
    <glyph glyph-name="sterling" unicode="&#xa3;" 
d="M76 616h211q-60 164 -60 279q0 174 108 295t286 121q139 0 229 -76.5t90 -179.5q0 -64 -40 -107t-91 -43q-42 0 -74.5 31t-32.5 76q0 44 29.5 72t69.5 28q18 0 28.5 -5t18.5 -5q20 0 20 26q0 38 -65.5 86t-161.5 48q-105 0 -168 -64.5t-63 -169.5q0 -72 26 -172l66 -240
h239v-51h-229l4 -76q0 -122 -76 -272q213 -49 310 -49q49 0 105.5 33t57.5 131h50q-6 -180 -91 -268.5t-188 -88.5q-137 0 -303 134q-98 -134 -195 -134q-58 0 -99.5 34.5t-41.5 88.5q0 65 52 109.5t128 44.5q57 0 105 -7t51 -7q8 36 8 59q0 115 -78 268h-235v51zM344 141
q-86 54 -147 54q-38 0 -72.5 -25t-34.5 -68q0 -36 26 -57.5t58 -21.5q96 0 170 118z" />
    <glyph glyph-name="section" unicode="&#xa7;" horiz-adv-x="768" 
d="M231 705q-153 122 -153 292q0 130 94 223t231 93q112 0 187.5 -59t75.5 -130q0 -41 -28 -70.5t-67 -29.5q-37 0 -62.5 29t-25.5 61q0 39 31 68q0 2 9 9t9 19q0 22 -38.5 38t-96.5 16q-100 0 -168.5 -59t-68.5 -146q0 -68 49.5 -128.5t217 -138.5t226 -174.5t58.5 -216.5
q0 -189 -166 -272q137 -131 137 -295q0 -145 -87.5 -244.5t-234.5 -99.5q-106 0 -184 55t-78 133q0 49 30.5 78t68.5 29q36 0 60 -24t24 -58q0 -57 -41 -80q-2 0 -14.5 -8t-12.5 -16q0 -19 36.5 -39.5t104.5 -20.5q121 0 182.5 68t61.5 153q0 102 -62 158.5t-217 139.5
t-208.5 174.5t-53.5 203.5q0 210 174 269zM281 674q-84 -19 -122 -70.5t-38 -109.5q0 -69 52.5 -130.5t165 -116.5t161.5 -85q145 66 145 186q0 157 -235 266q-48 16 -129 60z" />
    <glyph glyph-name="bullet" unicode="&#x2022;" horiz-adv-x="717" 
d="M109 678q0 103 74 176.5t177 73.5t176.5 -73.5t73.5 -176.5q0 -104 -73 -178t-177 -74q-103 0 -177 74t-74 178z" />
    <glyph glyph-name="paragraph" unicode="&#xb6;" horiz-adv-x="928" 
d="M801 1286v-1743h-74v1743h-186v-1743h-74v1045q-479 3 -479 379q0 171 118.5 272.5t331.5 101.5h496v-55h-133z" />
    <glyph glyph-name="germandbls" unicode="&#xdf;" horiz-adv-x="1110" 
d="M180 51v750q0 141 12 230.5t70 173.5t146.5 117.5t179.5 33.5q184 0 285.5 -95.5t101.5 -207.5q0 -88 -68.5 -172t-212.5 -109v-4q338 -58 338 -367q0 -189 -97 -304t-233 -115q-78 0 -131 42.5t-53 116.5q0 46 24 77.5t64 31.5t62 -26t22 -62q0 -52 -52 -78
q-17 -9 -17 -18q0 -13 23.5 -23t47.5 -10q55 0 85 47.5t30 220.5q0 214 -13 295t-57.5 113t-169.5 32h-37v45q132 0 182 42t50 206q0 167 -45.5 222t-141.5 55q-93 0 -145.5 -63t-52.5 -279v-918h92v-51h-428v51h139z" />
    <glyph glyph-name="registered" unicode="&#xae;" horiz-adv-x="1556" 
d="M70 678q0 293 208 500.5t500 207.5t500.5 -207.5t208.5 -500.5q0 -292 -208.5 -500.5t-500.5 -208.5t-500 208.5t-208 500.5zM1425 678q0 268 -190 457.5t-457 189.5q-266 0 -456.5 -189.5t-190.5 -457.5t190 -457.5t457 -189.5q268 0 457.5 189.5t189.5 457.5zM385 1114
h387q135 0 216 -62.5t81 -160.5q0 -168 -223 -223l211 -297q64 -91 121 -88v-35h-185l-295 405h-75v-235q0 -94 20.5 -114.5t97.5 -20.5v-35h-366v35q72 0 88 26.5t16 110.5v524q0 84 -14 109t-80 26v35zM623 1055v-359h30q116 0 185 46.5t69 136.5q0 80 -55.5 135
t-144.5 55q-43 0 -84 -14z" />
    <glyph glyph-name="copyright" unicode="&#xa9;" horiz-adv-x="1556" 
d="M70 678q0 293 208 500.5t500 207.5t500.5 -207.5t208.5 -500.5q0 -292 -208.5 -500.5t-500.5 -208.5t-500 208.5t-208 500.5zM1425 678q0 268 -190 457.5t-457 189.5q-266 0 -456.5 -189.5t-190.5 -457.5t190 -457.5t457 -189.5q268 0 457.5 189.5t189.5 457.5z
M1128 1135l21 -281h-39q-71 236 -303 236q-146 0 -234 -104.5t-88 -285.5q0 -196 85 -303.5t247 -107.5q196 0 311 162l37 -21q-137 -203 -383 -203q-200 0 -331.5 131.5t-131.5 313.5q0 191 141 327t359 136q74 0 139.5 -22.5t81.5 -22.5q32 0 50 45h38z" />
    <glyph glyph-name="trademark" unicode="&#x2122;" horiz-adv-x="2007" 
d="M59 1341h727l23 -200h-35q-6 59 -45.5 100t-148.5 41h-74v-580q0 -81 18.5 -104.5t87.5 -28.5v-34h-374v34q58 6 79 22.5t21 108.5v582h-76q-92 0 -134.5 -30.5t-55.5 -110.5h-35zM1163 1341l275 -571l264 571h278v-36q-73 -2 -91.5 -25.5t-18.5 -110.5v-467
q0 -83 17.5 -105.5t92.5 -27.5v-34h-397v34q77 3 98 27.5t21 103.5v492h-4l-303 -657h-33l-303 649h-4v-482q0 -73 15 -103t79 -30h35v-34h-305v34q73 2 92.5 26t19.5 105v467q0 86 -17 112t-95 26v36h284z" />
    <glyph glyph-name="acute" unicode="&#xb4;" horiz-adv-x="682" 
d="M225 936l-26 25l200 241q56 67 84 91t62 24q32 0 57 -24.5t25 -51.5q0 -42 -32.5 -71.5t-119.5 -82.5z" />
    <glyph glyph-name="dieresis" unicode="&#xa8;" horiz-adv-x="682" 
d="M455 1126q0 42 29.5 71.5t70.5 29.5q42 0 71 -29t29 -72q0 -42 -29 -71t-71 -29t-71 29t-29 71zM27 1126q0 42 29.5 71.5t70.5 29.5q42 0 71 -29t29 -72q0 -42 -29 -71t-71 -29t-71 29t-29 71z" />
    <glyph glyph-name="notequal" unicode="&#x2260;" horiz-adv-x="1124" 
d="M1106 279h-621l-184 -330l-100 57l151 273h-321v112h385l157 285h-542v112h606l186 336l101 -57l-156 -279h338v-112h-399l-160 -285h559v-112z" />
    <glyph glyph-name="AE" unicode="&#xc6;" horiz-adv-x="1921" 
d="M895 420h-498l-209 -369h183v-51h-408v51h164l719 1239h-223v51h1146l21 -356h-45q-36 193 -124.5 249t-270.5 56h-230v-579h58q134 0 184 47.5t78 206.5h47v-564h-47q-20 155 -63.5 206.5t-198.5 51.5h-58v-608h279q89 0 161.5 20.5t139.5 108.5t90 271h43l-12 -451
h-1157v51h231v369zM428 471h467v819h-4z" />
    <glyph glyph-name="Oslash" unicode="&#xd8;" horiz-adv-x="1450" 
d="M307 156l-162 -189l-36 33l165 195q-172 216 -172 473q0 276 188.5 490t442.5 214q215 0 395 -178l156 182l37 -33l-160 -186q187 -214 187 -483q0 -281 -188.5 -493t-434.5 -212q-237 0 -418 187zM397 340l643 750q-54 231 -311 231q-108 0 -196 -50t-120 -178.5
t-32 -430.5q0 -187 16 -322zM1051 1026l-643 -752q24 -126 108 -190t205 -64q112 0 200.5 57t118 197t29.5 471q0 145 -18 281z" />
    <glyph glyph-name="infinity" unicode="&#x221e;" horiz-adv-x="1460" 
d="M653 668q71 169 159 222.5t212 53.5q161 0 272 -116.5t111 -301.5q0 -186 -111.5 -303t-238.5 -117q-95 0 -170.5 63t-165.5 224q-117 -233 -324 -233q-149 0 -246.5 104.5t-97.5 263.5q0 157 89 262t218 105q80 0 149 -42t144 -185zM750 465q64 -138 134.5 -201
t176.5 -63q126 0 207.5 91t81.5 234q0 140 -84 240t-199 100q-55 0 -97.5 -21.5t-74.5 -62t-64 -116.5zM614 557l11 33q-96 215 -267 215q-110 0 -179.5 -76.5t-69.5 -198.5q0 -123 66.5 -207.5t162.5 -84.5q82 0 149.5 65t126.5 254z" />
    <glyph glyph-name="plusminus" unicode="&#xb1;" horiz-adv-x="1366" 
d="M141 805h488v485h106v-485h488v-107h-488v-485h-106v485h-488v107zM141 109h1082v-109h-1082v109z" />
    <glyph glyph-name="lessequal" unicode="&#x2264;" horiz-adv-x="1124" 
d="M1077 240l-1018 471v127l1018 471v-127l-887 -408l887 -407v-127zM1077 0h-1018v112h1018v-112z" />
    <glyph glyph-name="greaterequal" unicode="&#x2265;" horiz-adv-x="1124" 
d="M1077 711l-1018 -471v127l887 407l-887 408v127l1018 -471v-127zM1077 0h-1018v112h1018v-112z" />
    <glyph glyph-name="yen" unicode="&#xa5;" horiz-adv-x="1556" 
d="M903 700l387 590h-243v51h475v-51h-174l-420 -641v-8h450v-51h-450v-228h450v-51h-450v-260h223v-51h-688v51h227v260h-450v51h450v228h-450v51h434l-434 649h-179v51h670v-51h-221z" />
    <glyph glyph-name="uni00B5" unicode="&#xb5;" horiz-adv-x="1024" 
d="M94 786h193v-401q0 -187 37 -239t102 -52q111 0 209 135v557h190v-524q0 -127 17.5 -154.5t50.5 -27.5q24 0 43 17t33 106h47q-16 -232 -199 -232q-171 0 -178 176h-4q-104 -176 -283 -176q-102 0 -155 86h-4q0 -132 20 -233.5t20 -155.5q0 -39 -28.5 -74.5t-73.5 -35.5
q-49 0 -74.5 33t-25.5 75q0 30 31.5 166t31.5 283v671z" />
    <glyph glyph-name="partialdiff" unicode="&#x2202;" horiz-adv-x="1012" 
d="M295 1120h-45q131 303 379 303q161 0 263.5 -127t102.5 -376q0 -358 -164.5 -654.5t-427.5 -296.5q-155 0 -246 91t-91 245q0 239 166.5 420.5t383.5 181.5q222 0 312 -190h4q10 144 10 186q0 175 -92.5 276t-253.5 101q-194 0 -301 -160zM911 629q-81 225 -284 225
q-178 0 -286 -190.5t-108 -399.5q0 -108 54 -172.5t143 -64.5q136 0 279.5 162.5t201.5 439.5z" />
    <glyph glyph-name="summation" unicode="&#x2211;" horiz-adv-x="1460" 
d="M1423 238q-32 -125 -54 -240t-34 -219q-63 11 -102.5 16.5t-54.5 5.5h-1031q-20 0 -59 -3t-59 -3l714 815l-710 930q70 -7 123 -10.5t90 -3.5h1018l12 -326h-41q-31 102 -52.5 141t-81.5 66q-30 13 -74.5 20t-104.5 7h-539l559 -734l-602 -694h760q127 0 177.5 52
t98.5 180h47z" />
    <glyph glyph-name="product" unicode="&#x220f;" horiz-adv-x="1686" 
d="M1645 -207h-629v47q120 0 159.5 41t39.5 125v1419h-734v-1419q0 -84 39.5 -125t159.5 -41v-47h-629v47q122 0 160.5 41t38.5 125v1282q0 101 -48.5 152t-146.5 51v47h1586v-47q-98 0 -146.5 -51t-48.5 -152v-1282q0 -84 38.5 -125t160.5 -41v-47z" />
    <glyph glyph-name="pi" unicode="&#x3c0;" horiz-adv-x="1124" 
d="M1085 309q-5 -155 -75.5 -248.5t-167.5 -93.5q-79 0 -138.5 91.5t-59.5 281.5q0 42 2 80t5 72l35 329h-231q-60 -624 -98.5 -742.5t-130.5 -118.5q-39 0 -74 31t-35 82q0 46 72.5 128.5t80.5 150.5l60 469h-97q-40 0 -78.5 -19.5t-56.5 -45.5l-43 -64h-35
q49 152 120.5 228.5t164.5 76.5h764v-176h-258q-12 -120 -18.5 -240t-6.5 -241q0 -82 38 -133t95 -51q35 0 73.5 28.5t43.5 74.5q3 22 4.5 34.5t1.5 15.5h43z" />
    <glyph glyph-name="integral" unicode="&#x222b;" horiz-adv-x="561" 
d="M602 1760q0 -39 -29.5 -64t-75.5 -25q-37 0 -60 25t-44 25q-18 0 -27.5 -14.5t-9.5 -43.5q0 -34 19.5 -256t19.5 -551q0 -505 -30 -709.5t-79 -282.5q-26 -41 -67.5 -62t-85.5 -21q-49 0 -86 35t-37 85q0 38 25.5 65t64.5 27q34 0 65.5 -33t44.5 -33q25 0 39.5 44.5
t14.5 153.5q0 37 -6 197t-6 562q0 481 17 638.5t41 215.5q29 70 69 104t84 34q57 0 98 -32.5t41 -83.5z" />
    <glyph glyph-name="ordfeminine" unicode="&#xaa;" horiz-adv-x="662" 
d="M399 1155v62q0 76 -13 100t-75 24q-102 0 -102 -41q0 -8 8 -22t8 -31q0 -49 -57 -49q-59 0 -59 55q0 46 60 79.5t167 33.5q127 0 158.5 -35t31.5 -108v-222q0 -41 4.5 -56t24.5 -15q28 0 45 28h16q-17 -86 -110 -86q-89 0 -107 95q-77 -95 -178 -95q-67 0 -107 34t-40 83
q0 153 325 166zM399 1063v63q-85 -2 -140.5 -23t-55.5 -89q0 -88 76 -88q43 0 81.5 33.5t38.5 103.5z" />
    <glyph glyph-name="ordmasculine" unicode="&#xba;" horiz-adv-x="641" 
d="M53 1122q0 108 79.5 179t180.5 71q125 0 201 -70.5t76 -173.5q0 -106 -80 -181t-191 -75q-108 0 -187 72.5t-79 177.5zM442 1071q0 196 -15.5 236.5t-104.5 40.5q-87 0 -104 -38t-17 -243q0 -90 20 -130t98 -40q56 0 89.5 30t33.5 144z" />
    <glyph glyph-name="uni2126" unicode="&#x2126;" horiz-adv-x="1573" 
d="M1506 0h-604l33 311q161 59 226 200t65 313q0 227 -107 373t-331 146t-331 -146t-107 -373q0 -172 65 -313t226 -200l33 -311h-604v332h30q16 -66 40 -95.5t96 -29.5h323l-4 57q-238 65 -341 221t-103 332q0 259 192 425.5t485 166.5t485 -166.5t192 -425.5
q0 -176 -103 -332t-341 -221l-4 -57h323q72 0 96 29.5t40 95.5h30v-332z" />
    <glyph glyph-name="ae" unicode="&#xe6;" horiz-adv-x="1323" 
d="M743 446v-122q0 -188 52 -241.5t141 -53.5q94 0 173.5 64t111.5 181h45q-84 -299 -348 -299q-212 0 -338 191q-119 -191 -297 -191q-97 0 -157 59.5t-60 141.5q0 126 126 197t357 76v108q0 109 -21.5 159t-109.5 50q-64 0 -110 -21t-46 -47q0 -4 21.5 -29.5t21.5 -58.5
q0 -38 -27.5 -63t-68.5 -25q-90 0 -90 92q0 86 94 141.5t233 55.5q150 0 259 -66q107 66 206 66q140 0 241.5 -95t113.5 -270h-523zM743 492h310q3 199 -41.5 236.5t-108.5 37.5q-58 0 -99.5 -27t-49 -65t-11.5 -182zM549 223v180q-167 -6 -229 -52.5t-62 -141.5
q0 -66 33 -104.5t80 -38.5q82 0 130 69t48 88z" />
    <glyph glyph-name="oslash" unicode="&#xf8;" 
d="M250 63l-109 -124l-26 26l106 125q-131 126 -131 305q0 174 120.5 295t293.5 121q147 0 264 -86l115 133l28 -24l-114 -134q118 -118 118 -299q0 -178 -123 -302t-290 -124q-139 0 -252 88zM322 207l366 422q-8 137 -188 137q-71 0 -119.5 -28t-57.5 -125t-9 -237
q0 -104 8 -169zM690 578l-362 -422q17 -136 174 -136q99 0 139.5 52t44.5 109t4 397z" />
    <glyph glyph-name="questiondown" unicode="&#xbf;" horiz-adv-x="897" 
d="M594 684q0 -52 -36.5 -88.5t-88.5 -36.5t-89.5 36.5t-37.5 88.5q0 53 37.5 90t89.5 37t88.5 -37.5t36.5 -89.5zM469 401h43q16 -87 16 -137q0 -219 -136 -325t-174 -152t-38 -113q0 -79 69 -137.5t173 -58.5q97 0 160 49t63 86q0 14 -38.5 16.5t-65.5 32t-27 66.5
q0 39 29.5 67.5t70.5 28.5q48 0 79.5 -33t31.5 -98q0 -108 -88.5 -185t-214.5 -77q-159 0 -253.5 108.5t-94.5 245.5q0 104 50 185t214 194q135 94 135 186q0 26 -4 51z" />
    <glyph glyph-name="exclamdown" unicode="&#xa1;" horiz-adv-x="555" 
d="M403 684q0 -52 -37.5 -88.5t-89.5 -36.5q-50 0 -87 37t-37 88q0 53 36.5 90t87.5 37q52 0 89.5 -37t37.5 -90zM252 381h49q2 -243 14 -356t43 -258.5t31 -208.5q0 -50 -34 -88.5t-83 -38.5q-50 0 -82 38.5t-32 96.5q0 80 35.5 236.5t46 259.5t12.5 319z" />
    <glyph glyph-name="logicalnot" unicode="&#xac;" horiz-adv-x="1366" 
d="M143 958h1080v-596h-107v490h-973v106z" />
    <glyph glyph-name="radical" unicode="&#x221a;" horiz-adv-x="1124" 
d="M1055 1868l-307 -1946l-498 1028l-197 -96l-33 68l299 147l404 -825l260 1634z" />
    <glyph glyph-name="florin" unicode="&#x192;" 
d="M344 84l41 313l51 287q1 4 5 26.5t5 24.5h-184l10 51h187q59 293 185.5 436.5t264.5 143.5q80 0 137.5 -45t57.5 -109q0 -40 -26 -69t-62 -29q-37 0 -63.5 26.5t-26.5 61.5t28.5 64t28.5 32q0 23 -59 23q-135 0 -192.5 -147.5t-84.5 -387.5h146l-11 -51h-141l-72 -434
q-36 -212 -73 -345t-88.5 -235t-104 -154.5t-115 -78t-114.5 -25.5q-73 0 -124.5 40.5t-51.5 97.5q0 38 23 66t69 28q84 0 84 -94q0 -24 -11.5 -42t-11.5 -30q0 -18 29 -18q79 0 144.5 79.5t119.5 493.5z" />
    <glyph glyph-name="approxequal" unicode="&#x2248;" horiz-adv-x="1124" 
d="M1022 874h51q-21 -155 -95.5 -238t-186.5 -83q-97 0 -304 117q-139 78 -211 78q-149 0 -178 -187h-47q20 154 93.5 238t181.5 84q47 0 107 -19.5t224 -107.5q118 -62 193 -62q144 0 172 180zM1022 487h51q-21 -155 -95.5 -238t-186.5 -83q-96 0 -268.5 97t-246.5 97
q-149 0 -178 -186h-47q20 153 93.5 236.5t181.5 83.5q47 0 112 -21.5t219 -103.5q118 -62 193 -62q144 0 172 180z" />
    <glyph glyph-name="uni2206" unicode="&#x2206;" horiz-adv-x="1253" 
d="M668 1409l577 -1409h-1233zM594 1059l-447 -959h844z" />
    <glyph glyph-name="guillemotleft" unicode="&#xab;" 
d="M762 33l-297 397l297 393h192l-297 -393l297 -397h-192zM348 33l-299 397l299 393h189l-295 -393l295 -397h-189z" />
    <glyph glyph-name="guillemotright" unicode="&#xbb;" 
d="M242 823l297 -395l-297 -395h-193l297 395l-297 395h193zM655 823l299 -395l-299 -395h-190l297 395l-297 395h190z" />
    <glyph glyph-name="ellipsis" unicode="&#x2026;" horiz-adv-x="2048" 
d="M897 96q0 51 37 88t90 37q51 0 88 -37t37 -88q0 -52 -36.5 -89.5t-88.5 -37.5q-53 0 -90 37.5t-37 89.5zM213 96q0 51 37 88t90 37q51 0 88 -37t37 -88q0 -52 -36.5 -89.5t-88.5 -37.5t-89.5 37.5t-37.5 89.5zM1581 96q0 51 37 88t88 37q53 0 90 -37t37 -88
q0 -52 -37 -89.5t-90 -37.5q-52 0 -88.5 37.5t-36.5 89.5z" />
    <glyph glyph-name="uni00A0" unicode="&#xa0;" horiz-adv-x="502" 
 />
    <glyph glyph-name="Agrave" unicode="&#xc0;" horiz-adv-x="1450" 
d="M858 418h-426l-137 -367h248v-51h-486v51h185l489 1321h31l469 -1321h180v-51h-639v51h217zM451 469h389l-189 537h-4zM842 1450l-250 151q-109 67 -130.5 95t-21.5 57q0 31 25 54.5t55 23.5q36 0 63 -23t85 -92l200 -241z" />
    <glyph glyph-name="Atilde" unicode="&#xc3;" horiz-adv-x="1450" 
d="M858 418h-426l-137 -367h248v-51h-486v51h185l489 1321h31l469 -1321h180v-51h-639v51h217zM451 469h389l-189 537h-4zM1001 1749h39q-2 -109 -59.5 -166t-130.5 -57q-66 0 -168 44t-137 44q-76 0 -94 -88h-39q0 113 56.5 168t135.5 55q69 0 166.5 -43t138.5 -43
q67 0 92 86z" />
    <glyph glyph-name="Otilde" unicode="&#xd5;" horiz-adv-x="1450" 
d="M725 -31q-260 0 -441.5 218t-181.5 466q0 298 190.5 508.5t442.5 210.5q237 0 425 -214t188 -486q0 -280 -188.5 -491.5t-434.5 -211.5zM729 1321q-110 0 -197.5 -50.5t-119 -175.5t-31.5 -436q0 -215 18 -343t91.5 -212t230.5 -84q96 0 192.5 51t126 200.5t29.5 459.5
q0 281 -36.5 388t-117 154.5t-186.5 47.5zM1001 1749h39q-2 -109 -59.5 -166t-130.5 -57q-66 0 -168 44t-137 44q-76 0 -94 -88h-39q0 113 56.5 168t135.5 55q69 0 166.5 -43t138.5 -43q67 0 92 86z" />
    <glyph glyph-name="OE" unicode="&#x152;" horiz-adv-x="2005" 
d="M1905 446l-15 -446h-725q-152 0 -273.5 -15.5t-164.5 -15.5q-279 0 -453 204.5t-174 483.5q0 305 179.5 510t445.5 205q90 0 164.5 -15.5t144.5 -15.5h809l19 -360h-47q-17 138 -73 206t-123.5 85.5t-156.5 17.5h-215v-575h62q127 0 174 58.5t61 189.5h51v-564h-51
q-7 138 -57 201.5t-178 63.5h-62v-613h191q111 0 191 21.5t146 108t87 265.5h43zM1022 51v1239q-65 0 -149.5 14.5t-139.5 14.5q-124 0 -218.5 -59.5t-115 -195.5t-20.5 -462q0 -234 26.5 -356.5t130 -174t207.5 -51.5q38 0 122.5 13.5t156.5 17.5z" />
    <glyph glyph-name="oe" unicode="&#x153;" horiz-adv-x="1556" 
d="M1464 451h-538q0 -220 9.5 -280t61 -105.5t129.5 -45.5q232 0 291 254h47q-62 -299 -352 -299q-181 0 -291 113q-123 -113 -295 -113q-198 0 -316 123t-118 295q0 174 126.5 296t303.5 122t307 -115q110 115 269 115q134 0 241.5 -85.5t124.5 -274.5zM926 496h321
q9 173 -32 221.5t-138 48.5q-67 0 -114.5 -46t-36.5 -224zM528 20q83 0 131.5 38t60 91t11.5 265q0 136 -8 197t-55 108t-140 47q-94 0 -142.5 -47t-58.5 -124t-10 -310q0 -152 56 -208.5t155 -56.5z" />
    <glyph glyph-name="endash" unicode="&#x2013;" horiz-adv-x="1024" 
d="M-12 467h1048v-86h-1048v86z" />
    <glyph glyph-name="emdash" unicode="&#x2014;" horiz-adv-x="2048" 
d="M-12 467h2072v-86h-2072v86z" />
    <glyph glyph-name="quotedblleft" unicode="&#x201c;" 
d="M778 1356l31 -33q-180 -158 -180 -287q0 -88 39 -88q16 0 27 33q25 78 102 78q45 0 75.5 -32.5t30.5 -82.5q0 -57 -42 -94t-103 -37q-77 0 -132 57.5t-55 145.5q0 165 207 340zM307 1356l31 -33q-180 -158 -180 -287q0 -88 39 -88q16 0 27 33q25 78 102 78
q45 0 75.5 -32.5t30.5 -82.5q0 -57 -42 -94t-103 -37q-77 0 -132 57.5t-55 145.5q0 165 207 340z" />
    <glyph glyph-name="quotedblright" unicode="&#x201d;" 
d="M225 813l-30 33q180 157 180 287q0 88 -39 88q-17 0 -28 -33q-25 -78 -101 -78q-45 0 -76 32.5t-31 82.5q0 57 42.5 94t103.5 37q77 0 131.5 -57.5t54.5 -145.5q0 -165 -207 -340zM696 813l-30 33q180 157 180 287q0 88 -39 88q-17 0 -28 -33q-25 -78 -101 -78
q-45 0 -76 32.5t-31 82.5q0 57 42.5 94t103.5 37q77 0 131.5 -57.5t54.5 -145.5q0 -165 -207 -340z" />
    <glyph glyph-name="quoteleft" unicode="&#x2018;" horiz-adv-x="555" 
d="M311 1352l31 -33q-180 -158 -180 -287q0 -88 39 -88q16 0 27 33q26 78 102 78q45 0 75.5 -32.5t30.5 -82.5q0 -57 -42 -94t-103 -37q-77 0 -132 57.5t-55 145.5q0 165 207 340z" />
    <glyph glyph-name="quoteright" unicode="&#x2019;" horiz-adv-x="555" 
d="M244 813l-31 33q180 157 180 287q0 88 -39 88q-16 0 -27 -33q-26 -78 -102 -78q-45 0 -75.5 32.5t-30.5 82.5q0 57 42 94t103 37q77 0 132 -57.5t55 -145.5q0 -165 -207 -340z" />
    <glyph glyph-name="divide" unicode="&#xf7;" horiz-adv-x="1368" 
d="M610 1065q0 30 21 52t51 22t52 -22.5t22 -51.5t-22 -50.5t-52 -21.5q-29 0 -50.5 21.5t-21.5 50.5zM143 711h1080v-105h-1080v105zM610 250q0 30 21 52t51 22t52 -22.5t22 -51.5t-22 -50.5t-52 -21.5q-29 0 -50.5 21.5t-21.5 50.5z" />
    <glyph glyph-name="lozenge" unicode="&#x25ca;" horiz-adv-x="1012" 
d="M962 763l-397 -763h-122l-397 763l397 763h122zM839 763l-335 652l-335 -652l335 -652z" />
    <glyph glyph-name="ydieresis" unicode="&#xff;" horiz-adv-x="1110" 
d="M373 735l280 -547l244 547h-174v51h354v-51h-133l-403 -913q-87 -196 -147.5 -274t-147.5 -78q-54 0 -83.5 34.5t-29.5 77.5q0 40 25.5 65t60.5 25q49 0 76 -45t45 -45q27 0 58 49t94 191l65 147l-395 766h-119v51h481v-51h-151zM670 1126q0 42 29.5 71.5t70.5 29.5
q42 0 71 -29t29 -72q0 -42 -29 -71t-71 -29t-71 29t-29 71zM242 1126q0 42 29.5 71.5t70.5 29.5q42 0 71 -29t29 -72q0 -42 -29 -71t-71 -29t-71 29t-29 71z" />
    <glyph glyph-name="Ydieresis" unicode="&#x178;" horiz-adv-x="1556" 
d="M61 1341h670v-51h-221l393 -592l387 592h-243v51h475v-51h-174l-420 -641v-598h223v-51h-688v51h227v563l-450 676h-179v51zM975 1640q0 42 29.5 71.5t70.5 29.5q42 0 71 -29t29 -72q0 -42 -29 -71t-71 -29t-71 29t-29 71zM547 1640q0 42 29.5 71.5t70.5 29.5
q42 0 71 -29t29 -72q0 -42 -29 -71t-71 -29t-71 29t-29 71z" />
    <glyph glyph-name="fraction" unicode="&#x2044;" horiz-adv-x="662" 
d="M868 1317l-985 -1378h-90l983 1378h92z" />
    <glyph glyph-name="fraction" unicode="&#x2215;" horiz-adv-x="662" 
d="M868 1317l-985 -1378h-90l983 1378h92z" />
    <glyph glyph-name="Euro" unicode="&#x20ac;" 
d="M395 561v-90q0 -197 67 -324t181 -127q82 0 127 36.5t45 72.5q0 16 -32 44q-56 49 -56 97q0 39 27.5 63.5t68.5 24.5q45 0 74 -35t29 -87q0 -91 -78.5 -178t-222.5 -87q-180 0 -301.5 159.5t-139.5 430.5h-118l30 45h86v23q0 59 2 86h-118l30 45h92q31 260 151.5 408.5
t285.5 148.5q129 0 202.5 -67t73.5 -152q0 -43 -29.5 -78t-72.5 -35q-36 0 -61 24t-25 62q0 50 53 83q27 17 27 30q0 28 -37 56t-111 28q-250 0 -250 -490v-18h312l-31 -45h-281v-109h312l-31 -45h-281z" />
    <glyph glyph-name="guilsinglleft" unicode="&#x2039;" horiz-adv-x="598" 
d="M352 33l-299 397l299 393h193l-299 -393l299 -397h-193z" />
    <glyph glyph-name="guilsinglright" unicode="&#x203a;" horiz-adv-x="598" 
d="M246 823l299 -397l-299 -393h-193l299 393l-299 397h193z" />
    <glyph glyph-name="uniF001" unicode="&#xfb01;" horiz-adv-x="1110" 
d="M731 735h-340v-684h133v-51h-454v51h125v684h-142v51h142q0 177 31.5 272t133 196.5t269.5 101.5q118 0 187 -56t69 -118q0 -37 -25 -67t-69 -30q-47 0 -72 31t-25 64q0 65 78 94q-30 39 -137 39q-114 0 -167 -56.5t-65 -137t-12 -224.5v-109h301q156 0 236 13v-748h127
v-51h-457v51h133v684z" />
    <glyph glyph-name="uniF002" unicode="&#xfb02;" horiz-adv-x="1110" 
d="M731 735h-340v-684h123v-51h-444v51h125v684h-142v51h142q13 298 134 434t289 136q52 0 94.5 -11.5t45.5 -11.5q79 0 170 33v-1315h127v-51h-455v51h131v684zM391 786h340v326q-74 27 -74 92q0 42 56 90q-44 17 -90 17q-90 0 -139.5 -37t-71 -94t-21.5 -293v-101z" />
    <glyph glyph-name="daggerdbl" unicode="&#x2021;" 
d="M399 739q86 117 86 176q-77 1 -171.5 -35t-118.5 -36q-40 0 -74.5 25.5t-34.5 66.5q0 38 33.5 62t75.5 24q45 0 139 -33t151 -31q-6 73 -38.5 155.5t-32.5 137.5q0 56 26.5 87.5t63.5 31.5q40 0 66 -34t26 -74q0 -53 -33 -141.5t-37 -162.5q83 0 175.5 32t113.5 32
q45 0 74 -25t29 -61q0 -39 -33 -65.5t-70 -26.5q-33 0 -114 35t-175 36q4 -104 78 -176q-82 -142 -82 -307q0 -151 86 -311q-70 -82 -78 -174q65 1 157 33t122 32q47 0 78 -26.5t31 -61.5q0 -37 -31.5 -63.5t-75.5 -26.5q-33 0 -61 10q-105 53 -220 56q0 -60 35 -160
t35 -137q0 -52 -29 -83.5t-67 -31.5q-43 0 -67.5 37t-24.5 82q0 48 37.5 145.5t39.5 147.5q-86 -2 -169.5 -34t-124.5 -32q-49 0 -79 27t-30 65q0 32 28 59t79 27q26 0 114.5 -31t181.5 -34q-7 79 -86 174q78 145 78 311q0 142 -82 307z" />
    <glyph glyph-name="uni00B7" unicode="&#xb7;" horiz-adv-x="555" 
d="M152 647q0 51 36.5 88t87.5 37q53 0 90 -37t37 -88q0 -52 -37 -89.5t-90 -37.5q-51 0 -87.5 37.5t-36.5 89.5z" />
    <glyph glyph-name="uni00B7" unicode="&#x2219;" horiz-adv-x="555" 
d="M152 647q0 51 36.5 88t87.5 37q53 0 90 -37t37 -88q0 -52 -37 -89.5t-90 -37.5q-51 0 -87.5 37.5t-36.5 89.5z" />
    <glyph glyph-name="quotesinglbase" unicode="&#x201a;" horiz-adv-x="555" 
d="M244 -326l-31 33q180 158 180 287q0 88 -39 88q-16 0 -27 -33q-26 -78 -102 -78q-45 0 -75.5 32.5t-30.5 82.5q0 57 42 94t103 37q77 0 132 -57.5t55 -145.5q0 -165 -207 -340z" />
    <glyph glyph-name="quotedblbase" unicode="&#x201e;" 
d="M225 -326l-30 33q180 158 180 287q0 88 -39 88q-17 0 -28 -33q-25 -78 -101 -78q-45 0 -76 32.5t-31 82.5q0 57 42.5 94t103.5 37q77 0 131.5 -57.5t54.5 -145.5q0 -165 -207 -340zM696 -326l-30 33q180 158 180 287q0 88 -39 88q-17 0 -28 -33q-25 -78 -101 -78
q-45 0 -76 32.5t-31 82.5q0 57 42.5 94t103.5 37q77 0 131.5 -57.5t54.5 -145.5q0 -165 -207 -340z" />
    <glyph glyph-name="perthousand" unicode="&#x2030;" horiz-adv-x="1985" 
d="M1210 1368l-981 -1431h-90l981 1431h90zM326 668q-106 0 -185.5 98.5t-79.5 241.5q0 159 82 259.5t189 100.5q106 0 185 -101.5t79 -246.5t-77 -248.5t-193 -103.5zM332 1335q-57 0 -79 -62t-22 -243q0 -197 20.5 -264.5t78.5 -67.5q51 0 73.5 56.5t22.5 351.5
q0 229 -94 229zM1014 -63q-106 0 -185 98.5t-79 240.5q0 160 81.5 260.5t188.5 100.5t185.5 -101.5t78.5 -246.5t-77 -248.5t-193 -103.5zM1020 604q-57 0 -78.5 -62.5t-21.5 -242.5q0 -198 20 -265t78 -67q51 0 73.5 56.5t22.5 351.5q0 229 -94 229zM1653 -63
q-106 0 -185 98.5t-79 240.5q0 160 81.5 260.5t188.5 100.5t185.5 -101.5t78.5 -246.5t-77 -248.5t-193 -103.5zM1659 604q-57 0 -78.5 -62.5t-21.5 -242.5q0 -198 20 -265t78 -67q51 0 73.5 56.5t22.5 351.5q0 229 -94 229z" />
    <glyph glyph-name="Acircumflex" unicode="&#xc2;" horiz-adv-x="1450" 
d="M858 418h-426l-137 -367h248v-51h-486v51h185l489 1321h31l469 -1321h180v-51h-639v51h217zM451 469h389l-189 537h-4zM455 1468l233 338h76l233 -338h-55l-215 189l-217 -189h-55z" />
    <glyph glyph-name="Ecircumflex" unicode="&#xca;" horiz-adv-x="1430" 
d="M561 1290v-575h121q64 0 108.5 12.5t80 67.5t40.5 172h52v-568h-52q-8 162 -62.5 213.5t-166.5 51.5h-121v-613h273q232 0 321.5 97.5t106.5 300.5h51l-13 -449h-1189v51h213v1239h-213v51h1140l23 -358h-51q-26 163 -107 235t-270 72h-285zM506 1468l233 338h76
l233 -338h-55l-215 189l-217 -189h-55z" />
    <glyph glyph-name="Aacute" unicode="&#xc1;" horiz-adv-x="1450" 
d="M858 418h-426l-137 -367h248v-51h-486v51h185l489 1321h31l469 -1321h180v-51h-639v51h217zM451 469h389l-189 537h-4zM610 1450l-26 25l200 241q56 67 84 91t62 24q32 0 57 -24.5t25 -51.5q0 -42 -32.5 -71.5t-119.5 -82.5z" />
    <glyph glyph-name="Edieresis" unicode="&#xcb;" horiz-adv-x="1430" 
d="M561 1290v-575h121q64 0 108.5 12.5t80 67.5t40.5 172h52v-568h-52q-8 162 -62.5 213.5t-166.5 51.5h-121v-613h273q232 0 321.5 97.5t106.5 300.5h51l-13 -449h-1189v51h213v1239h-213v51h1140l23 -358h-51q-26 163 -107 235t-270 72h-285zM881 1640q0 42 29.5 71.5
t70.5 29.5q42 0 71 -29t29 -72q0 -42 -29 -71t-71 -29t-71 29t-29 71zM453 1640q0 42 29.5 71.5t70.5 29.5q42 0 71 -29t29 -72q0 -42 -29 -71t-71 -29t-71 29t-29 71z" />
    <glyph glyph-name="Egrave" unicode="&#xc8;" horiz-adv-x="1430" 
d="M561 1290v-575h121q64 0 108.5 12.5t80 67.5t40.5 172h52v-568h-52q-8 162 -62.5 213.5t-166.5 51.5h-121v-613h273q232 0 321.5 97.5t106.5 300.5h51l-13 -449h-1189v51h213v1239h-213v51h1140l23 -358h-51q-26 163 -107 235t-270 72h-285zM914 1450l-250 151
q-109 67 -130.5 95t-21.5 57q0 31 25 54.5t55 23.5q36 0 63 -23t85 -92l200 -241z" />
    <glyph glyph-name="Iacute" unicode="&#xcd;" horiz-adv-x="874" 
d="M317 51v1239h-219v51h678v-51h-221v-1239h221v-51h-678v51h219zM321 1450l-26 25l200 241q56 67 84 91t62 24q32 0 57 -24.5t25 -51.5q0 -42 -32.5 -71.5t-119.5 -82.5z" />
    <glyph glyph-name="Icircumflex" unicode="&#xce;" horiz-adv-x="874" 
d="M317 51v1239h-219v51h678v-51h-221v-1239h221v-51h-678v51h219zM167 1468l233 338h76l233 -338h-55l-215 189l-217 -189h-55z" />
    <glyph glyph-name="Idieresis" unicode="&#xcf;" horiz-adv-x="874" 
d="M317 51v1239h-219v51h678v-51h-221v-1239h221v-51h-678v51h219zM552 1640q0 42 29.5 71.5t70.5 29.5q42 0 71 -29t29 -72q0 -42 -29 -71t-71 -29t-71 29t-29 71zM124 1640q0 42 29.5 71.5t70.5 29.5q42 0 71 -29t29 -72q0 -42 -29 -71t-71 -29t-71 29t-29 71z" />
    <glyph glyph-name="Igrave" unicode="&#xcc;" horiz-adv-x="874" 
d="M317 51v1239h-219v51h678v-51h-221v-1239h221v-51h-678v51h219zM554 1450l-250 151q-109 67 -130.5 95t-21.5 57q0 31 25 54.5t55 23.5q36 0 63 -23t85 -92l200 -241z" />
    <glyph glyph-name="Oacute" unicode="&#xd3;" horiz-adv-x="1450" 
d="M725 -31q-260 0 -441.5 218t-181.5 466q0 298 190.5 508.5t442.5 210.5q237 0 425 -214t188 -486q0 -280 -188.5 -491.5t-434.5 -211.5zM729 1321q-110 0 -197.5 -50.5t-119 -175.5t-31.5 -436q0 -215 18 -343t91.5 -212t230.5 -84q96 0 192.5 51t126 200.5t29.5 459.5
q0 281 -36.5 388t-117 154.5t-186.5 47.5zM610 1450l-26 25l200 241q56 67 84 91t62 24q32 0 57 -24.5t25 -51.5q0 -42 -32.5 -71.5t-119.5 -82.5z" />
    <glyph glyph-name="Ocircumflex" unicode="&#xd4;" horiz-adv-x="1450" 
d="M725 -31q-260 0 -441.5 218t-181.5 466q0 298 190.5 508.5t442.5 210.5q237 0 425 -214t188 -486q0 -280 -188.5 -491.5t-434.5 -211.5zM729 1321q-110 0 -197.5 -50.5t-119 -175.5t-31.5 -436q0 -215 18 -343t91.5 -212t230.5 -84q96 0 192.5 51t126 200.5t29.5 459.5
q0 281 -36.5 388t-117 154.5t-186.5 47.5zM455 1468l233 338h76l233 -338h-55l-215 189l-217 -189h-55z" />
    <glyph glyph-name="uniF000" horiz-adv-x="717" 
d="M109 678q0 103 74 176.5t177 73.5t176.5 -73.5t73.5 -176.5q0 -104 -73 -178t-177 -74q-103 0 -177 74t-74 178z" />
    <glyph glyph-name="Ograve" unicode="&#xd2;" horiz-adv-x="1450" 
d="M725 -31q-260 0 -441.5 218t-181.5 466q0 298 190.5 508.5t442.5 210.5q237 0 425 -214t188 -486q0 -280 -188.5 -491.5t-434.5 -211.5zM729 1321q-110 0 -197.5 -50.5t-119 -175.5t-31.5 -436q0 -215 18 -343t91.5 -212t230.5 -84q96 0 192.5 51t126 200.5t29.5 459.5
q0 281 -36.5 388t-117 154.5t-186.5 47.5zM842 1450l-250 151q-109 67 -130.5 95t-21.5 57q0 31 25 54.5t55 23.5q36 0 63 -23t85 -92l200 -241z" />
    <glyph glyph-name="Uacute" unicode="&#xda;" horiz-adv-x="1556" 
d="M1225 1290h-219v51h479v-51h-211v-811q0 -176 -26.5 -260t-96.5 -141t-167.5 -83t-201.5 -26q-220 0 -322 69t-125.5 170t-23.5 271v811h-194v51h641v-51h-211v-788q0 -163 15 -256t81 -155t209 -62q116 0 208 47.5t128.5 127.5t36.5 298v788zM745 1450l-26 25l200 241
q56 67 84 91t62 24q32 0 57 -24.5t25 -51.5q0 -42 -32.5 -71.5t-119.5 -82.5z" />
    <glyph glyph-name="Ucircumflex" unicode="&#xdb;" horiz-adv-x="1556" 
d="M1225 1290h-219v51h479v-51h-211v-811q0 -176 -26.5 -260t-96.5 -141t-167.5 -83t-201.5 -26q-220 0 -322 69t-125.5 170t-23.5 271v811h-194v51h641v-51h-211v-788q0 -163 15 -256t81 -155t209 -62q116 0 208 47.5t128.5 127.5t36.5 298v788zM600 1468l233 338h76
l233 -338h-55l-215 189l-217 -189h-55z" />
    <glyph glyph-name="Ugrave" unicode="&#xd9;" horiz-adv-x="1556" 
d="M1225 1290h-219v51h479v-51h-211v-811q0 -176 -26.5 -260t-96.5 -141t-167.5 -83t-201.5 -26q-220 0 -322 69t-125.5 170t-23.5 271v811h-194v51h641v-51h-211v-788q0 -163 15 -256t81 -155t209 -62q116 0 208 47.5t128.5 127.5t36.5 298v788zM957 1450l-250 151
q-109 67 -130.5 95t-21.5 57q0 31 25 54.5t55 23.5q36 0 63 -23t85 -92l200 -241z" />
    <glyph glyph-name="dotlessi" unicode="&#x131;" horiz-adv-x="555" 
d="M389 801v-750h131v-51h-465v51h142v684h-142v51h142q103 0 192 15z" />
    <glyph glyph-name="circumflex" unicode="&#x2c6;" horiz-adv-x="682" 
d="M70 954l233 338h76l233 -338h-55l-215 189l-217 -189h-55z" />
    <glyph glyph-name="tilde" unicode="&#x2dc;" horiz-adv-x="682" 
d="M616 1235h39q-2 -109 -59.5 -166t-130.5 -57q-66 0 -168 44t-137 44q-76 0 -94 -88h-39q0 113 56.5 168t135.5 55q69 0 166.5 -43t138.5 -43q67 0 92 86z" />
    <glyph glyph-name="macron" unicode="&#x2c9;" horiz-adv-x="682" 
d="M92 1212h498v-157h-498v157z" />
    <glyph glyph-name="breve" unicode="&#x2d8;" horiz-adv-x="682" 
d="M76 1276h30q48 -146 232 -146q182 0 237 146h31q-18 -155 -93.5 -225t-170.5 -70q-100 0 -174.5 71.5t-91.5 223.5z" />
    <glyph glyph-name="dotaccent" unicode="&#x2d9;" horiz-adv-x="682" 
d="M236 1126q0 45 31 75t75 30q43 0 73.5 -30.5t30.5 -74.5t-30.5 -75t-73.5 -31t-74.5 31.5t-31.5 74.5z" />
    <glyph glyph-name="ring" unicode="&#x2da;" horiz-adv-x="682" 
d="M172 1128q0 71 50 120.5t120 49.5q69 0 118.5 -49.5t49.5 -120.5q0 -69 -49.5 -118t-118.5 -49q-71 0 -120.5 48.5t-49.5 118.5zM465 1130q0 51 -36.5 87t-88.5 36q-50 0 -86.5 -36t-36.5 -87q0 -50 36.5 -87t86.5 -37q52 0 88.5 36.5t36.5 87.5z" />
    <glyph glyph-name="cedilla" unicode="&#xb8;" horiz-adv-x="682" 
d="M246 -328v39q60 -8 80 -8q34 0 58 18t24 46q0 57 -86 57v192h43v-96q63 5 100 -28t37 -89q0 -68 -48 -106.5t-112 -38.5q-41 0 -96 14z" />
    <glyph glyph-name="hungarumlaut" unicode="&#x2dd;" horiz-adv-x="682" 
d="M385 934l-33 22l135 232q44 76 66 100.5t53 24.5q33 0 61.5 -23.5t28.5 -56.5q0 -34 -19.5 -57.5t-92.5 -81.5zM102 934l-32 22l135 232q44 76 65.5 100.5t53.5 24.5q33 0 61.5 -23.5t28.5 -56.5q0 -34 -20 -57.5t-93 -81.5z" />
    <glyph glyph-name="ogonek" unicode="&#x2db;" horiz-adv-x="682" 
d="M223 18h47q-43 -65 -43 -116q0 -71 56.5 -120.5t124.5 -49.5q60 0 137 49l20 -27q-152 -110 -256 -110q-66 0 -125 50.5t-59 131.5q0 87 98 192z" />
    <glyph glyph-name="caron" unicode="&#x2c7;" horiz-adv-x="682" 
d="M612 1296l-233 -338h-76l-233 338h55l215 -188l217 188h55z" />
    <glyph glyph-name="Lslash" unicode="&#x141;" horiz-adv-x="1323" 
d="M549 709v-658h301q108 0 174 28.5t109 109t84 247.5h47l-37 -436h-1127v51h211v465l-211 -170v90l211 170v684h-211v51h672v-51h-223v-491l256 209v-90z" />
    <glyph glyph-name="lslash" unicode="&#x142;" horiz-adv-x="555" 
d="M379 694v-643h141v-51h-479v51h143v484l-143 -119v92l143 119v663h-143v51h137q138 0 201 15v-570l141 119v-92z" />
    <glyph glyph-name="Scaron" unicode="&#x160;" horiz-adv-x="1110" 
d="M922 1356l6 -348h-47q-100 313 -353 313q-140 0 -217.5 -77.5t-77.5 -160.5q0 -77 64.5 -131t235.5 -83.5t260.5 -72t151 -141.5t61.5 -227q0 -197 -128.5 -328t-318.5 -131q-155 0 -309 115l-94 -84h-35v375h43q59 -177 165 -266t232 -89q125 0 229.5 82.5t104.5 208.5
q0 106 -72.5 178.5t-235 100t-249.5 64t-149 127t-62 200.5q0 152 108 271.5t293 119.5q155 0 289 -98q37 35 64 82h41zM827 1811l-233 -338h-76l-233 338h55l215 -188l217 188h55z" />
    <glyph glyph-name="scaron" unicode="&#x161;" horiz-adv-x="768" 
d="M625 795v-224h-41q-46 195 -224 195q-77 0 -128.5 -40.5t-51.5 -92.5q0 -44 36.5 -69.5t172.5 -43.5q299 -37 299 -272q0 -117 -77.5 -195t-192.5 -78q-113 0 -219 93l-70 -60h-35v295h35q86 -283 289 -283q77 0 140 49t63 115q0 55 -37.5 83t-202.5 52q-281 41 -281 250
q0 103 75.5 172.5t184.5 69.5q115 0 193 -76q20 21 41 60h31zM655 1296l-233 -338h-76l-233 338h55l215 -188l217 188h55z" />
    <glyph glyph-name="Zcaron" unicode="&#x17d;" horiz-adv-x="1217" 
d="M1098 0h-1028v51l770 1239h-316q-173 0 -241 -70.5t-99 -238.5h-47l21 360h962v-36l-782 -1254h328q141 0 212 27.5t125.5 137t67.5 224.5h49zM881 1811l-233 -338h-76l-233 338h55l215 -188l217 188h55z" />
    <glyph glyph-name="zcaron" unicode="&#x17e;" horiz-adv-x="874" 
d="M117 473v313h671v-43l-481 -698h137q124 0 195.5 56.5t110.5 234.5h38v-336h-702v51l479 690h-137q-67 0 -114 -13.5t-91 -72t-65 -182.5h-41zM709 1296l-233 -338h-76l-233 338h55l215 -188l217 188h55z" />
    <glyph glyph-name="brokenbar" unicode="&#xa6;" horiz-adv-x="1079" 
d="M485 1372h111v-817h-111v817zM485 -524v817h111v-817h-111z" />
    <glyph glyph-name="uni00AD" unicode="&#xad;" horiz-adv-x="662" 
d="M117 508h428v-166h-428v166z" />
    <glyph glyph-name="uni00AF" unicode="&#xaf;" horiz-adv-x="1024" 
d="M1036 1495h-1048v102h1048v-102z" />
    <glyph glyph-name="Eth" unicode="&#xd0;" horiz-adv-x="1556" 
d="M301 645h-209v51h209v594h-209v51h633q210 0 359.5 -59.5t249.5 -233t100 -376.5q0 -215 -110 -384t-253.5 -228.5t-349.5 -59.5h-629v51h209v594zM877 645h-338v-594h174q137 0 223.5 25t143 109t76.5 213t20 337q0 250 -63.5 373t-155.5 152.5t-240 29.5h-178v-594h338
v-51z" />
    <glyph glyph-name="eth" unicode="&#xf0;" horiz-adv-x="1024" 
d="M334 1331l20 37q140 -57 246 -151l201 106l24 -47l-182 -98q115 -128 196 -310t81 -434q0 -213 -125 -336t-291 -123q-167 0 -288.5 121.5t-121.5 298.5q0 175 120.5 295.5t289.5 120.5q72 0 158 -29q-47 207 -123 342l-246 -133l-25 47l242 129q-80 106 -176 164z
M508 768q-74 0 -120.5 -37.5t-58.5 -97t-12 -238.5q0 -184 15 -246.5t61 -95.5t115 -33q74 0 119.5 37t57 97t11.5 241q0 182 -14 243.5t-59.5 95.5t-114.5 34z" />
    <glyph glyph-name="Yacute" unicode="&#xdd;" horiz-adv-x="1556" 
d="M61 1341h670v-51h-221l393 -592l387 592h-243v51h475v-51h-174l-420 -641v-598h223v-51h-688v51h227v563l-450 676h-179v51zM663 1450l-26 25l200 241q56 67 84 91t62 24q32 0 57 -24.5t25 -51.5q0 -42 -32.5 -71.5t-119.5 -82.5z" />
    <glyph glyph-name="yacute" unicode="&#xfd;" horiz-adv-x="1110" 
d="M373 735l280 -547l244 547h-174v51h354v-51h-133l-403 -913q-87 -196 -147.5 -274t-147.5 -78q-54 0 -83.5 34.5t-29.5 77.5q0 40 25.5 65t60.5 25q49 0 76 -45t45 -45q27 0 58 49t94 191l65 147l-395 766h-119v51h481v-51h-151zM440 936l-26 25l200 241q56 67 84 91
t62 24q32 0 57 -24.5t25 -51.5q0 -42 -32.5 -71.5t-119.5 -82.5z" />
    <glyph glyph-name="Thorn" unicode="&#xde;" horiz-adv-x="1343" 
d="M100 1341h668v-51h-217v-231h240q233 0 352 -104.5t119 -256.5q0 -157 -121 -260.5t-396 -103.5h-194v-283h217v-51h-668v51h213v1239h-213v51zM551 1008v-625h129q101 0 168 17t115.5 90t48.5 227q0 134 -42.5 197.5t-100.5 78.5t-144 15h-174z" />
    <glyph glyph-name="thorn" unicode="&#xfe;" horiz-adv-x="1114" 
d="M397 131v-598h162v-57h-491v57h135v1759h-148v51h113q124 0 229 13v-715h4q83 170 256 170q142 0 249.5 -117.5t107.5 -279.5q0 -173 -117.5 -299.5t-261.5 -126.5q-151 0 -234 143h-4zM791 395q0 184 -10.5 247t-48 93.5t-83.5 30.5q-98 0 -157 -65t-77 -127t-18 -183
q0 -127 17 -194t81.5 -115.5t143.5 -48.5q81 0 116.5 68t35.5 294z" />
    <glyph glyph-name="minus" unicode="&#x2212;" horiz-adv-x="1366" 
d="M143 713h1080v-107h-1080v107z" />
    <glyph glyph-name="multiply" unicode="&#xd7;" horiz-adv-x="1366" 
d="M190 1075l76 76l418 -418l418 418l76 -76l-416 -416l416 -415l-76 -76l-418 418l-418 -418l-76 76l416 415z" />
    <glyph glyph-name="onesuperior" unicode="&#xb9;" horiz-adv-x="662" 
d="M401 1317v-633h152v-25h-424v25h152v588h-152v24q160 0 272 21z" />
    <glyph glyph-name="twosuperior" unicode="&#xb2;" horiz-adv-x="662" 
d="M559 844l-22 -185h-488v60q72 62 220.5 168t148.5 233q0 73 -40.5 116.5t-115.5 43.5q-67 0 -109 -32.5t-42 -69.5q0 -21 10 -21q8 0 20.5 7t32.5 7q26 0 44 -15.5t18 -35.5q0 -19 -19.5 -35t-48.5 -16q-41 0 -66.5 27t-25.5 67q0 61 64.5 107.5t166.5 46.5
q101 0 174.5 -42.5t73.5 -117.5t-91 -155t-341 -257v-4h295q73 0 86.5 10t19.5 93h35z" />
    <glyph glyph-name="threesuperior" unicode="&#xb3;" horiz-adv-x="662" 
d="M328 1006q252 -18 252 -170q0 -78 -85.5 -134.5t-205.5 -56.5q-95 0 -155 38t-60 83q0 28 19.5 45.5t47.5 17.5t47 -15.5t19 -37.5q0 -32 -28.5 -42.5t-28.5 -16.5q0 -11 40.5 -28t90.5 -17q155 0 155 147q0 179 -186 172l-60 -2q-28 0 -28 15q0 16 26 16l63 -4
q146 0 146 145q0 81 -27.5 106t-80.5 25q-51 0 -83 -15t-32 -24t27.5 -19.5t27.5 -35.5q0 -19 -19.5 -33t-43.5 -14q-29 0 -46.5 17.5t-17.5 37.5q0 42 55.5 76.5t145.5 34.5q102 0 169 -43.5t67 -104.5q0 -118 -211 -159v-4z" />
    <glyph glyph-name="onehalf" unicode="&#xbd;" horiz-adv-x="1898" 
d="M569 1317v-633h152v-25h-424v25h152v588h-152v24q160 0 272 21zM1491 1317l-985 -1378h-90l983 1378h92zM1632 138l-22 -185h-488v60q72 62 220.5 168t148.5 233q0 73 -40.5 116.5t-115.5 43.5q-67 0 -109 -32.5t-42 -69.5q0 -21 10 -21q8 0 20.5 7t32.5 7q26 0 44 -15.5
t18 -35.5q0 -19 -19.5 -35t-48.5 -16q-41 0 -66.5 27t-25.5 67q0 61 64.5 107.5t166.5 46.5q101 0 174.5 -42.5t73.5 -117.5t-91 -155t-341 -257v-4h295q73 0 86.5 10t19.5 93h35z" />
    <glyph glyph-name="onequarter" unicode="&#xbc;" horiz-adv-x="1898" 
d="M569 1317v-633h152v-25h-424v25h152v588h-152v24q160 0 272 21zM1491 1317l-985 -1378h-90l983 1378h92zM1468 612v-454h109v71h33v-178h-33v82h-109v-156h97v-24h-332v24h108v156h-305q0 22 15 47.5t142.5 189t213.5 242.5h61zM1341 158v344q-115 -130 -268 -344h268z
" />
    <glyph glyph-name="threequarters" unicode="&#xbe;" horiz-adv-x="1898" 
d="M504 1006q252 -18 252 -170q0 -78 -85.5 -134.5t-205.5 -56.5q-95 0 -155 38t-60 83q0 28 19.5 45.5t47.5 17.5t47 -15.5t19 -37.5q0 -32 -28.5 -42.5t-28.5 -16.5q0 -11 40.5 -28t90.5 -17q155 0 155 147q0 179 -186 172l-60 -2q-28 0 -28 15q0 16 26 16l63 -4
q146 0 146 145q0 81 -27.5 106t-80.5 25q-51 0 -83 -15t-32 -24t27.5 -19.5t27.5 -35.5q0 -19 -19.5 -33t-43.5 -14q-29 0 -46.5 17.5t-17.5 37.5q0 42 55.5 76.5t145.5 34.5q102 0 169 -43.5t67 -104.5q0 -118 -211 -159v-4zM1491 1317l-985 -1378h-90l983 1378h92z
M1468 612v-454h109v71h33v-178h-33v82h-109v-156h97v-24h-332v24h108v156h-305q0 22 15 47.5t142.5 189t213.5 242.5h61zM1341 158v344q-115 -130 -268 -344h268z" />
    <glyph glyph-name="uniF003" horiz-adv-x="662" 
d="M486 1318v-454h109v71h33v-178h-33v82h-109v-156h97v-24h-332v24h108v156h-305q0 22 15 47.5t142.5 189t213.5 242.5h61zM359 864v344q-115 -130 -268 -344h268z" />
    <glyph glyph-name="currency" unicode="&#xa4;" horiz-adv-x="1366" 
d="M207 1063l74 74l127 -127q116 96 274 96q157 0 279 -96l126 127l74 -74l-127 -127q96 -129 96 -283q0 -155 -96 -270l127 -127l-74 -74l-126 127q-122 -98 -281 -98t-272 98l-127 -127l-74 74l127 127q-96 143 -96 283t96 270zM1024 657q0 142 -100 242t-240 100
t-240 -100t-100 -242q0 -139 100 -239.5t240 -100.5t240 100.5t100 239.5z" />
    </font>
</defs>
</svg>
