<?xml version="1.0" standalone="no"?>
<!DOCTYPE svg PUBLIC "-//W3C//DTD SVG 1.1//EN" "http://www.w3.org/Graphics/SVG/1.1/DTD/svg11.dtd" >
<svg>
<metadata>
Created by FontForge 20090622 at Thu Apr 27 12:12:34 2017
 By deploy user
Copyright 2002, 2007, 2009 International Typeface Corporation. All rights reserved.
</metadata>
<defs>
<font id="StoneSansIIITCPro-SmBd" horiz-adv-x="611" >
  <font-face 
    font-family="Stone Sans II ITC Pro Sm"
    font-weight="600"
    font-stretch="normal"
    units-per-em="1000"
    panose-1="2 11 7 2 4 5 3 2 2 4"
    ascent="800"
    descent="-200"
    x-height="500"
    cap-height="700"
    bbox="-132 -250 1409 987"
    underline-thickness="50"
    underline-position="-75"
    unicode-range="U+0020-U+FB04"
  />
<missing-glyph horiz-adv-x="500" 
d="M487 0h-475v665h475v-665zM250 375l161 243h-323zM60 91l161 242l-161 242v-484zM440 90v485l-162 -242zM411 48l-161 242l-162 -242h323z" />
    <glyph glyph-name="IJ" unicode="IJ" horiz-adv-x="595" 
d="M218 0h-140v700h140v-700zM517 700v-618q0 -106 -17 -153q-20 -56 -72.5 -87.5t-121.5 -31.5v82q48 16 59.5 48.5t11.5 146.5v613h140z" />
    <glyph glyph-name="ij" unicode="ij" horiz-adv-x="555" 
d="M141 581q-31 0 -52.5 21.5t-21.5 50.5q0 33 21 54.5t54 21.5q30 0 51 -21.5t21 -52.5t-21.5 -52.5t-51.5 -21.5zM207 0h-134v500h134v-500zM416 581q-31 0 -52.5 21.5t-21.5 50.5q0 33 21 54.5t54 21.5q30 0 51 -21.5t21 -52.5t-21.5 -52.5t-51.5 -21.5zM482 500v-514
q0 -135 -46 -185.5t-156 -50.5v49q47 9 59 50q9 27 9 144v507h134z" />
    <glyph glyph-name="napostrophe" unicode="&#x27;n" horiz-adv-x="711" 
d="M641 0h-134v285q0 66 -13 91q-24 46 -83 46q-66 0 -94 -60q-14 -34 -14 -94v-268h-134v500h134v-72q32 45 71.5 64.5t92.5 19.5q55 0 98.5 -26t60.5 -70q15 -36 15 -134v-282zM15 410l-49 30l84 164q0 6 -12 26t-12 41q0 30 21.5 50.5t53.5 20.5q37 0 57.5 -21.5
t20.5 -49.5q0 -36 -40 -90z" />
    <glyph glyph-name="f_f" unicode="ff" horiz-adv-x="624" 
d="M660 712l-21 -69q-27 12 -51 12q-44 0 -57 -35q-7 -18 -7 -60v-60h117v-71h-117v-429h-134v429h-175v-429h-134v429h-81v71h81v47q0 91 40 132q47 55 132 55q53 0 105 -22l-21 -69q-28 12 -54 12q-46 0 -60 -34q-8 -13 -8 -61v-60h175v47q0 89 38 131q46 56 130 56
q56 0 102 -22z" />
    <glyph glyph-name="fi" unicode="fi" horiz-adv-x="601" 
d="M351 712l-21 -69q-27 12 -51 12q-46 0 -57 -35q-7 -14 -7 -60v-60h116v-71h-116v-429h-134v429h-81v71h81v47q0 89 38 131q46 56 130 56q55 0 102 -22zM533 0h-134v500h134v-500zM467 578q-32 0 -54.5 21.5t-22.5 51.5q0 34 21.5 56t55.5 22q31 0 53 -21.5t22 -53.5
t-22 -54t-53 -22z" />
    <glyph glyph-name="fl" unicode="fl" horiz-adv-x="607" 
d="M351 712l-21 -69q-27 12 -51 12q-46 0 -58 -34q-6 -15 -6 -61v-60h116v-71h-116v-429h-134v429h-81v71h81v47q0 89 38 131q47 56 130 56q55 0 102 -22zM533 0h-134v734h134v-734z" />
    <glyph glyph-name="f_f_i" unicode="ffi" horiz-adv-x="910" 
d="M776 578q-31 0 -53.5 21.5t-22.5 51.5q0 34 21.5 56t55.5 22q31 0 52.5 -21.5t21.5 -53.5t-21.5 -54t-53.5 -22zM843 0h-135v500h135v-500zM660 712l-21 -69q-27 12 -51 12q-44 0 -57 -35q-7 -18 -7 -60v-60h117v-71h-117v-429h-134v429h-175v-429h-134v429h-81v71h81v47
q0 91 40 132q47 55 132 55q53 0 105 -22l-21 -69q-28 12 -54 12q-46 0 -60 -34q-8 -13 -8 -61v-60h175v47q0 89 38 131q46 56 130 56q56 0 102 -22z" />
    <glyph glyph-name="f_f_l" unicode="ffl" horiz-adv-x="916" 
d="M843 0h-135v734h135v-734zM660 712l-21 -69q-27 12 -51 12q-44 0 -57 -35q-7 -18 -7 -60v-60h117v-71h-117v-429h-134v429h-175v-429h-134v429h-81v71h81v47q0 91 40 132q47 55 132 55q53 0 105 -22l-21 -69q-28 12 -54 12q-46 0 -60 -34q-8 -13 -8 -61v-60h175v47
q0 89 38 131q46 56 130 56q56 0 102 -22z" />
    <glyph glyph-name=".notdef" horiz-adv-x="500" 
d="M487 0h-475v665h475v-665zM250 375l161 243h-323zM60 91l161 242l-161 242v-484zM440 90v485l-162 -242zM411 48l-161 242l-162 -242h323z" />
    <glyph glyph-name=".null" horiz-adv-x="0" 
 />
    <glyph glyph-name="nonmarkingreturn" horiz-adv-x="333" 
 />
    <glyph glyph-name="space" unicode=" " horiz-adv-x="261" 
 />
    <glyph glyph-name="exclam" unicode="!" horiz-adv-x="360" 
d="M250 734l-31 -529h-80l-31 529h142zM180 -8q-32 0 -54 21.5t-22 52.5q0 34 21.5 55.5t55.5 21.5q31 0 52.5 -22t21.5 -54t-21.5 -53.5t-53.5 -21.5z" />
    <glyph glyph-name="quotedbl" unicode="&#x22;" horiz-adv-x="531" 
d="M186 373q-11 0 -15 8t-7 35l-21 176q-7 58 -7 61q0 25 14 39.5t37 14.5t37 -14.5t14 -39.5q0 -11 -7 -61l-21 -176q-4 -29 -8 -36t-16 -7zM345 373q-12 0 -16 7.5t-8 35.5l-21 176q-6 42 -6 61q0 25 13.5 39.5t36.5 14.5q50 0 50 -54q0 -19 -6 -61l-21 -176
q-3 -27 -7 -35t-15 -8z" />
    <glyph glyph-name="numbersign" unicode="#" horiz-adv-x="627" 
d="M571 499l-11 -78h-103l-22 -130h103l-12 -77h-103l-35 -214h-70l36 214h-130l-36 -214h-69l35 214h-103l11 77h104l22 130h-104l12 78h103l34 201h69l-33 -201h130l34 201h69l-33 -201h102zM387 421h-129l-23 -130h130z" />
    <glyph glyph-name="dollar" unicode="$" 
d="M338 -67h-53v83q-119 3 -196 68l46 72q66 -54 150 -57v228q-67 41 -86 54q-98 64 -98 154q0 72 51.5 113t132.5 48v74h53v-73q92 -7 154 -58l-43 -58q-49 39 -111 43v-203q90 -53 120 -80q67 -62 67 -139q0 -72 -53 -121t-134 -61v-87zM214 543q0 -25 17 -45t54 -44v165
q-33 -7 -52 -28t-19 -48zM338 293v-186q71 21 71 87q0 51 -71 99z" />
    <glyph glyph-name="percent" unicode="%" horiz-adv-x="955" 
d="M217 272q-82 0 -134 60.5t-52 156.5q0 97 51.5 156.5t136.5 59.5q81 0 131.5 -59.5t50.5 -154.5q0 -97 -51 -158t-133 -61zM217 343q33 0 52 39t19 108q0 70 -19 109t-53 39q-33 0 -52.5 -39t-19.5 -108q0 -70 19.5 -109t53.5 -39zM733 -7q-82 0 -133.5 60.5t-51.5 156.5
q0 97 51.5 156.5t135.5 59.5q81 0 132 -60t51 -155q0 -97 -51.5 -157.5t-133.5 -60.5zM734 63q33 0 52 39.5t19 108.5q0 70 -19 109t-54 39q-33 0 -52 -39.5t-19 -108.5t19.5 -108.5t53.5 -39.5zM725 699l-419 -699h-80l418 699h81z" />
    <glyph glyph-name="ampersand" unicode="&#x26;" horiz-adv-x="817" 
d="M760 497l-29 -67h-105q27 -51 27 -118q0 -83 -37 -148l129 -109l-87 -67l-104 94q-47 -49 -101.5 -71.5t-128.5 -22.5q-106 0 -177.5 61.5t-71.5 155.5q0 130 134 198q-80 79 -80 151q0 69 53.5 113.5t134.5 44.5q75 0 148 -47l-40 -76q-46 32 -92 32q-37 0 -58.5 -19
t-21.5 -49q0 -29 18.5 -56t73.5 -78l202 -190q14 29 14 78q0 69 -39 123h-93l28 67h303zM486 141l-214 201q-81 -51 -81 -124q0 -60 42.5 -98.5t110.5 -38.5q85 0 142 60z" />
    <glyph glyph-name="quotesingle" unicode="'" horiz-adv-x="346" 
d="M173 374q-12 0 -15.5 7t-6.5 36l-22 175q-6 51 -6 61q0 25 13.5 39.5t35.5 14.5q23 0 37 -14.5t14 -39.5q0 -9 -6 -61l-21 -175q-4 -28 -8 -35.5t-15 -7.5z" />
    <glyph glyph-name="parenleft" unicode="(" horiz-adv-x="433" 
d="M371 -153l-52 -46q-256 180 -256 465q0 280 256 474l52 -45q-90 -80 -142.5 -194.5t-52.5 -234.5q0 -121 51.5 -230.5t143.5 -188.5z" />
    <glyph glyph-name="parenright" unicode=")" horiz-adv-x="433" 
d="M366 276q0 -278 -256 -475l-52 47q90 79 142.5 193.5t52.5 234.5q0 121 -51.5 230.5t-143.5 188.5l52 45q122 -84 189 -202t67 -262z" />
    <glyph glyph-name="asterisk" unicode="*" horiz-adv-x="417" 
d="M397 528l-142 -25l99 -108l-75 -55l-70 127l-70 -127l-76 55l100 108l-143 25l29 91l132 -61l-19 142h94l-18 -142l132 61z" />
    <glyph glyph-name="plus" unicode="+" 
d="M544 211h-198v-197h-82v197h-197v82h197v199h82v-199h198v-82z" />
    <glyph glyph-name="comma" unicode="," horiz-adv-x="301" 
d="M68 -192l-49 30l84 164q0 6 -12 26t-12 41q0 30 21.5 50.5t53.5 20.5q37 0 57.5 -21.5t20.5 -49.5q0 -36 -40 -90z" />
    <glyph glyph-name="hyphen" unicode="-" horiz-adv-x="336" 
d="M298 205h-263v84h263v-84z" />
    <glyph glyph-name="period" unicode="." horiz-adv-x="301" 
d="M151 -8q-32 0 -54.5 21.5t-22.5 52.5q0 34 21.5 55.5t55.5 21.5q32 0 53.5 -22t21.5 -54t-21.5 -53.5t-53.5 -21.5z" />
    <glyph glyph-name="slash" unicode="/" horiz-adv-x="453" 
d="M426 734l-319 -842h-83l317 842h85z" />
    <glyph glyph-name="zero" unicode="0" 
d="M303 -12q-121 0 -197 103t-76 259q0 160 76 261t201 101q120 0 194.5 -101.5t74.5 -257.5q0 -159 -75.5 -262t-197.5 -103zM304 86q64 0 99 69.5t35 194.5q0 129 -35 199t-101 70q-64 0 -99 -70t-35 -196q0 -127 35 -197t101 -70z" />
    <glyph glyph-name="one" unicode="1" 
d="M395 0h-140v604l-137 -56l-24 76l191 76h110v-700z" />
    <glyph glyph-name="two" unicode="2" 
d="M547 0h-503v71q179 168 256 262q94 115 94 185q0 45 -30 73t-74 28q-70 0 -153 -73l-55 67q95 99 235 99q96 0 160 -49.5t64 -133.5q0 -62 -35 -121t-121 -150q-61 -67 -156 -156h318v-102z" />
    <glyph glyph-name="three" unicode="3" 
d="M264 -12q-115 0 -186 37l33 79q74 -36 132 -36q61 0 99 36t38 92q0 41 -24.5 73.5t-66.5 45.5q-44 14 -132 15v72q78 3 122 29q63 35 63 102q0 44 -26.5 70.5t-73.5 26.5q-67 0 -125 -38l-37 69q84 51 194 51q98 0 155 -42.5t57 -116.5q0 -58 -34 -103.5t-101 -70.5
q84 -9 131 -59.5t47 -121.5q0 -92 -74.5 -151t-190.5 -59z" />
    <glyph glyph-name="four" unicode="4" 
d="M566 184h-95v-184h-125v184h-318v62l349 454h94v-430h95v-86zM346 270v274q-46 -70 -199 -274h199z" />
    <glyph glyph-name="five" unicode="5" 
d="M512 700l-21 -96h-207l-34 -144q105 -16 165 -56q104 -67 104 -184q0 -102 -77 -167t-197 -65q-104 0 -205 66l47 87q80 -58 153 -58q56 0 93 35t37 91q0 96 -108 138q-67 26 -134 26h-12l86 327h310z" />
    <glyph glyph-name="six" unicode="6" 
d="M302 -12q-114 0 -185 71t-71 184q0 126 66 230t170.5 164.5t227.5 74.5v-79q-97 -12 -181 -80.5t-111 -155.5q54 34 122 34q95 0 159 -58.5t64 -147.5q0 -101 -75 -169t-186 -68zM305 60q52 0 84 42.5t32 111.5q0 66 -31 105t-85 39q-52 0 -83.5 -38.5t-31.5 -104.5
q0 -69 31 -112t84 -43z" />
    <glyph glyph-name="seven" unicode="7" 
d="M565 635l-332 -644l-127 31l312 582h-325v96h472v-65z" />
    <glyph glyph-name="eight" unicode="8" 
d="M298 -12q-113 0 -184 55t-71 141q0 63 35 106.5t109 87.5q-57 33 -84.5 70t-27.5 91q0 85 68.5 129t159.5 44q99 0 161 -46t62 -114q0 -98 -129 -171q79 -36 122 -82t43 -113q0 -87 -74 -142.5t-190 -55.5zM300 61q49 0 83 35.5t34 86.5q0 89 -131 147q-99 -55 -99 -144
q0 -55 31 -90t82 -35zM301 426q95 46 95 123q0 38 -26 66t-70 28q-43 0 -68.5 -29t-25.5 -67q0 -77 95 -121z" />
    <glyph glyph-name="nine" unicode="9" 
d="M276 267q-104 0 -168 61.5t-64 150.5q0 99 72.5 166t187.5 67q114 0 185.5 -68.5t71.5 -183.5q0 -86 -27.5 -160.5t-73.5 -127.5t-107 -93t-125.5 -62t-131.5 -29v81q99 14 181 75.5t112 155.5q-50 -33 -113 -33zM301 341q52 0 84 40t32 104q0 69 -31.5 111t-85.5 42
q-50 0 -82.5 -42t-32.5 -109q0 -66 32 -106t84 -40z" />
    <glyph glyph-name="colon" unicode=":" horiz-adv-x="301" 
d="M151 -8q-32 0 -54.5 21.5t-22.5 52.5q0 34 21.5 55.5t55.5 21.5q32 0 53.5 -22t21.5 -54t-21.5 -53.5t-53.5 -21.5zM151 338q-32 0 -54.5 21.5t-22.5 52.5q0 34 21.5 55.5t55.5 21.5q32 0 53.5 -22t21.5 -54t-21.5 -53.5t-53.5 -21.5z" />
    <glyph glyph-name="semicolon" unicode=";" horiz-adv-x="301" 
d="M150 338q-32 0 -54 21.5t-22 52.5q0 34 21.5 55.5t55.5 21.5q31 0 52.5 -22t21.5 -54t-21.5 -53.5t-53.5 -21.5zM61 -192l-49 30l84 164q0 6 -12 26t-12 41q0 30 22 50.5t54 20.5q37 0 57 -21.5t20 -49.5q0 -36 -40 -90z" />
    <glyph glyph-name="less" unicode="&#x3c;" 
d="M505 10l-399 200v81l399 200v-88l-309 -153l309 -151v-89z" />
    <glyph glyph-name="equal" unicode="=" 
d="M544 113h-477v82h477v-82zM544 305h-477v82h477v-82z" />
    <glyph glyph-name="greater" unicode="&#x3e;" 
d="M505 210l-399 -200v88l309 153l-309 151v89l399 -200v-81z" />
    <glyph glyph-name="question" unicode="?" horiz-adv-x="502" 
d="M272 212h-102q-2 9 -2 20q0 37 16 76t53 98q5 8 23 33.5t23 33.5t14.5 26t12.5 32.5t3 30.5q0 40 -23.5 63t-64.5 23q-62 0 -122 -66l-54 59q46 50 93.5 71.5t112.5 21.5q89 0 147.5 -40t58.5 -115q0 -60 -39 -116q-12 -19 -74 -95q-39 -46 -56 -80.5t-20 -75.5zM221 -8
q-32 0 -54 21.5t-22 52.5q0 34 21.5 55.5t55.5 21.5q32 0 53.5 -22t21.5 -54t-21.5 -53.5t-54.5 -21.5z" />
    <glyph glyph-name="at" unicode="@" horiz-adv-x="781" 
d="M402 -15q-160 0 -264.5 100t-104.5 258q0 156 106.5 263.5t262.5 107.5q145 0 240 -89t95 -223q0 -98 -53.5 -172t-123.5 -74q-29 0 -50.5 16t-29.5 42q-44 -64 -130 -64q-63 0 -105.5 47.5t-42.5 118.5q0 85 54.5 148.5t128.5 63.5q76 0 108 -52l7 41h84l-37 -204
q-8 -41 -8 -52q0 -13 7 -22.5t18 -9.5q35 0 65 54t30 118q0 103 -71 172t-182 69q-126 0 -207.5 -86.5t-81.5 -213.5t85 -205.5t209 -78.5q98 0 196 37l20 -74q-95 -36 -225 -36zM373 237q39 0 68 36t29 85q0 34 -21.5 57.5t-53.5 23.5q-38 0 -67.5 -36t-29.5 -84
q0 -37 20.5 -59.5t54.5 -22.5z" />
    <glyph glyph-name="A" unicode="A" horiz-adv-x="660" 
d="M662 0h-149l-65 193h-260l-73 -193h-117l283 700h120zM421 273l-96 289l-107 -289h203z" />
    <glyph glyph-name="B" unicode="B" horiz-adv-x="616" 
d="M581 203q0 -55 -28.5 -98.5t-78.5 -69.5q-65 -35 -217 -35h-179v700h186q83 0 125.5 -6.5t74.5 -24.5q74 -41 74 -131q0 -56 -36 -98t-104 -62q49 -4 89 -25q94 -45 94 -150zM437 210q0 77 -71 104q-36 12 -103 12h-45v-242h45q94 0 134 32q40 34 40 94zM409 524
q0 51 -39 74q-26 18 -104 18h-48v-209h27q84 0 124 32t40 85z" />
    <glyph glyph-name="C" unicode="C" horiz-adv-x="669" 
d="M600 124l34 -87q-87 -49 -204 -49q-169 0 -277.5 101t-108.5 260q0 157 110.5 260t276.5 103q123 0 212 -56l-40 -85q-75 42 -154 42q-112 0 -185.5 -72.5t-73.5 -189.5q0 -114 71 -188.5t186 -74.5q84 0 153 36z" />
    <glyph glyph-name="D" unicode="D" horiz-adv-x="747" 
d="M704 368q0 -97 -38 -175.5t-110 -126.5q-53 -35 -118.5 -50.5t-166.5 -15.5h-193v700h187q99 0 161.5 -8.5t113.5 -33.5q77 -37 120.5 -112t43.5 -178zM554 365q0 151 -96 207q-58 33 -178 33h-62v-510h57q74 0 120 11.5t79 39.5q80 71 80 219z" />
    <glyph glyph-name="E" unicode="E" horiz-adv-x="541" 
d="M505 0h-427v700h385v-95h-245v-191h240v-96h-240v-223h287v-95z" />
    <glyph glyph-name="F" unicode="F" horiz-adv-x="485" 
d="M463 605h-245v-212h240v-96h-240v-297h-140v700h385v-95z" />
    <glyph glyph-name="G" unicode="G" horiz-adv-x="736" 
d="M676 320v-290q-107 -42 -227 -42q-179 0 -291.5 102.5t-112.5 261.5q0 155 112.5 257.5t293.5 102.5q131 0 218 -50l-39 -87q-67 38 -163 38q-121 0 -198.5 -71.5t-77.5 -188.5q0 -113 68 -188.5t182 -75.5q49 0 96 19v212h139z" />
    <glyph glyph-name="H" unicode="H" horiz-adv-x="746" 
d="M668 0h-139v338h-311v-338h-140v700h140v-266h311v266h139v-700z" />
    <glyph glyph-name="I" unicode="I" horiz-adv-x="295" 
d="M218 0h-140v700h140v-700z" />
    <glyph glyph-name="J" unicode="J" horiz-adv-x="300" 
d="M222 700v-618q0 -106 -17 -153q-20 -56 -72.5 -87.5t-121.5 -31.5v82q48 16 59.5 48.5t11.5 146.5v613h140z" />
    <glyph glyph-name="K" unicode="K" horiz-adv-x="635" 
d="M631 27l-142 -38l-271 365v-354h-140v700h140v-304l255 313l112 -42l-238 -281z" />
    <glyph glyph-name="L" unicode="L" horiz-adv-x="505" 
d="M502 0h-424v700h140v-605h284v-95z" />
    <glyph glyph-name="M" unicode="M" horiz-adv-x="900" 
d="M823 0h-135v378q0 61 4 179q-33 -93 -67 -178l-152 -379h-69l-147 376q-65 162 -73 184q4 -87 4 -182v-378h-114v700h170l208 -518l206 518h165v-700z" />
    <glyph glyph-name="N" unicode="N" horiz-adv-x="746" 
d="M668 0h-103l-305 407l-34 45.5t-35 48.5v-501h-113v700h107l306 -413l64 -88v501h113v-700z" />
    <glyph glyph-name="O" unicode="O" horiz-adv-x="787" 
d="M742 356q0 -158 -95.5 -263t-252.5 -105q-156 0 -252.5 104.5t-96.5 261.5t99.5 257.5t254.5 100.5q148 0 245.5 -101.5t97.5 -254.5zM595 347q0 121 -52 193.5t-150 72.5q-53 0 -94 -24t-63.5 -64t-33.5 -84t-11 -91q0 -66 18 -122.5t65.5 -98.5t118.5 -42
q93 0 147.5 69.5t54.5 190.5z" />
    <glyph glyph-name="P" unicode="P" horiz-adv-x="589" 
d="M562 501q0 -50 -21.5 -96t-57.5 -75q-80 -63 -218 -65v88q74 4 115.5 41.5t41.5 95.5q0 116 -158 116h-47v-606h-139v700h204q129 0 192 -39q88 -55 88 -160z" />
    <glyph glyph-name="Q" unicode="Q" horiz-adv-x="793" 
d="M400 -12q-163 0 -259 101.5t-96 265.5q0 155 99 256t251 101q153 0 250 -102.5t97 -256.5q0 -222 -185 -327l239 -105l-55 -87l-311 155q-13 -1 -30 -1zM393 87q93 0 147.5 70t54.5 190q0 121 -52 193.5t-150 72.5q-53 0 -94 -24t-63.5 -64t-33.5 -84t-11 -91
q0 -66 18 -122.5t65.5 -98.5t118.5 -42z" />
    <glyph glyph-name="R" unicode="R" horiz-adv-x="612" 
d="M596 13l-143 -25l-142 299h-93v-287h-140v700h199q139 0 199 -42q75 -51 75 -153q0 -63 -33.5 -112.5t-90.5 -79.5zM417 496q0 58 -37 87q-35 29 -114 29h-48v-242h61q73 0 107 37q31 38 31 89z" />
    <glyph glyph-name="S" unicode="S" horiz-adv-x="529" 
d="M479 189q0 -89 -67.5 -145t-172.5 -56q-113 0 -201 63l48 83q66 -54 137 -54q49 0 82.5 29.5t33.5 68.5q0 44 -36 80q-19 20 -86 73t-90 76q-59 62 -59 129q0 78 62 127t160 49q96 0 170 -54l-45 -75q-52 37 -110 37q-45 0 -69.5 -23t-24.5 -55t35 -67q19 -19 85 -71.5
t86 -72.5q62 -62 62 -142z" />
    <glyph glyph-name="T" unicode="T" horiz-adv-x="576" 
d="M576 605h-219v-605h-140v605h-217v95h576v-95z" />
    <glyph glyph-name="U" unicode="U" horiz-adv-x="707" 
d="M641 700v-391q0 -79 -7.5 -118.5t-29.5 -74.5q-69 -128 -253 -128q-174 0 -247 115q-23 36 -30 78t-7 136v383h139v-365q0 -80 5.5 -118t21.5 -63q39 -65 123 -65q94 0 136 76q16 26 21 64t5 110v361h123z" />
    <glyph glyph-name="V" unicode="V" horiz-adv-x="648" 
d="M654 693l-273 -693h-136l-251 687l148 22l185 -567l204 568z" />
    <glyph glyph-name="W" unicode="W" horiz-adv-x="966" 
d="M973 693l-206 -693h-133l-154 510l-160 -510h-129l-196 693l143 17l137 -551l166 541h109l157 -544l146 554z" />
    <glyph glyph-name="X" unicode="X" horiz-adv-x="639" 
d="M628 10l-146 -20l-177 293l-170 -293l-125 22l229 368l-196 308l145 21l131 -227l131 227l125 -15l-193 -303z" />
    <glyph glyph-name="Y" unicode="Y" horiz-adv-x="564" 
d="M574 694l-230 -403v-291h-140v290l-208 396l148 24l144 -312l168 312z" />
    <glyph glyph-name="Z" unicode="Z" horiz-adv-x="588" 
d="M575 0h-559v55l372 551h-306v94h481v-50l-367 -556h379v-94z" />
    <glyph glyph-name="bracketleft" unicode="[" horiz-adv-x="422" 
d="M360 -191h-246v925h246v-67h-137v-791h137v-67z" />
    <glyph glyph-name="backslash" unicode="\" horiz-adv-x="500" 
d="M449 -108h-83l-318 842h84z" />
    <glyph glyph-name="bracketright" unicode="]" horiz-adv-x="422" 
d="M304 -191h-246v67h137v791h-137v67h246v-925z" />
    <glyph glyph-name="asciicircum" unicode="^" 
d="M523 407h-91l-126 222l-125 -222h-93l167 293h102z" />
    <glyph glyph-name="underscore" unicode="_" horiz-adv-x="527" 
d="M530 -152h-530v91h530v-91z" />
    <glyph glyph-name="grave" unicode="`" horiz-adv-x="527" 
d="M293 589l-36 -20l-252 137l77 70z" />
    <glyph glyph-name="a" unicode="a" horiz-adv-x="533" 
d="M486 0h-140q-10 29 -11 72q-31 -40 -74.5 -62t-80.5 -22q-60 0 -102.5 42.5t-42.5 104.5q0 74 67 128q46 37 146 62q41 11 88 20q-11 42 -32.5 65.5t-65.5 23.5q-60 0 -123 -54l-44 65q89 67 194 67q117 0 168 -68q19 -26 26 -60t7 -101v-130q0 -96 20 -153zM225 75
q51 0 79 43q33 41 33 102v50q-34 -7 -63 -16q-115 -36 -115 -105q0 -31 19 -52.5t47 -21.5z" />
    <glyph glyph-name="b" unicode="b" horiz-adv-x="633" 
d="M360 -12q-95 0 -155 87v-75h-132v734h132v-313q65 91 171 91q97 0 159.5 -69.5t62.5 -181.5q0 -115 -67.5 -194t-170.5 -79zM327 66q63 0 97 54q32 51 32 136q0 82 -35 130t-86 48q-57 0 -94 -49t-37 -138q0 -81 33 -131t90 -50z" />
    <glyph glyph-name="c" unicode="c" horiz-adv-x="495" 
d="M438 104l38 -75q-71 -41 -172 -41q-111 0 -190 70.5t-79 189.5q0 116 81.5 190t201.5 74q90 0 157 -41l-39 -74q-46 25 -97 25q-73 0 -117 -47.5t-44 -122.5q0 -76 46.5 -125t115.5 -49q40 0 98 26z" />
    <glyph glyph-name="d" unicode="d" horiz-adv-x="633" 
d="M559 0h-131v77q-66 -89 -168 -89q-104 0 -164.5 77.5t-60.5 184.5q0 113 66 187.5t166 74.5q104 0 161 -90v312h131v-734zM301 65q59 0 93 50.5t34 137.5q0 83 -34.5 132t-93.5 49q-56 0 -90 -48.5t-34 -132.5t35 -136t90 -52z" />
    <glyph glyph-name="e" unicode="e" horiz-adv-x="549" 
d="M463 117l40 -70q-89 -59 -199 -59q-106 0 -174 58q-95 75 -95 215q0 59 23.5 111.5t65.5 86.5q69 53 166 53q112 0 168 -74q50 -62 50 -164q0 -21 -1 -35h-331q2 -77 42 -121.5t113 -44.5q64 0 132 44zM389 307v13q0 56 -26 91t-74 35q-49 0 -79 -35.5t-32 -103.5h211z
" />
    <glyph glyph-name="f" unicode="f" horiz-adv-x="322" 
d="M358 712l-21 -69q-28 12 -54 12q-46 0 -60 -34q-8 -13 -8 -61v-60h116v-71h-116v-429h-134v429h-81v71h81v47q0 91 40 132q47 55 132 55q53 0 105 -22z" />
    <glyph glyph-name="g" unicode="g" horiz-adv-x="624" 
d="M555 500v-415q0 -95 -15 -151q-25 -92 -93 -138t-171 -46q-105 0 -204 47l26 86q76 -46 158 -46q68 0 115 40q30 26 40 61t10 88v48q-33 -41 -71 -63.5t-95 -22.5q-104 0 -162 77.5t-58 183.5q0 114 64 188.5t163 74.5q105 0 159 -82v70h134zM296 65q61 0 93 51.5
t32 138.5q0 83 -33.5 131t-90.5 48q-56 0 -88.5 -51.5t-32.5 -130.5q0 -82 34.5 -134.5t85.5 -52.5z" />
    <glyph glyph-name="h" unicode="h" horiz-adv-x="616" 
d="M545 0h-134v285q0 66 -13 91q-24 46 -83 46q-66 0 -94 -60q-14 -34 -14 -94v-268h-134v734h134v-302q33 43 71.5 61.5t91.5 18.5q56 0 99 -26t61 -70q15 -33 15 -134v-282z" />
    <glyph glyph-name="i" unicode="i" horiz-adv-x="281" 
d="M141 581q-31 0 -52.5 21.5t-21.5 50.5q0 33 21 54.5t54 21.5q30 0 51 -21.5t21 -52.5t-21.5 -52.5t-51.5 -21.5zM207 0h-134v500h134v-500z" />
    <glyph glyph-name="j" unicode="j" horiz-adv-x="281" 
d="M141 581q-31 0 -52.5 21.5t-21.5 50.5q0 33 21 54.5t54 21.5q30 0 51 -21.5t21 -52.5t-21.5 -52.5t-51.5 -21.5zM207 500v-514q0 -135 -46 -185.5t-156 -50.5v49q47 9 59 50q9 27 9 144v507h134z" />
    <glyph glyph-name="k" unicode="k" horiz-adv-x="533" 
d="M529 33l-126 -43l-196 275v-265h-134v734h134v-438h8l180 212l103 -42l-169 -183z" />
    <glyph glyph-name="l" unicode="l" horiz-adv-x="281" 
d="M207 0h-134v734h134v-734z" />
    <glyph glyph-name="m" unicode="m" horiz-adv-x="919" 
d="M849 0h-134v284q0 70 -16 98q-23 40 -71 40q-62 0 -88 -60q-12 -26 -12 -81v-281h-135v281q0 71 -12 96q-21 44 -71 44q-70 0 -93 -65q-10 -31 -10 -84v-272h-134v500h134v-72q54 84 157 84q106 0 145 -91q58 91 166 91q110 0 152 -81q22 -44 22 -137v-294z" />
    <glyph glyph-name="n" unicode="n" horiz-adv-x="616" 
d="M545 0h-134v285q0 66 -13 91q-24 46 -83 46q-66 0 -94 -60q-14 -34 -14 -94v-268h-134v500h134v-72q32 45 71.5 64.5t92.5 19.5q55 0 98.5 -26t60.5 -70q15 -36 15 -134v-282z" />
    <glyph glyph-name="o" unicode="o" horiz-adv-x="600" 
d="M300 -12q-111 0 -188 73t-77 193q0 115 75.5 186.5t191.5 71.5q112 0 187.5 -72.5t75.5 -185.5q0 -120 -77 -193t-188 -73zM299 57q55 0 91 51.5t36 143.5q0 90 -35 140.5t-91 50.5q-55 0 -90.5 -51.5t-35.5 -139.5q0 -90 36 -142.5t89 -52.5z" />
    <glyph glyph-name="p" unicode="p" horiz-adv-x="633" 
d="M359 -12q-95 0 -154 87v-325h-132v750h132v-79q67 91 170 91q97 0 160 -70t63 -181q0 -115 -68 -194t-171 -79zM327 66q61 0 95 56t34 134q0 82 -35 130t-87 48q-53 0 -91.5 -47t-38.5 -140q0 -81 32.5 -131t90.5 -50z" />
    <glyph glyph-name="q" unicode="q" horiz-adv-x="621" 
d="M559 -250h-132v328q-65 -90 -168 -90q-104 0 -164.5 77.5t-60.5 184.5q0 113 66 187.5t166 74.5q106 0 161 -89v77h132v-750zM300 65q59 0 93 50.5t34 137.5q0 82 -34.5 131.5t-93.5 49.5q-56 0 -89.5 -48t-33.5 -133q0 -84 34.5 -136t89.5 -52z" />
    <glyph glyph-name="r" unicode="r" horiz-adv-x="404" 
d="M416 470l-43 -97q-31 20 -65 20q-63 0 -88 -74q-13 -39 -13 -115v-204h-134v500h134v-98q2 5 11 26q37 84 103 84q46 0 95 -42z" />
    <glyph glyph-name="s" unicode="s" horiz-adv-x="419" 
d="M195 -12q-95 0 -163 55l38 72q56 -51 107 -51q35 0 54 17.5t19 45.5q0 24 -17.5 44.5t-66.5 56.5q-36 26 -55.5 43t-36.5 45.5t-17 60.5q0 61 47 98t123 37q81 0 145 -40l-36 -64q-39 28 -81 28q-31 0 -48.5 -16t-17.5 -36q0 -21 16 -39.5t56 -48.5q73 -53 97 -85.5
t24 -77.5q0 -65 -53 -105t-134 -40z" />
    <glyph glyph-name="t" unicode="t" horiz-adv-x="381" 
d="M351 83l22 -64q-70 -31 -134 -31q-92 0 -129 57q-14 23 -19 49t-5 78v258h-70v70h70v121l134 29v-150h131v-70h-131v-226q0 -71 15.5 -104.5t54.5 -33.5q28 0 61 17z" />
    <glyph glyph-name="u" unicode="u" horiz-adv-x="613" 
d="M540 0h-135v72q-59 -84 -163 -84q-56 0 -98.5 25t-59.5 69q-16 37 -16 136v282h134v-285q0 -66 13 -91q22 -45 83 -45q67 0 93 59q14 31 14 93v269h135v-500z" />
    <glyph glyph-name="v" unicode="v" horiz-adv-x="519" 
d="M514 488l-212 -488h-102l-196 485l134 24l130 -358l136 358z" />
    <glyph glyph-name="w" unicode="w" horiz-adv-x="820" 
d="M814 493l-194 -493h-93l-128 336l-127 -336h-92l-176 485l133 25l109 -353l129 343h89l124 -343l114 353z" />
    <glyph glyph-name="x" unicode="x" horiz-adv-x="508" 
d="M503 17l-137 -27l-120 191l-134 -191l-107 27l183 245l-154 221l136 27l100 -161l109 161l103 -24l-158 -212z" />
    <glyph glyph-name="y" unicode="y" horiz-adv-x="517" 
d="M511 488l-243 -553q-49 -107 -89 -140q-52 -45 -153 -45h-33v89h26q42 0 68.5 14.5t49.5 49.5q26 41 62 136l-191 444l130 26l130 -350l137 350z" />
    <glyph glyph-name="z" unicode="z" horiz-adv-x="474" 
d="M455 0h-442v46l280 375h-225v79h382v-50l-267 -368h272v-82z" />
    <glyph glyph-name="braceleft" unicode="{" horiz-adv-x="404" 
d="M333 -135v-60q-113 0 -153.5 50.5t-40.5 169.5v89q0 61 -15.5 90t-63.5 44v51q50 15 64 43.5t14 90.5v95q0 111 44 161.5t151 51.5v-60q-49 -9 -68 -37.5t-19 -81.5v-56q0 -121 -9 -149q-14 -49 -69 -85q57 -37 70 -86q8 -26 8 -149v-53q0 -55 20 -82.5t67 -36.5z" />
    <glyph glyph-name="bar" unicode="|" horiz-adv-x="368" 
d="M224 -250h-80v994h80v-994z" />
    <glyph glyph-name="braceright" unicode="}" horiz-adv-x="404" 
d="M340 298v-50q-50 -15 -64.5 -44.5t-14.5 -90.5v-94q0 -112 -44 -162.5t-151 -51.5v60q50 10 68.5 38t18.5 82v55q0 121 9 149q14 51 69 85q-55 36 -70 87q-8 25 -8 148v53q0 55 -19.5 82.5t-67.5 36.5v60q113 0 154 -50.5t41 -168.5v-90q0 -61 15 -90t64 -44z" />
    <glyph glyph-name="asciitilde" unicode="~" 
d="M495 329l57 -21q-20 -49 -46 -81q-39 -50 -98 -50q-35 0 -123 41q-50 22 -74 22q-50 0 -81 -67l-57 21q19 46 39 75q40 58 102 58q38 0 112 -35q61 -28 88 -28t44 14.5t37 50.5z" />
    <glyph glyph-name="uni00A0" unicode="&#xa0;" horiz-adv-x="454" 
 />
    <glyph glyph-name="exclamdown" unicode="&#xa1;" horiz-adv-x="360" 
d="M251 -233h-142l31 530h81zM180 359q-32 0 -54 21.5t-22 52.5q0 34 21.5 55.5t55.5 21.5q32 0 53 -21.5t21 -53.5q0 -33 -21.5 -54.5t-53.5 -21.5z" />
    <glyph glyph-name="cent" unicode="&#xa2;" 
d="M310 19h-66l20 96q-80 27 -130.5 91.5t-50.5 154.5q0 111 76.5 182t184.5 76q12 1 24 0l16 74h68l-16 -78q52 -8 92 -31l-36 -76q-34 21 -73 24l-72 -337q34 -9 55 -9q48 0 93 25l35 -79q-59 -35 -153 -35q-28 0 -49 4zM350 532q-62 -13 -97.5 -58.5t-35.5 -109.5
q0 -89 68 -142z" />
    <glyph glyph-name="sterling" unicode="&#xa3;" 
d="M536 119l46 -72q-69 -59 -159 -59q-40 0 -94 6q-121 15 -184 15q-49 0 -119 -9v75q55 19 77.5 55t33.5 119l12 88h-101v72h107l12 83q15 103 76 158q67 61 164 61q98 0 167 -69l-51 -53q-46 38 -97 38q-66 0 -95 -56q-20 -29 -26 -81l-9 -81h146v-72h-152l-6 -54
q-8 -78 -21 -111.5t-45 -64.5l56 -6t40 -4q108 -12 118 -12q53 0 104 34z" />
    <glyph glyph-name="currency" unicode="&#xa4;" 
d="M551 175l-61 -62l-70 67q-50 -34 -114 -34q-65 0 -115 34l-69 -67l-63 62l70 66q-34 55 -34 113q0 61 34 113l-70 67l63 62l69 -67q52 34 115 34q64 0 114 -34l70 67l61 -62l-69 -67q34 -52 34 -113q0 -59 -34 -113zM306 233q50 0 86 36t36 86q0 51 -37 85.5t-85 34.5
q-51 0 -87 -35.5t-36 -84.5q0 -50 36 -86t87 -36z" />
    <glyph glyph-name="yen" unicode="&#xa5;" 
d="M598 696l-158 -272h127v-55h-158l-43 -73v-32h201v-53h-201v-211h-141v211h-199v53h199v31l-41 74h-158v55h129l-141 263l136 23l157 -326l181 326z" />
    <glyph glyph-name="brokenbar" unicode="&#xa6;" horiz-adv-x="368" 
d="M224 413h-80v321h80v-321zM224 -79h-80v322h80v-322z" />
    <glyph glyph-name="section" unicode="&#xa7;" horiz-adv-x="603" 
d="M542 269q0 -52 -40 -88.5t-109 -50.5q87 -57 87 -128q0 -50 -32 -85.5t-75.5 -50t-91.5 -14.5q-120 0 -195 62l32 73q66 -48 140 -48q39 0 61.5 15.5t22.5 43.5q0 29 -25 52t-93 64q-76 43 -118 86.5t-42 96.5q0 68 71 112q18 11 66 30q-44 30 -67.5 59t-23.5 70
q0 63 52.5 103t142.5 40q100 0 169 -57l-46 -64q-56 42 -105 42q-34 0 -54.5 -17.5t-20.5 -42.5q0 -21 15.5 -39.5t73.5 -56.5l36.5 -22.5l46.5 -29t37 -25.5q85 -61 85 -130zM419 253q0 35 -35 64q-18 15 -109 72q-87 -16 -87 -78q0 -34 28 -61.5t106 -72.5q97 16 97 76z
" />
    <glyph glyph-name="dieresis" unicode="&#xa8;" horiz-adv-x="527" 
d="M373 585q-25 0 -43.5 18.5t-18.5 43.5q0 26 18.5 44.5t44.5 18.5q25 0 43 -18.5t18 -43.5q0 -26 -18 -44.5t-44 -18.5zM152 585q-26 0 -44 18.5t-18 44.5t18.5 44t44.5 18q25 0 43 -18t18 -44t-18 -44.5t-44 -18.5z" />
    <glyph glyph-name="copyright" unicode="&#xa9;" horiz-adv-x="797" 
d="M398 -15q-148 0 -254 106.5t-106 255.5q0 152 106 257.5t260 105.5q145 0 249.5 -107t104.5 -255q0 -150 -105.5 -256.5t-254.5 -106.5zM399 44q121 0 207.5 89t86.5 214q0 127 -86.5 216t-210.5 89q-121 0 -206.5 -89t-85.5 -214q0 -126 86.5 -215.5t208.5 -89.5z
M531 228l30 -60q-62 -36 -141 -36q-97 0 -161.5 61.5t-64.5 154.5q0 94 66.5 154.5t167.5 60.5q74 0 132 -34l-28 -59q-43 25 -94 25q-63 0 -103.5 -41t-40.5 -107q0 -67 36.5 -107t95.5 -40q58 0 105 28z" />
    <glyph glyph-name="ordfeminine" unicode="&#xaa;" horiz-adv-x="382" 
d="M339 402h-104q-5 13 -9 39q-55 -46 -97 -46t-70 26t-28 66q0 44 38 73q28 22 86 36l41.5 8.5t29.5 5.5q-14 49 -57 49q-32 0 -82 -41l-35 50q63 44 134 44q78 0 114 -40q24 -29 24 -98v-76q0 -56 15 -96zM161 454q18 0 35.5 15t23.5 34q6 16 8 44v19q-34 -6 -40 -8
q-60 -20 -60 -64q0 -16 9.5 -28t23.5 -12z" />
    <glyph glyph-name="guillemotleft" unicode="&#xab;" horiz-adv-x="520" 
d="M265 88l-53 -35l-199 179l183 185l55 -32l-113 -151zM475 88l-54 -35l-198 179l183 185l54 -32l-113 -151z" />
    <glyph glyph-name="logicalnot" unicode="&#xac;" 
d="M544 102h-87v203h-390v82h477v-285z" />
    <glyph glyph-name="uni00AD" unicode="&#xad;" horiz-adv-x="336" 
d="M298 201h-263v88h263v-88z" />
    <glyph glyph-name="registered" unicode="&#xae;" horiz-adv-x="429" 
d="M215 405q-79 0 -134.5 55.5t-55.5 135.5q0 81 55.5 136t137.5 55q77 0 131.5 -56t54.5 -135q0 -80 -55 -135.5t-134 -55.5zM215 444q60 0 102.5 44.5t42.5 106.5q0 64 -42.5 109t-104.5 45q-59 0 -101.5 -45t-42.5 -107q0 -63 43 -108t103 -45zM297 505l-48 -9l-36 84
h-23v-80h-45v200h64q35 0 55 -11q26 -14 26 -45q0 -39 -36 -56zM190 613h17q32 0 32 28q0 27 -32 27h-17v-55z" />
    <glyph glyph-name="macron" unicode="&#xaf;" horiz-adv-x="527" 
d="M418 604h-311v78h311v-78z" />
    <glyph glyph-name="degree" unicode="&#xb0;" horiz-adv-x="415" 
d="M207 445q-61 0 -104 43t-43 103q0 62 43.5 105.5t105.5 43.5q59 0 102.5 -43.5t43.5 -104.5t-43.5 -104t-104.5 -43zM207 512q34 0 57.5 23.5t23.5 56.5q0 34 -23.5 57t-58.5 23q-33 0 -56 -23.5t-23 -56.5t23.5 -56.5t56.5 -23.5z" />
    <glyph glyph-name="plusminus" unicode="&#xb1;" 
d="M544 319h-198v-181h-82v181h-197v82h197v197h82v-197h198v-82zM544 0h-477v82h477v-82z" />
    <glyph glyph-name="two.superior" unicode="&#xb2;" horiz-adv-x="379" 
d="M345 450h-342v49q110 94 167 157q54 61 54 101q0 23 -15.5 36.5t-37.5 13.5q-38 0 -98 -46l-48 51q68 64 163 64q66 0 110 -30.5t44 -81.5q0 -39 -25 -74.5t-81 -87.5q-19 -18 -92 -79h201v-73z" />
    <glyph glyph-name="three.superior" unicode="&#xb3;" horiz-adv-x="360" 
d="M148 442q-77 0 -133 26l29 61q51 -27 92 -27q32 0 52.5 18.5t20.5 48.5q0 49 -48 63q-28 9 -93 9v54q55 2 83 16q34 18 34 55q0 21 -13.5 34.5t-37.5 13.5q-39 0 -84 -28l-32 55q61 34 136 34q67 0 107 -26.5t40 -71.5q0 -63 -77 -99q51 -11 77 -39.5t26 -67.5
q0 -57 -50.5 -93t-128.5 -36z" />
    <glyph glyph-name="acute" unicode="&#xb4;" horiz-adv-x="527" 
d="M226 587l211 189l78 -70l-251 -137z" />
    <glyph glyph-name="mu" unicode="&#xb5;" horiz-adv-x="598" 
d="M544 0h-134v63q-29 -74 -102 -74q-71 0 -102 74v-242h-134v679h134v-264q0 -67 15 -97q25 -53 86 -53q63 0 87 53q16 32 16 96v265h134v-500z" />
    <glyph glyph-name="paragraph" unicode="&#xb6;" horiz-adv-x="643" 
d="M559 632h-56v-751h-84v751h-73v-751h-84v454q-8 -1 -18 -1q-80 0 -133 50t-53 130q0 108 80 153q58 33 171 33h250v-68z" />
    <glyph glyph-name="periodcentered" unicode="&#xb7;" horiz-adv-x="301" 
d="M149 175q-32 0 -54 21.5t-22 52.5q0 34 21.5 56t55.5 22q32 0 53.5 -22t21.5 -54t-21.5 -54t-54.5 -22z" />
    <glyph glyph-name="cedilla" unicode="&#xb8;" horiz-adv-x="527" 
d="M398 -141q0 -42 -38 -69t-97 -27q-41 0 -89 14l18 45q38 -11 67 -11q55 0 55 39q0 37 -48 37q-16 0 -34 -3l-9 7l46 109h51l-28 -70q22 2 25 2q36 0 58.5 -20t22.5 -53z" />
    <glyph glyph-name="one.superior" unicode="&#xb9;" horiz-adv-x="304" 
d="M226 450h-112v345l-83 -31l-21 58l131 48h85v-420z" />
    <glyph glyph-name="ordmasculine" unicode="&#xba;" horiz-adv-x="411" 
d="M205 395q-78 0 -127.5 45.5t-49.5 115.5q0 68 49.5 112t128.5 44q76 0 126 -44.5t50 -110.5q0 -70 -50 -116t-127 -46zM206 448q32 0 50.5 28.5t18.5 78.5t-19 77t-52 27q-32 0 -50.5 -28t-18.5 -77q0 -50 19 -78t52 -28z" />
    <glyph glyph-name="guillemotright" unicode="&#xbb;" horiz-adv-x="520" 
d="M294 238l-182 -185l-55 31l113 152l-128 145l54 36zM504 238l-183 -185l-55 31l114 152l-129 145l55 36z" />
    <glyph glyph-name="onequarter" unicode="&#xbc;" horiz-adv-x="885" 
d="M278 280h-112v345l-83 -31l-21 58l130 48h86v-420zM693 700l-417 -700h-81l417 700h81zM851 107h-65v-107h-95v107h-207v43l226 270h76v-254h65v-59zM691 166v153q-7 -11 -118 -153h118z" />
    <glyph glyph-name="onehalf" unicode="&#xbd;" horiz-adv-x="931" 
d="M278 280h-112v345l-83 -31l-21 58l130 48h86v-420zM692 700l-417 -700h-81l418 700h80zM882 0h-343v49q110 94 167 157q54 61 54 101q0 23 -15.5 36.5t-37.5 13.5q-38 0 -98 -46l-47 51q67 64 162 64q66 0 110 -30.5t44 -81.5q0 -39 -25 -74.5t-81 -87.5q-19 -18 -92 -79
h202v-73z" />
    <glyph glyph-name="threequarters" unicode="&#xbe;" horiz-adv-x="906" 
d="M181 272q-76 0 -133 26l29 61q51 -27 92 -27q32 0 52.5 18.5t20.5 48.5q0 49 -48 63q-28 9 -93 9v54q55 2 83 16q34 17 34 55q0 21 -13.5 34.5t-37.5 13.5q-39 0 -84 -28l-32 55q61 34 136 34q67 0 107 -26.5t40 -71.5q0 -63 -77 -99q52 -11 78 -39.5t26 -67.5
q0 -57 -50.5 -93t-129.5 -36zM726 700l-418 -700h-80l417 700h81zM872 107h-65v-107h-95v107h-206v43l225 270h76v-254h65v-59zM712 166v153q-18 -25 -117 -153h117z" />
    <glyph glyph-name="questiondown" unicode="&#xbf;" horiz-adv-x="502" 
d="M276 356q-32 0 -54 21.5t-22 53.5q0 34 21.5 55.5t55.5 21.5q31 0 52.5 -22t21.5 -54t-21.5 -54t-53.5 -22zM393 -84l54 -59q-44 -49 -92 -71t-113 -22q-51 0 -95.5 14t-78 51t-33.5 91q0 58 39 116q9 14 75 95q39 47 56 80.5t20 74.5h103q1 -9 1 -19q0 -38 -16 -77
t-53 -98q-5 -8 -23 -33.5t-23 -33.5t-14.5 -26.5t-12.5 -32.5t-3 -31q0 -39 24 -62t64 -23q34 0 59 14t62 52z" />
    <glyph glyph-name="Agrave" unicode="&#xc0;" horiz-adv-x="660" 
d="M662 0h-149l-65 193h-260l-73 -193h-117l283 700h120zM421 273l-96 289l-107 -289h203zM426 779l-36 -20l-252 137l77 70z" />
    <glyph glyph-name="Aacute" unicode="&#xc1;" horiz-adv-x="660" 
d="M662 0h-149l-65 193h-260l-73 -193h-117l283 700h120zM421 273l-96 289l-107 -289h203zM251 777l211 189l78 -70l-251 -137z" />
    <glyph glyph-name="Acircumflex" unicode="&#xc2;" horiz-adv-x="660" 
d="M662 0h-149l-65 193h-260l-73 -193h-117l283 700h120zM421 273l-96 289l-107 -289h203zM511 756h-60l-111 102l-110 -102h-59l136 182h68z" />
    <glyph glyph-name="Atilde" unicode="&#xc3;" horiz-adv-x="660" 
d="M662 0h-149l-65 193h-260l-73 -193h-117l283 700h120zM421 273l-96 289l-107 -289h203zM401 779q-28 0 -79 24q-46 22 -63 22q-39 0 -57 -46h-47q10 42 22 65q31 58 93 58q30 0 76 -23q47 -22 65 -22q45 0 63 52h46q-6 -40 -18 -63q-33 -67 -101 -67z" />
    <glyph glyph-name="Adieresis" unicode="&#xc4;" horiz-adv-x="660" 
d="M662 0h-149l-65 193h-260l-73 -193h-117l283 700h120zM421 273l-96 289l-107 -289h203zM450 778q-26 0 -44 18t-18 44t18.5 44.5t44.5 18.5q25 0 43 -18.5t18 -43.5q0 -26 -18 -44.5t-44 -18.5zM229 778q-26 0 -44 18.5t-18 44.5t18.5 44t44.5 18q25 0 43 -18t18 -44
t-18 -44.5t-44 -18.5z" />
    <glyph glyph-name="Aring" unicode="&#xc5;" horiz-adv-x="660" 
d="M662 0h-149l-65 193h-260l-73 -193h-117l283 700h120zM421 273l-96 289l-107 -289h203zM450 866q0 -46 -32 -78t-78 -32q-45 0 -77.5 32.5t-32.5 77.5q0 46 32.5 78t79.5 32q44 0 76 -32.5t32 -77.5zM390 866q0 21 -14.5 36t-36.5 15q-19 0 -33.5 -15.5t-14.5 -35.5
q0 -21 14.5 -36.5t34.5 -15.5q21 0 35.5 15.5t14.5 36.5z" />
    <glyph glyph-name="AE" unicode="&#xc6;" horiz-adv-x="859" 
d="M830 0h-416v193h-219l-105 -193h-117l403 700h412v-95h-235v-191h230v-96h-230v-223h277v-95zM414 273v320l-175 -320h175z" />
    <glyph glyph-name="Ccedilla" unicode="&#xc7;" horiz-adv-x="670" 
d="M498 -144q0 -42 -40.5 -69.5t-102.5 -27.5q-45 0 -91 15l18 45q36 -11 66 -11q25 0 41 11t16 29q0 38 -48 38q-15 0 -35 -8l-9 10l46 106q-141 20 -228 116.5t-87 238.5q0 157 110.5 260t276.5 103q123 0 212 -56l-40 -85q-75 42 -154 42q-112 0 -185.5 -72.5
t-73.5 -189.5q0 -114 71 -188.5t186 -74.5q84 0 153 36l34 -87q-86 -46 -192 -49q-5 0 -14.5 0.5t-13.5 0.5l-24 -60q12 1 25 1q38 0 60.5 -20t22.5 -54z" />
    <glyph glyph-name="Egrave" unicode="&#xc8;" horiz-adv-x="541" 
d="M505 0h-427v700h385v-95h-245v-191h240v-96h-240v-223h287v-95zM351 779l-36 -20l-252 137l77 70z" />
    <glyph glyph-name="Eacute" unicode="&#xc9;" horiz-adv-x="541" 
d="M505 0h-427v700h385v-95h-245v-191h240v-96h-240v-223h287v-95zM179 777l211 189l78 -70l-251 -137z" />
    <glyph glyph-name="Ecircumflex" unicode="&#xca;" horiz-adv-x="541" 
d="M505 0h-427v700h385v-95h-245v-191h240v-96h-240v-223h287v-95zM435 756h-60l-111 102l-110 -102h-59l136 182h68z" />
    <glyph glyph-name="Edieresis" unicode="&#xcb;" horiz-adv-x="541" 
d="M505 0h-427v700h385v-95h-245v-191h240v-96h-240v-223h287v-95zM379 778q-25 0 -43.5 18t-18.5 44t18.5 44.5t44.5 18.5q25 0 43 -18.5t18 -43.5q0 -26 -18 -44.5t-44 -18.5zM158 778q-26 0 -44 18.5t-18 44.5t18.5 44t44.5 18q25 0 43 -18t18 -44t-18 -44.5t-44 -18.5z
" />
    <glyph glyph-name="Igrave" unicode="&#xcc;" horiz-adv-x="295" 
d="M218 0h-140v700h140v-700zM236 779l-36 -20l-252 137l77 70z" />
    <glyph glyph-name="Iacute" unicode="&#xcd;" horiz-adv-x="295" 
d="M218 0h-140v700h140v-700zM61 777l211 189l78 -70l-251 -137z" />
    <glyph glyph-name="Icircumflex" unicode="&#xce;" horiz-adv-x="295" 
d="M218 0h-140v700h140v-700zM321 756h-60l-111 102l-110 -102h-59l136 182h68z" />
    <glyph glyph-name="Idieresis" unicode="&#xcf;" horiz-adv-x="295" 
d="M218 0h-140v700h140v-700zM261 778q-25 0 -43.5 18t-18.5 44t18.5 44.5t44.5 18.5q25 0 43 -18.5t18 -43.5q0 -26 -18 -44.5t-44 -18.5zM40 778q-26 0 -44 18.5t-18 44.5t18.5 44t44.5 18q25 0 43 -18t18 -44t-18 -44.5t-44 -18.5z" />
    <glyph glyph-name="Eth" unicode="&#xd0;" horiz-adv-x="748" 
d="M78 0v328h-101v72h101v300h187q87 0 129.5 -4.5t85.5 -19.5q104 -29 164 -109t60 -199q0 -97 -38.5 -175.5t-109.5 -126.5q-53 -35 -118.5 -50.5t-166.5 -15.5h-193zM218 95h57q74 0 120 11.5t79 39.5q80 71 80 219q0 151 -96 207q-56 32 -178 32h-62v-204h134v-72h-134
v-233z" />
    <glyph glyph-name="Ntilde" unicode="&#xd1;" horiz-adv-x="746" 
d="M668 0h-103l-305 407l-34 45.5t-35 48.5v-501h-113v700h107l306 -413l64 -88v501h113v-700zM439 779q-28 0 -79 24q-46 22 -63 22q-39 0 -57 -46h-47q10 42 22 65q31 58 93 58q30 0 76 -23q47 -22 65 -22q45 0 63 52h46q-6 -40 -18 -63q-33 -67 -101 -67z" />
    <glyph glyph-name="Ograve" unicode="&#xd2;" horiz-adv-x="787" 
d="M742 356q0 -158 -95.5 -263t-252.5 -105q-156 0 -252.5 104.5t-96.5 261.5t99.5 257.5t254.5 100.5q148 0 245.5 -101.5t97.5 -254.5zM595 347q0 121 -52 193.5t-150 72.5q-53 0 -94 -24t-63.5 -64t-33.5 -84t-11 -91q0 -66 18 -122.5t65.5 -98.5t118.5 -42
q93 0 147.5 69.5t54.5 190.5zM479 779l-36 -20l-252 137l77 70z" />
    <glyph glyph-name="Oacute" unicode="&#xd3;" horiz-adv-x="787" 
d="M742 356q0 -158 -95.5 -263t-252.5 -105q-156 0 -252.5 104.5t-96.5 261.5t99.5 257.5t254.5 100.5q148 0 245.5 -101.5t97.5 -254.5zM595 347q0 121 -52 193.5t-150 72.5q-53 0 -94 -24t-63.5 -64t-33.5 -84t-11 -91q0 -66 18 -122.5t65.5 -98.5t118.5 -42
q93 0 147.5 69.5t54.5 190.5zM304 777l211 189l78 -70l-251 -137z" />
    <glyph glyph-name="Ocircumflex" unicode="&#xd4;" horiz-adv-x="787" 
d="M742 356q0 -158 -95.5 -263t-252.5 -105q-156 0 -252.5 104.5t-96.5 261.5t99.5 257.5t254.5 100.5q148 0 245.5 -101.5t97.5 -254.5zM595 347q0 121 -52 193.5t-150 72.5q-53 0 -94 -24t-63.5 -64t-33.5 -84t-11 -91q0 -66 18 -122.5t65.5 -98.5t118.5 -42
q93 0 147.5 69.5t54.5 190.5zM563 756h-60l-111 102l-110 -102h-59l136 182h68z" />
    <glyph glyph-name="Otilde" unicode="&#xd5;" horiz-adv-x="787" 
d="M742 356q0 -158 -95.5 -263t-252.5 -105q-156 0 -252.5 104.5t-96.5 261.5t99.5 257.5t254.5 100.5q148 0 245.5 -101.5t97.5 -254.5zM595 347q0 121 -52 193.5t-150 72.5q-53 0 -94 -24t-63.5 -64t-33.5 -84t-11 -91q0 -66 18 -122.5t65.5 -98.5t118.5 -42
q93 0 147.5 69.5t54.5 190.5zM457 779q-28 0 -79 24q-46 22 -63 22q-39 0 -57 -46h-47q10 42 22 65q31 58 93 58q30 0 76 -23q47 -22 65 -22q45 0 63 52h46q-6 -40 -18 -63q-33 -67 -101 -67z" />
    <glyph glyph-name="Odieresis" unicode="&#xd6;" horiz-adv-x="787" 
d="M742 356q0 -158 -95.5 -263t-252.5 -105q-156 0 -252.5 104.5t-96.5 261.5t99.5 257.5t254.5 100.5q148 0 245.5 -101.5t97.5 -254.5zM595 347q0 121 -52 193.5t-150 72.5q-53 0 -94 -24t-63.5 -64t-33.5 -84t-11 -91q0 -66 18 -122.5t65.5 -98.5t118.5 -42
q93 0 147.5 69.5t54.5 190.5zM506 778q-26 0 -44 18t-18 44t18.5 44.5t44.5 18.5q25 0 43 -18.5t18 -43.5q0 -26 -18 -44.5t-44 -18.5zM285 778q-26 0 -44 18.5t-18 44.5t18.5 44t44.5 18q25 0 43 -18t18 -44t-18 -44.5t-44 -18.5z" />
    <glyph glyph-name="multiply" unicode="&#xd7;" 
d="M454 45l-149 152l-149 -151l-58 58l150 149l-151 150l58 57l150 -151l149 151l59 -58l-152 -149l152 -150z" />
    <glyph glyph-name="Oslash" unicode="&#xd8;" horiz-adv-x="787" 
d="M394 -12q-137 0 -234 86l-92 -88l-52 55l93 92q-65 97 -65 222q0 155 100 256t252 101q128 0 228 -83l93 90l54 -56l-95 -91q66 -95 66 -215q0 -159 -95.5 -264t-252.5 -105zM392 87q98 0 150.5 75.5t52.5 183.5q0 72 -28 129l-319 -322q54 -66 144 -66zM394 613
q-55 0 -96 -24.5t-63.5 -65t-33 -85.5t-10.5 -93q0 -65 26 -117l318 323q-54 62 -141 62z" />
    <glyph glyph-name="Ugrave" unicode="&#xd9;" horiz-adv-x="707" 
d="M641 700v-391q0 -79 -7.5 -118.5t-29.5 -74.5q-69 -128 -253 -128q-174 0 -247 115q-23 36 -30 78t-7 136v383h139v-365q0 -80 5.5 -118t21.5 -63q39 -65 123 -65q94 0 136 76q16 26 21 64t5 110v361h123zM442 779l-36 -20l-252 137l77 70z" />
    <glyph glyph-name="Uacute" unicode="&#xda;" horiz-adv-x="707" 
d="M641 700v-391q0 -79 -7.5 -118.5t-29.5 -74.5q-69 -128 -253 -128q-174 0 -247 115q-23 36 -30 78t-7 136v383h139v-365q0 -80 5.5 -118t21.5 -63q39 -65 123 -65q94 0 136 76q16 26 21 64t5 110v361h123zM269 777l211 189l78 -70l-251 -137z" />
    <glyph glyph-name="Ucircumflex" unicode="&#xdb;" horiz-adv-x="707" 
d="M641 700v-391q0 -79 -7.5 -118.5t-29.5 -74.5q-69 -128 -253 -128q-174 0 -247 115q-23 36 -30 78t-7 136v383h139v-365q0 -80 5.5 -118t21.5 -63q39 -65 123 -65q94 0 136 76q16 26 21 64t5 110v361h123zM528 756h-60l-111 102l-110 -102h-59l136 182h68z" />
    <glyph glyph-name="Udieresis" unicode="&#xdc;" horiz-adv-x="707" 
d="M641 700v-391q0 -79 -7.5 -118.5t-29.5 -74.5q-69 -128 -253 -128q-174 0 -247 115q-23 36 -30 78t-7 136v383h139v-365q0 -80 5.5 -118t21.5 -63q39 -65 123 -65q94 0 136 76q16 26 21 64t5 110v361h123zM472 778q-26 0 -44 18t-18 44t18.5 44.5t44.5 18.5
q25 0 43 -18.5t18 -43.5q0 -26 -18 -44.5t-44 -18.5zM251 778q-26 0 -44 18.5t-18 44.5t18.5 44t44.5 18q25 0 43 -18t18 -44t-18 -44.5t-44 -18.5z" />
    <glyph glyph-name="Yacute" unicode="&#xdd;" horiz-adv-x="564" 
d="M574 694l-230 -403v-291h-140v290l-208 396l148 24l144 -312l168 312zM198 777l211 189l78 -70l-251 -137z" />
    <glyph glyph-name="Thorn" unicode="&#xde;" horiz-adv-x="589" 
d="M218 0h-140v700h140v-124h52q134 0 201 -40q91 -55 91 -163q0 -122 -97 -184q-78 -51 -198 -51h-49v-138zM218 218h36q73 0 119 35.5t46 107.5q0 131 -164 131h-37v-274z" />
    <glyph glyph-name="germandbls" unicode="&#xdf;" horiz-adv-x="667" 
d="M624 140q0 -69 -51.5 -110.5t-131.5 -41.5q-88 0 -163 53l38 73q60 -50 107 -50q32 0 50 16t18 46q0 23 -13.5 42.5t-51.5 45.5q-68 48 -92 80t-24 70q0 8 0.5 15.5t3.5 16t4.5 13.5t6.5 15.5t7 14t9.5 17.5t9.5 17q21 32 28 51t7 43q0 40 -23 65t-61 25q-48 0 -69 -39.5
t-21 -126.5v-491h-135v508q0 69 13 109.5t55 70.5q54 45 155 45q91 0 149 -43.5t58 -111.5q0 -44 -36 -110q-28 -49 -28 -79q0 -21 14 -41.5t28.5 -32.5t42.5 -33q96 -69 96 -142z" />
    <glyph glyph-name="agrave" unicode="&#xe0;" horiz-adv-x="533" 
d="M486 0h-140q-10 29 -11 72q-31 -40 -74.5 -62t-80.5 -22q-60 0 -102.5 42.5t-42.5 104.5q0 74 67 128q46 37 146 62q41 11 88 20q-11 42 -32.5 65.5t-65.5 23.5q-60 0 -123 -54l-44 65q89 67 194 67q117 0 168 -68q19 -26 26 -60t7 -101v-130q0 -96 20 -153zM225 75
q51 0 79 43q33 41 33 102v50q-34 -7 -63 -16q-115 -36 -115 -105q0 -31 19 -52.5t47 -21.5zM353 589l-36 -20l-252 137l77 70z" />
    <glyph glyph-name="aacute" unicode="&#xe1;" horiz-adv-x="533" 
d="M486 0h-140q-10 29 -11 72q-31 -40 -74.5 -62t-80.5 -22q-60 0 -102.5 42.5t-42.5 104.5q0 74 67 128q46 37 146 62q41 11 88 20q-11 42 -32.5 65.5t-65.5 23.5q-60 0 -123 -54l-44 65q89 67 194 67q117 0 168 -68q19 -26 26 -60t7 -101v-130q0 -96 20 -153zM225 75
q51 0 79 43q33 41 33 102v50q-34 -7 -63 -16q-115 -36 -115 -105q0 -31 19 -52.5t47 -21.5zM174 587l211 189l78 -70l-251 -137z" />
    <glyph glyph-name="acircumflex" unicode="&#xe2;" horiz-adv-x="533" 
d="M486 0h-140q-10 29 -11 72q-31 -40 -74.5 -62t-80.5 -22q-60 0 -102.5 42.5t-42.5 104.5q0 74 67 128q46 37 146 62q41 11 88 20q-11 42 -32.5 65.5t-65.5 23.5q-60 0 -123 -54l-44 65q89 67 194 67q117 0 168 -68q19 -26 26 -60t7 -101v-130q0 -96 20 -153zM225 75
q51 0 79 43q33 41 33 102v50q-34 -7 -63 -16q-115 -36 -115 -105q0 -31 19 -52.5t47 -21.5zM437 561h-60l-111 102l-110 -102h-59l136 182h68z" />
    <glyph glyph-name="atilde" unicode="&#xe3;" horiz-adv-x="533" 
d="M486 0h-140q-10 29 -11 72q-31 -40 -74.5 -62t-80.5 -22q-60 0 -102.5 42.5t-42.5 104.5q0 74 67 128q46 37 146 62q41 11 88 20q-11 42 -32.5 65.5t-65.5 23.5q-60 0 -123 -54l-44 65q89 67 194 67q117 0 168 -68q19 -26 26 -60t7 -101v-130q0 -96 20 -153zM225 75
q51 0 79 43q33 41 33 102v50q-34 -7 -63 -16q-115 -36 -115 -105q0 -31 19 -52.5t47 -21.5zM329 586q-28 0 -79 24q-46 22 -63 22q-39 0 -57 -46h-47q10 42 22 65q31 58 93 58q30 0 76 -23q47 -22 65 -22q45 0 63 52h46q-6 -40 -18 -63q-33 -67 -101 -67z" />
    <glyph glyph-name="adieresis" unicode="&#xe4;" horiz-adv-x="533" 
d="M486 0h-140q-10 29 -11 72q-31 -40 -74.5 -62t-80.5 -22q-60 0 -102.5 42.5t-42.5 104.5q0 74 67 128q46 37 146 62q41 11 88 20q-11 42 -32.5 65.5t-65.5 23.5q-60 0 -123 -54l-44 65q89 67 194 67q117 0 168 -68q19 -26 26 -60t7 -101v-130q0 -96 20 -153zM225 75
q51 0 79 43q33 41 33 102v50q-34 -7 -63 -16q-115 -36 -115 -105q0 -31 19 -52.5t47 -21.5zM377 585q-25 0 -43.5 18.5t-18.5 43.5q0 26 18.5 44.5t44.5 18.5q25 0 43 -18.5t18 -43.5q0 -26 -18 -44.5t-44 -18.5zM156 585q-26 0 -44 18.5t-18 44.5t18.5 44t44.5 18
q25 0 43 -18t18 -44t-18 -44.5t-44 -18.5z" />
    <glyph glyph-name="aring" unicode="&#xe5;" horiz-adv-x="533" 
d="M486 0h-140q-10 29 -11 72q-31 -40 -74.5 -62t-80.5 -22q-60 0 -102.5 42.5t-42.5 104.5q0 74 67 128q46 37 146 62q41 11 88 20q-11 42 -32.5 65.5t-65.5 23.5q-60 0 -123 -54l-44 65q89 67 194 67q117 0 168 -68q19 -26 26 -60t7 -101v-130q0 -96 20 -153zM225 75
q51 0 79 43q33 41 33 102v50q-34 -7 -63 -16q-115 -36 -115 -105q0 -31 19 -52.5t47 -21.5zM379 671q0 -46 -32 -78t-78 -32q-45 0 -77.5 32.5t-32.5 77.5q0 46 32.5 78t79.5 32q44 0 76 -32.5t32 -77.5zM319 671q0 21 -14.5 36t-36.5 15q-19 0 -33.5 -15.5t-14.5 -35.5
q0 -21 14.5 -36.5t34.5 -15.5q21 0 35.5 15.5t14.5 36.5z" />
    <glyph glyph-name="ae" unicode="&#xe6;" horiz-adv-x="842" 
d="M754 117l40 -70q-80 -59 -195 -59q-89 0 -147 43q-44 31 -70 82q-99 -125 -202 -125q-60 0 -102.5 42.5t-42.5 104.5q0 74 67 128q49 39 146 62l88 20q-11 42 -32.5 65.5t-65.5 23.5q-60 0 -123 -54l-44 65q91 67 194 67q84 0 129 -39q13 -10 26 -27q14 17 39 33
q55 33 123 33q125 0 181 -92q38 -62 38 -147q0 -11 -3 -34h-321q1 -75 40.5 -120.5t109.5 -45.5q62 0 127 44zM682 307v17q-2 52 -27.5 87t-68.5 35q-48 0 -76.5 -35t-31.5 -104h204zM225 75q51 0 79 43q33 41 33 102v50q-45 -10 -63 -16q-115 -34 -115 -105q0 -31 19 -52.5
t47 -21.5z" />
    <glyph glyph-name="ccedilla" unicode="&#xe7;" horiz-adv-x="495" 
d="M388 -141q0 -42 -38.5 -69t-96.5 -27q-42 0 -90 14l19 45q36 -11 66 -11q55 0 55 39q0 37 -48 37q-16 0 -34 -3l-9 7l43 102q-95 15 -157.5 82.5t-62.5 172.5q0 116 81.5 190t201.5 74q90 0 157 -41l-39 -74q-46 25 -97 25q-73 0 -117 -47.5t-44 -122.5q0 -76 46.5 -125
t115.5 -49q40 0 98 26l38 -75q-72 -41 -171 -41l-24 -58q22 2 25 2q37 0 59.5 -20t22.5 -53z" />
    <glyph glyph-name="egrave" unicode="&#xe8;" horiz-adv-x="549" 
d="M463 117l40 -70q-89 -59 -199 -59q-106 0 -174 58q-95 75 -95 215q0 59 23.5 111.5t65.5 86.5q69 53 166 53q112 0 168 -74q50 -62 50 -164q0 -21 -1 -35h-331q2 -77 42 -121.5t113 -44.5q64 0 132 44zM389 307v13q0 56 -26 91t-74 35q-49 0 -79 -35.5t-32 -103.5h211z
M373 589l-36 -20l-252 137l77 70z" />
    <glyph glyph-name="eacute" unicode="&#xe9;" horiz-adv-x="549" 
d="M463 117l40 -70q-89 -59 -199 -59q-106 0 -174 58q-95 75 -95 215q0 59 23.5 111.5t65.5 86.5q69 53 166 53q112 0 168 -74q50 -62 50 -164q0 -21 -1 -35h-331q2 -77 42 -121.5t113 -44.5q64 0 132 44zM389 307v13q0 56 -26 91t-74 35q-49 0 -79 -35.5t-32 -103.5h211z
M195 587l211 189l78 -70l-251 -137z" />
    <glyph glyph-name="ecircumflex" unicode="&#xea;" horiz-adv-x="549" 
d="M463 117l40 -70q-89 -59 -199 -59q-106 0 -174 58q-95 75 -95 215q0 59 23.5 111.5t65.5 86.5q69 53 166 53q112 0 168 -74q50 -62 50 -164q0 -21 -1 -35h-331q2 -77 42 -121.5t113 -44.5q64 0 132 44zM389 307v13q0 56 -26 91t-74 35q-49 0 -79 -35.5t-32 -103.5h211z
M452 561h-60l-111 102l-110 -102h-59l136 182h68z" />
    <glyph glyph-name="edieresis" unicode="&#xeb;" horiz-adv-x="549" 
d="M463 117l40 -70q-89 -59 -199 -59q-106 0 -174 58q-95 75 -95 215q0 59 23.5 111.5t65.5 86.5q69 53 166 53q112 0 168 -74q50 -62 50 -164q0 -21 -1 -35h-331q2 -77 42 -121.5t113 -44.5q64 0 132 44zM389 307v13q0 56 -26 91t-74 35q-49 0 -79 -35.5t-32 -103.5h211z
M387 585q-25 0 -43.5 18.5t-18.5 43.5q0 26 18.5 44.5t44.5 18.5q25 0 43 -18.5t18 -43.5q0 -26 -18 -44.5t-44 -18.5zM166 585q-26 0 -44 18.5t-18 44.5t18.5 44t44.5 18q25 0 43 -18t18 -44t-18 -44.5t-44 -18.5z" />
    <glyph glyph-name="igrave" unicode="&#xec;" horiz-adv-x="281" 
d="M226 589l-36 -20l-252 137l77 70zM207 0h-134v500h134v-500z" />
    <glyph glyph-name="iacute" unicode="&#xed;" horiz-adv-x="281" 
d="M53 587l211 189l78 -70l-251 -137zM207 0h-134v500h134v-500z" />
    <glyph glyph-name="icircumflex" unicode="&#xee;" horiz-adv-x="281" 
d="M207 0h-134v500h134v-500zM310 561h-60l-111 102l-110 -102h-59l136 182h68z" />
    <glyph glyph-name="idieresis" unicode="&#xef;" horiz-adv-x="281" 
d="M253 585q-25 0 -43.5 18.5t-18.5 43.5q0 26 18.5 44.5t44.5 18.5q25 0 43 -18.5t18 -43.5q0 -26 -18 -44.5t-44 -18.5zM32 585q-26 0 -44 18.5t-18 44.5t18.5 44t44.5 18q25 0 43 -18t18 -44t-18 -44.5t-44 -18.5zM207 0h-134v500h134v-500z" />
    <glyph glyph-name="eth" unicode="&#xf0;" horiz-adv-x="600" 
d="M300 -12q-112 0 -188.5 74t-76.5 192q0 125 95 202q68 55 168 55q59 0 90 -30q-31 81 -93 129l-158 -45l-20 57l113 33q-29 17 -85 34l28 60q90 -18 170 -58l122 35l20 -58l-78 -24q75 -65 116.5 -166t41.5 -200q0 -67 -21.5 -125.5t-59.5 -93.5q-71 -71 -184 -71z
M299 57q56 0 91.5 51.5t35.5 146.5q0 87 -32 137t-94 50q-55 0 -90.5 -51.5t-35.5 -140.5t36 -141t89 -52z" />
    <glyph glyph-name="ntilde" unicode="&#xf1;" horiz-adv-x="616" 
d="M545 0h-134v285q0 66 -13 91q-24 46 -83 46q-66 0 -94 -60q-14 -34 -14 -94v-268h-134v500h134v-72q32 45 71.5 64.5t92.5 19.5q55 0 98.5 -26t60.5 -70q15 -36 15 -134v-282zM368 586q-28 0 -79 24q-46 22 -63 22q-39 0 -57 -46h-47q10 42 22 65q31 58 93 58
q30 0 76 -23q47 -22 65 -22q45 0 63 52h46q-6 -40 -18 -63q-33 -67 -101 -67z" />
    <glyph glyph-name="ograve" unicode="&#xf2;" horiz-adv-x="600" 
d="M300 -12q-111 0 -188 73t-77 193q0 115 75.5 186.5t191.5 71.5q112 0 187.5 -72.5t75.5 -185.5q0 -120 -77 -193t-188 -73zM299 57q55 0 91 51.5t36 143.5q0 90 -35 140.5t-91 50.5q-55 0 -90.5 -51.5t-35.5 -139.5q0 -90 36 -142.5t89 -52.5zM387 589l-36 -20l-252 137
l77 70z" />
    <glyph glyph-name="oacute" unicode="&#xf3;" horiz-adv-x="600" 
d="M300 -12q-111 0 -188 73t-77 193q0 115 75.5 186.5t191.5 71.5q112 0 187.5 -72.5t75.5 -185.5q0 -120 -77 -193t-188 -73zM299 57q55 0 91 51.5t36 143.5q0 90 -35 140.5t-91 50.5q-55 0 -90.5 -51.5t-35.5 -139.5q0 -90 36 -142.5t89 -52.5zM207 587l211 189l78 -70
l-251 -137z" />
    <glyph glyph-name="ocircumflex" unicode="&#xf4;" horiz-adv-x="600" 
d="M300 -12q-111 0 -188 73t-77 193q0 115 75.5 186.5t191.5 71.5q112 0 187.5 -72.5t75.5 -185.5q0 -120 -77 -193t-188 -73zM299 57q55 0 91 51.5t36 143.5q0 90 -35 140.5t-91 50.5q-55 0 -90.5 -51.5t-35.5 -139.5q0 -90 36 -142.5t89 -52.5zM464 561h-60l-111 102
l-110 -102h-59l136 182h68z" />
    <glyph glyph-name="otilde" unicode="&#xf5;" horiz-adv-x="600" 
d="M300 -12q-111 0 -188 73t-77 193q0 115 75.5 186.5t191.5 71.5q112 0 187.5 -72.5t75.5 -185.5q0 -120 -77 -193t-188 -73zM299 57q55 0 91 51.5t36 143.5q0 90 -35 140.5t-91 50.5q-55 0 -90.5 -51.5t-35.5 -139.5q0 -90 36 -142.5t89 -52.5zM361 586q-28 0 -79 24
q-46 22 -63 22q-39 0 -57 -46h-47q10 42 22 65q31 58 93 58q30 0 76 -23q47 -22 65 -22q45 0 63 52h46q-6 -40 -18 -63q-33 -67 -101 -67z" />
    <glyph glyph-name="odieresis" unicode="&#xf6;" horiz-adv-x="600" 
d="M300 -12q-111 0 -188 73t-77 193q0 115 75.5 186.5t191.5 71.5q112 0 187.5 -72.5t75.5 -185.5q0 -120 -77 -193t-188 -73zM299 57q55 0 91 51.5t36 143.5q0 90 -35 140.5t-91 50.5q-55 0 -90.5 -51.5t-35.5 -139.5q0 -90 36 -142.5t89 -52.5zM411 585q-25 0 -43.5 18.5
t-18.5 43.5q0 26 18.5 44.5t44.5 18.5q25 0 43 -18.5t18 -43.5q0 -26 -18 -44.5t-44 -18.5zM190 585q-26 0 -44 18.5t-18 44.5t18.5 44t44.5 18q25 0 43 -18t18 -44t-18 -44.5t-44 -18.5z" />
    <glyph glyph-name="divide" unicode="&#xf7;" 
d="M67 209v82h477v-82h-477zM235 69q0 29 20.5 48.5t49.5 19.5q28 0 48 -20t20 -48q0 -30 -19.5 -50t-49.5 -20q-29 0 -49 20.5t-20 49.5zM235 433q0 29 20 48.5t49 19.5t49 -20t20 -48q0 -29 -20 -49t-49 -20t-49 20t-20 49z" />
    <glyph glyph-name="oslash" unicode="&#xf8;" horiz-adv-x="600" 
d="M302 -12q-108 0 -184 70l-75 -67l-40 47l76 65q-43 72 -43 151q0 111 74 184.5t190 73.5q106 0 181 -66l76 66l40 -47l-75 -65q44 -65 44 -145q0 -121 -77 -194t-187 -73zM303 444q-58 0 -95 -50.5t-37 -139.5q0 -40 10 -71l219 200q-33 61 -97 61zM300 56
q59 0 94.5 57.5t35.5 136.5q0 36 -9 70l-220 -201q37 -63 99 -63z" />
    <glyph glyph-name="ugrave" unicode="&#xf9;" horiz-adv-x="613" 
d="M540 0h-135v72q-59 -84 -163 -84q-56 0 -98.5 25t-59.5 69q-16 37 -16 136v282h134v-285q0 -66 13 -91q22 -45 83 -45q67 0 93 59q14 31 14 93v269h135v-500zM391 589l-36 -20l-252 137l77 70z" />
    <glyph glyph-name="uacute" unicode="&#xfa;" horiz-adv-x="613" 
d="M540 0h-135v72q-59 -84 -163 -84q-56 0 -98.5 25t-59.5 69q-16 37 -16 136v282h134v-285q0 -66 13 -91q22 -45 83 -45q67 0 93 59q14 31 14 93v269h135v-500zM212 587l211 189l78 -70l-251 -137z" />
    <glyph glyph-name="ucircumflex" unicode="&#xfb;" horiz-adv-x="613" 
d="M540 0h-135v72q-59 -84 -163 -84q-56 0 -98.5 25t-59.5 69q-16 37 -16 136v282h134v-285q0 -66 13 -91q22 -45 83 -45q67 0 93 59q14 31 14 93v269h135v-500zM472 561h-60l-111 102l-110 -102h-59l136 182h68z" />
    <glyph glyph-name="udieresis" unicode="&#xfc;" horiz-adv-x="613" 
d="M540 0h-135v72q-59 -84 -163 -84q-56 0 -98.5 25t-59.5 69q-16 37 -16 136v282h134v-285q0 -66 13 -91q22 -45 83 -45q67 0 93 59q14 31 14 93v269h135v-500zM403 585q-25 0 -43.5 18.5t-18.5 43.5q0 26 18.5 44.5t44.5 18.5q25 0 43 -18.5t18 -43.5q0 -26 -18 -44.5
t-44 -18.5zM182 585q-26 0 -44 18.5t-18 44.5t18.5 44t44.5 18q25 0 43 -18t18 -44t-18 -44.5t-44 -18.5z" />
    <glyph glyph-name="yacute" unicode="&#xfd;" horiz-adv-x="517" 
d="M511 488l-243 -553q-49 -107 -89 -140q-52 -45 -153 -45h-33v89h26q42 0 68.5 14.5t49.5 49.5q26 41 62 136l-191 444l130 26l130 -350l137 350zM172 587l211 189l78 -70l-251 -137z" />
    <glyph glyph-name="thorn" unicode="&#xfe;" horiz-adv-x="633" 
d="M359 -12q-95 0 -154 87v-325h-132v984h132v-313q65 91 170 91q98 0 160.5 -69.5t62.5 -181.5q0 -115 -68 -194t-171 -79zM327 66q60 0 94.5 53t34.5 137q0 82 -35.5 130t-86.5 48q-53 0 -91.5 -47t-38.5 -140q0 -81 32.5 -131t90.5 -50z" />
    <glyph glyph-name="ydieresis" unicode="&#xff;" horiz-adv-x="517" 
d="M511 488l-243 -553q-49 -107 -89 -140q-52 -45 -153 -45h-33v89h26q42 0 68.5 14.5t49.5 49.5q26 41 62 136l-191 444l130 26l130 -350l137 350zM375 585q-25 0 -43.5 18.5t-18.5 43.5q0 26 18.5 44.5t44.5 18.5q25 0 43 -18.5t18 -43.5q0 -26 -18 -44.5t-44 -18.5z
M154 585q-26 0 -44 18.5t-18 44.5t18.5 44t44.5 18q25 0 43 -18t18 -44t-18 -44.5t-44 -18.5z" />
    <glyph glyph-name="Amacron" unicode="&#x100;" horiz-adv-x="660" 
d="M662 0h-149l-65 193h-260l-73 -193h-117l283 700h120zM421 273l-96 289l-107 -289h203zM491 797h-311v78h311v-78z" />
    <glyph glyph-name="amacron" unicode="&#x101;" horiz-adv-x="533" 
d="M486 0h-140q-10 29 -11 72q-31 -40 -74.5 -62t-80.5 -22q-60 0 -102.5 42.5t-42.5 104.5q0 74 67 128q46 37 146 62q41 11 88 20q-11 42 -32.5 65.5t-65.5 23.5q-60 0 -123 -54l-44 65q89 67 194 67q117 0 168 -68q19 -26 26 -60t7 -101v-130q0 -96 20 -153zM225 75
q51 0 79 43q33 41 33 102v50q-34 -7 -63 -16q-115 -36 -115 -105q0 -31 19 -52.5t47 -21.5zM417 604h-311v78h311v-78z" />
    <glyph glyph-name="Abreve" unicode="&#x102;" horiz-adv-x="660" 
d="M662 0h-149l-65 193h-260l-73 -193h-117l283 700h120zM421 273l-96 289l-107 -289h203zM335 761q-57 0 -99 30t-61 81q-11 30 -14 64h54q14 -44 45.5 -68.5t74.5 -24.5t75 24.5t45 68.5h55q-5 -48 -20 -78q-46 -97 -155 -97z" />
    <glyph glyph-name="abreve" unicode="&#x103;" horiz-adv-x="533" 
d="M486 0h-140q-10 29 -11 72q-31 -40 -74.5 -62t-80.5 -22q-60 0 -102.5 42.5t-42.5 104.5q0 74 67 128q46 37 146 62q41 11 88 20q-11 42 -32.5 65.5t-65.5 23.5q-60 0 -123 -54l-44 65q89 67 194 67q117 0 168 -68q19 -26 26 -60t7 -101v-130q0 -96 20 -153zM225 75
q51 0 79 43q33 41 33 102v50q-34 -7 -63 -16q-115 -36 -115 -105q0 -31 19 -52.5t47 -21.5zM260 564q-57 0 -99 30t-61 81q-11 30 -14 64h54q14 -44 45.5 -68.5t74.5 -24.5t75 24.5t45 68.5h55q-5 -48 -20 -78q-46 -97 -155 -97z" />
    <glyph glyph-name="Aogonek" unicode="&#x104;" horiz-adv-x="660" 
d="M535 -226q-53 0 -83.5 24.5t-30.5 73.5q0 78 92 128l-65 193h-260l-73 -193h-117l283 700h120l261 -700h-57q-35 0 -68.5 -34.5t-33.5 -75.5q0 -56 68 -56q31 0 61 10l18 -46q-61 -24 -115 -24zM421 273l-96 289l-107 -289h203z" />
    <glyph glyph-name="aogonek" unicode="&#x105;" horiz-adv-x="533" 
d="M388 -226q-53 0 -83.5 24.5t-30.5 73.5q0 80 97 128h-25q-10 29 -11 72q-31 -40 -74.5 -62t-80.5 -22q-60 0 -102.5 42.5t-42.5 104.5q0 74 67 128q46 37 146 62q41 11 88 20q-11 42 -32.5 65.5t-65.5 23.5q-60 0 -123 -54l-44 65q89 67 194 67q117 0 168 -68
q19 -26 26 -60t7 -101v-130q0 -96 20 -153h-16q-45 0 -79.5 -33.5t-34.5 -76.5q0 -56 68 -56q31 0 61 10l18 -46q-61 -24 -115 -24zM225 75q51 0 79 43q33 41 33 102v50q-34 -7 -63 -16q-115 -36 -115 -105q0 -31 19 -52.5t47 -21.5z" />
    <glyph glyph-name="Cacute" unicode="&#x106;" horiz-adv-x="669" 
d="M600 124l34 -87q-87 -49 -204 -49q-169 0 -277.5 101t-108.5 260q0 157 110.5 260t276.5 103q123 0 212 -56l-40 -85q-75 42 -154 42q-112 0 -185.5 -72.5t-73.5 -189.5q0 -114 71 -188.5t186 -74.5q84 0 153 36zM305 774l211 189l78 -70l-251 -137z" />
    <glyph glyph-name="cacute" unicode="&#x107;" horiz-adv-x="495" 
d="M438 104l38 -75q-71 -41 -172 -41q-111 0 -190 70.5t-79 189.5q0 116 81.5 190t201.5 74q90 0 157 -41l-39 -74q-46 25 -97 25q-73 0 -117 -47.5t-44 -122.5q0 -76 46.5 -125t115.5 -49q40 0 98 26zM202 587l211 189l78 -70l-251 -137z" />
    <glyph glyph-name="Ccircumflex" unicode="&#x108;" horiz-adv-x="669" 
d="M600 124l34 -87q-87 -49 -204 -49q-169 0 -277.5 101t-108.5 260q0 157 110.5 260t276.5 103q123 0 212 -56l-40 -85q-75 42 -154 42q-112 0 -185.5 -72.5t-73.5 -189.5q0 -114 71 -188.5t186 -74.5q84 0 153 36zM564 754h-60l-111 102l-110 -102h-59l136 182h68z" />
    <glyph glyph-name="ccircumflex" unicode="&#x109;" horiz-adv-x="495" 
d="M438 104l38 -75q-71 -41 -172 -41q-111 0 -190 70.5t-79 189.5q0 116 81.5 190t201.5 74q90 0 157 -41l-39 -74q-46 25 -97 25q-73 0 -117 -47.5t-44 -122.5q0 -76 46.5 -125t115.5 -49q40 0 98 26zM467 561h-60l-111 102l-110 -102h-59l136 182h68z" />
    <glyph glyph-name="Cdotaccent" unicode="&#x10a;" horiz-adv-x="669" 
d="M600 124l34 -87q-87 -49 -204 -49q-169 0 -277.5 101t-108.5 260q0 157 110.5 260t276.5 103q123 0 212 -56l-40 -85q-75 42 -154 42q-112 0 -185.5 -72.5t-73.5 -189.5q0 -114 71 -188.5t186 -74.5q84 0 153 36zM399 777q-26 0 -45.5 19t-19.5 45q0 28 19.5 47t46.5 19
q26 0 45 -19.5t19 -45.5q0 -27 -19 -46t-46 -19z" />
    <glyph glyph-name="cdotaccent" unicode="&#x10b;" horiz-adv-x="495" 
d="M438 104l38 -75q-71 -41 -172 -41q-111 0 -190 70.5t-79 189.5q0 116 81.5 190t201.5 74q90 0 157 -41l-39 -74q-46 25 -97 25q-73 0 -117 -47.5t-44 -122.5q0 -76 46.5 -125t115.5 -49q40 0 98 26zM306 584q-26 0 -45.5 19t-19.5 45q0 28 19.5 47t46.5 19q26 0 45 -19.5
t19 -45.5q0 -27 -19 -46t-46 -19z" />
    <glyph glyph-name="Ccaron" unicode="&#x10c;" horiz-adv-x="669" 
d="M600 124l34 -87q-87 -49 -204 -49q-169 0 -277.5 101t-108.5 260q0 157 110.5 260t276.5 103q123 0 212 -56l-40 -85q-75 42 -154 42q-112 0 -185.5 -72.5t-73.5 -189.5q0 -114 71 -188.5t186 -74.5q84 0 153 36zM564 936l-136 -182h-68l-136 182h59l110 -103l111 103h60
z" />
    <glyph glyph-name="ccaron" unicode="&#x10d;" horiz-adv-x="495" 
d="M438 104l38 -75q-71 -41 -172 -41q-111 0 -190 70.5t-79 189.5q0 116 81.5 190t201.5 74q90 0 157 -41l-39 -74q-46 25 -97 25q-73 0 -117 -47.5t-44 -122.5q0 -76 46.5 -125t115.5 -49q40 0 98 26zM465 743l-136 -182h-68l-136 182h59l110 -103l111 103h60z" />
    <glyph glyph-name="Dcaron" unicode="&#x10e;" horiz-adv-x="747" 
d="M704 368q0 -97 -38 -175.5t-110 -126.5q-53 -35 -118.5 -50.5t-166.5 -15.5h-193v700h187q99 0 161.5 -8.5t113.5 -33.5q77 -37 120.5 -112t43.5 -178zM554 365q0 151 -96 207q-58 33 -178 33h-62v-510h57q74 0 120 11.5t79 39.5q80 71 80 219zM527 936l-136 -182h-68
l-136 182h59l110 -103l111 103h60z" />
    <glyph glyph-name="dcaron" unicode="&#x10f;" horiz-adv-x="633" 
d="M559 0h-131v77q-66 -89 -168 -89q-104 0 -164.5 77.5t-60.5 184.5q0 113 66 187.5t166 74.5q104 0 161 -90v312h131v-734zM301 65q59 0 93 50.5t34 137.5q0 83 -34.5 132t-93.5 49q-56 0 -90 -48.5t-34 -132.5t35 -136t90 -52zM682 542l-49 5q7 54 7 110q0 49 -5 89
l95 -9q-5 -90 -48 -195z" />
    <glyph glyph-name="Dcroat" unicode="&#x110;" horiz-adv-x="748" 
d="M78 0v328h-101v72h101v300h187q87 0 129.5 -4.5t85.5 -19.5q104 -29 164 -109t60 -199q0 -97 -38.5 -175.5t-109.5 -126.5q-53 -35 -118.5 -50.5t-166.5 -15.5h-193zM218 95h57q74 0 120 11.5t79 39.5q80 71 80 219q0 151 -96 207q-56 32 -178 32h-62v-204h134v-72h-134
v-233z" />
    <glyph glyph-name="dcroat" unicode="&#x111;" horiz-adv-x="633" 
d="M559 0h-131v77q-66 -89 -168 -89q-104 0 -164.5 77.5t-60.5 184.5q0 113 66 187.5t166 74.5q104 0 161 -90v166h-156v69h156v77h131v-77h55v-69h-55v-588zM301 65q59 0 93 50.5t34 137.5q0 83 -34.5 132t-93.5 49q-56 0 -90 -48.5t-34 -132.5t35 -136t90 -52z" />
    <glyph glyph-name="Emacron" unicode="&#x112;" horiz-adv-x="541" 
d="M505 0h-427v700h385v-95h-245v-191h240v-96h-240v-223h287v-95zM421 797h-311v78h311v-78z" />
    <glyph glyph-name="emacron" unicode="&#x113;" horiz-adv-x="549" 
d="M463 117l40 -70q-89 -59 -199 -59q-106 0 -174 58q-95 75 -95 215q0 59 23.5 111.5t65.5 86.5q69 53 166 53q112 0 168 -74q50 -62 50 -164q0 -21 -1 -35h-331q2 -77 42 -121.5t113 -44.5q64 0 132 44zM389 307v13q0 56 -26 91t-74 35q-49 0 -79 -35.5t-32 -103.5h211z
M432 604h-311v78h311v-78z" />
    <glyph glyph-name="Ebreve" unicode="&#x114;" horiz-adv-x="541" 
d="M505 0h-427v700h385v-95h-245v-191h240v-96h-240v-223h287v-95zM266 757q-57 0 -99 30t-61 81q-11 30 -14 64h54q14 -44 45.5 -68.5t74.5 -24.5t75 24.5t45 68.5h55q-5 -48 -20 -78q-46 -97 -155 -97z" />
    <glyph glyph-name="ebreve" unicode="&#x115;" horiz-adv-x="549" 
d="M463 117l40 -70q-89 -59 -199 -59q-106 0 -174 58q-95 75 -95 215q0 59 23.5 111.5t65.5 86.5q69 53 166 53q112 0 168 -74q50 -62 50 -164q0 -21 -1 -35h-331q2 -77 42 -121.5t113 -44.5q64 0 132 44zM389 307v13q0 56 -26 91t-74 35q-49 0 -79 -35.5t-32 -103.5h211z
M285 564q-57 0 -99 30t-61 81q-11 30 -14 64h54q14 -44 45.5 -68.5t74.5 -24.5t75 24.5t45 68.5h55q-5 -48 -20 -78q-46 -97 -155 -97z" />
    <glyph glyph-name="Edotaccent" unicode="&#x116;" horiz-adv-x="541" 
d="M505 0h-427v700h385v-95h-245v-191h240v-96h-240v-223h287v-95zM271 777q-26 0 -45.5 19t-19.5 45q0 28 19.5 47t46.5 19q26 0 45 -19.5t19 -45.5q0 -27 -19 -46t-46 -19z" />
    <glyph glyph-name="edotaccent" unicode="&#x117;" horiz-adv-x="549" 
d="M463 117l40 -70q-89 -59 -199 -59q-106 0 -174 58q-95 75 -95 215q0 59 23.5 111.5t65.5 86.5q69 53 166 53q112 0 168 -74q50 -62 50 -164q0 -21 -1 -35h-331q2 -77 42 -121.5t113 -44.5q64 0 132 44zM389 307v13q0 56 -26 91t-74 35q-49 0 -79 -35.5t-32 -103.5h211z
M291 584q-26 0 -45.5 19t-19.5 45q0 28 19.5 47t46.5 19q26 0 45 -19.5t19 -45.5q0 -27 -19 -46t-46 -19z" />
    <glyph glyph-name="Eogonek" unicode="&#x118;" horiz-adv-x="541" 
d="M505 0h-75q-39 -18 -61 -48t-22 -62q0 -28 19 -42t50 -14q30 0 61 10l17 -46q-61 -24 -115 -24q-53 0 -83.5 24.5t-30.5 73.5q0 78 92 128h-279v700h385v-95h-245v-191h240v-96h-240v-223h287v-95z" />
    <glyph glyph-name="eogonek" unicode="&#x119;" horiz-adv-x="549" 
d="M344 -226q-53 0 -83.5 24.5t-30.5 73.5q0 72 75 116q-108 1 -175 58q-95 75 -95 215q0 59 23.5 111.5t65.5 86.5q69 53 166 53q112 0 168 -74q50 -62 50 -164q0 -21 -1 -35h-331q2 -77 42 -121.5t113 -44.5q64 0 132 44l40 -70q-36 -25 -109 -53q-37 -13 -59.5 -42.5
t-22.5 -61.5q0 -56 68 -56q31 0 61 10l18 -46q-61 -24 -115 -24zM389 307v13q0 56 -26 91t-74 35q-49 0 -79 -35.5t-32 -103.5h211z" />
    <glyph glyph-name="Ecaron" unicode="&#x11a;" horiz-adv-x="541" 
d="M505 0h-427v700h385v-95h-245v-191h240v-96h-240v-223h287v-95zM440 936l-136 -182h-68l-136 182h59l110 -103l111 103h60z" />
    <glyph glyph-name="ecaron" unicode="&#x11b;" horiz-adv-x="549" 
d="M463 117l40 -70q-89 -59 -199 -59q-106 0 -174 58q-95 75 -95 215q0 59 23.5 111.5t65.5 86.5q69 53 166 53q112 0 168 -74q50 -62 50 -164q0 -21 -1 -35h-331q2 -77 42 -121.5t113 -44.5q64 0 132 44zM389 307v13q0 56 -26 91t-74 35q-49 0 -79 -35.5t-32 -103.5h211z
M455 743l-136 -182h-68l-136 182h59l110 -103l111 103h60z" />
    <glyph glyph-name="Gcircumflex" unicode="&#x11c;" horiz-adv-x="736" 
d="M676 320v-290q-107 -42 -227 -42q-179 0 -291.5 102.5t-112.5 261.5q0 155 112.5 257.5t293.5 102.5q131 0 218 -50l-39 -87q-67 38 -163 38q-121 0 -198.5 -71.5t-77.5 -188.5q0 -113 68 -188.5t182 -75.5q49 0 96 19v212h139zM589 754h-60l-111 102l-110 -102h-59
l136 182h68z" />
    <glyph glyph-name="gcircumflex" unicode="&#x11d;" horiz-adv-x="624" 
d="M555 500v-415q0 -95 -15 -151q-25 -92 -93 -138t-171 -46q-105 0 -204 47l26 86q76 -46 158 -46q68 0 115 40q30 26 40 61t10 88v48q-33 -41 -71 -63.5t-95 -22.5q-104 0 -162 77.5t-58 183.5q0 114 64 188.5t163 74.5q105 0 159 -82v70h134zM296 65q61 0 93 51.5
t32 138.5q0 83 -33.5 131t-90.5 48q-56 0 -88.5 -51.5t-32.5 -130.5q0 -82 34.5 -134.5t85.5 -52.5zM483 561h-60l-111 102l-110 -102h-59l136 182h68z" />
    <glyph glyph-name="Gbreve" unicode="&#x11e;" horiz-adv-x="736" 
d="M676 320v-290q-107 -42 -227 -42q-179 0 -291.5 102.5t-112.5 261.5q0 155 112.5 257.5t293.5 102.5q131 0 218 -50l-39 -87q-67 38 -163 38q-121 0 -198.5 -71.5t-77.5 -188.5q0 -113 68 -188.5t182 -75.5q49 0 96 19v212h139zM413 757q-57 0 -99 30t-61 81
q-11 30 -14 64h54q14 -44 45.5 -68.5t74.5 -24.5t75 24.5t45 68.5h55q-5 -48 -20 -78q-46 -97 -155 -97z" />
    <glyph glyph-name="gbreve" unicode="&#x11f;" horiz-adv-x="624" 
d="M555 500v-415q0 -95 -15 -151q-25 -92 -93 -138t-171 -46q-105 0 -204 47l26 86q76 -46 158 -46q68 0 115 40q30 26 40 61t10 88v48q-33 -41 -71 -63.5t-95 -22.5q-104 0 -162 77.5t-58 183.5q0 114 64 188.5t163 74.5q105 0 159 -82v70h134zM296 65q61 0 93 51.5
t32 138.5q0 83 -33.5 131t-90.5 48q-56 0 -88.5 -51.5t-32.5 -130.5q0 -82 34.5 -134.5t85.5 -52.5zM309 564q-57 0 -99 30t-61 81q-11 30 -14 64h54q14 -44 45.5 -68.5t74.5 -24.5t75 24.5t45 68.5h55q-5 -48 -20 -78q-46 -97 -155 -97z" />
    <glyph glyph-name="Gdotaccent" unicode="&#x120;" horiz-adv-x="736" 
d="M676 320v-290q-107 -42 -227 -42q-179 0 -291.5 102.5t-112.5 261.5q0 155 112.5 257.5t293.5 102.5q131 0 218 -50l-39 -87q-67 38 -163 38q-121 0 -198.5 -71.5t-77.5 -188.5q0 -113 68 -188.5t182 -75.5q49 0 96 19v212h139zM432 777q-26 0 -45.5 19t-19.5 45
q0 28 19.5 47t46.5 19q26 0 45 -19.5t19 -45.5q0 -27 -19 -46t-46 -19z" />
    <glyph glyph-name="gdotaccent" unicode="&#x121;" horiz-adv-x="624" 
d="M555 500v-415q0 -95 -15 -151q-25 -92 -93 -138t-171 -46q-105 0 -204 47l26 86q76 -46 158 -46q68 0 115 40q30 26 40 61t10 88v48q-33 -41 -71 -63.5t-95 -22.5q-104 0 -162 77.5t-58 183.5q0 114 64 188.5t163 74.5q105 0 159 -82v70h134zM296 65q61 0 93 51.5
t32 138.5q0 83 -33.5 131t-90.5 48q-56 0 -88.5 -51.5t-32.5 -130.5q0 -82 34.5 -134.5t85.5 -52.5zM314 584q-26 0 -45.5 19t-19.5 45q0 28 19.5 47t46.5 19q26 0 45 -19.5t19 -45.5q0 -27 -19 -46t-46 -19z" />
    <glyph glyph-name="Gcommaaccent" unicode="&#x122;" horiz-adv-x="736" 
d="M676 320v-290q-107 -42 -227 -42q-179 0 -291.5 102.5t-112.5 261.5q0 155 112.5 257.5t293.5 102.5q131 0 218 -50l-39 -87q-67 38 -163 38q-121 0 -198.5 -71.5t-77.5 -188.5q0 -113 68 -188.5t182 -75.5q49 0 96 19v212h139zM396 -250l-45 22l32 82q0 6 -9 21t-9 30
q0 20 17.5 36.5t43.5 16.5q30 0 47 -17.5t17 -40.5q0 -30 -33 -73z" />
    <glyph glyph-name="gcommaaccent" unicode="&#x123;" horiz-adv-x="624" 
d="M555 500v-415q0 -95 -15 -151q-25 -92 -93 -138t-171 -46q-105 0 -204 47l26 86q76 -46 158 -46q68 0 115 40q30 26 40 61t10 88v48q-33 -41 -71 -63.5t-95 -22.5q-104 0 -162 77.5t-58 183.5q0 114 64 188.5t163 74.5q105 0 159 -82v70h134zM296 65q61 0 93 51.5
t32 138.5q0 83 -33.5 131t-90.5 48q-56 0 -88.5 -51.5t-32.5 -130.5q0 -82 34.5 -134.5t85.5 -52.5zM356 826l42 -27l-43 -91q0 -6 9.5 -22.5t9.5 -32.5q0 -23 -18 -40t-43 -17q-30 0 -47 17.5t-17 40.5q0 33 32 74z" />
    <glyph glyph-name="Hcircumflex" unicode="&#x124;" horiz-adv-x="746" 
d="M668 0h-139v338h-311v-338h-140v700h140v-266h311v266h139v-700zM544 754h-60l-111 102l-110 -102h-59l136 182h68z" />
    <glyph glyph-name="hcircumflex" unicode="&#x125;" horiz-adv-x="616" 
d="M545 0h-134v285q0 66 -13 91q-24 46 -83 46q-66 0 -94 -60q-14 -34 -14 -94v-268h-134v734h134v-302q33 43 71.5 61.5t91.5 18.5q56 0 99 -26t61 -70q15 -33 15 -134v-282zM307 776h-60l-111 102l-110 -102h-59l136 182h68z" />
    <glyph glyph-name="Hbar" unicode="&#x126;" horiz-adv-x="746" 
d="M668 0h-139v338h-311v-338h-140v528h-64v80h64v92h140v-92h311v92h139v-92h64v-80h-64v-528zM218 434h311v94h-311v-94z" />
    <glyph glyph-name="hbar" unicode="&#x127;" horiz-adv-x="616" 
d="M545 0h-134v285q0 66 -13 91q-24 46 -83 46q-66 0 -94 -60q-14 -34 -14 -94v-268h-134v588h-54v69h54v77h134v-77h154v-69h-154v-156q33 43 71.5 61.5t91.5 18.5q56 0 99 -26t61 -70q15 -33 15 -134v-282z" />
    <glyph glyph-name="Itilde" unicode="&#x128;" horiz-adv-x="295" 
d="M218 0h-140v700h140v-700zM210 779q-28 0 -79 24q-46 22 -63 22q-39 0 -57 -46h-47q10 42 22 65q31 58 93 58q30 0 76 -23q47 -22 65 -22q45 0 63 52h46q-6 -40 -18 -63q-33 -67 -101 -67z" />
    <glyph glyph-name="itilde" unicode="&#x129;" horiz-adv-x="281" 
d="M203 586q-28 0 -79 24q-46 22 -63 22q-39 0 -57 -46h-47q10 42 22 65q31 58 93 58q30 0 76 -23q47 -22 65 -22q45 0 63 52h46q-6 -40 -18 -63q-33 -67 -101 -67zM207 0h-134v500h134v-500z" />
    <glyph glyph-name="Imacron" unicode="&#x12a;" horiz-adv-x="295" 
d="M218 0h-140v700h140v-700zM303 797h-311v78h311v-78z" />
    <glyph glyph-name="imacron" unicode="&#x12b;" horiz-adv-x="281" 
d="M296 604h-311v78h311v-78zM207 0h-134v500h134v-500z" />
    <glyph glyph-name="Ibreve" unicode="&#x12c;" horiz-adv-x="295" 
d="M218 0h-140v700h140v-700zM147 757q-57 0 -99 30t-61 81q-11 30 -14 64h54q14 -44 45.5 -68.5t74.5 -24.5t75 24.5t45 68.5h55q-5 -48 -20 -78q-46 -97 -155 -97z" />
    <glyph glyph-name="ibreve" unicode="&#x12d;" horiz-adv-x="281" 
d="M139 564q-57 0 -99 30t-61 81q-11 30 -14 64h54q14 -44 45.5 -68.5t74.5 -24.5t75 24.5t45 68.5h55q-5 -48 -20 -78q-46 -97 -155 -97zM207 0h-134v500h134v-500z" />
    <glyph glyph-name="Iogonek" unicode="&#x12e;" horiz-adv-x="295" 
d="M150 -226q-53 0 -83.5 24.5t-30.5 73.5q0 78 92 128h-50v700h140v-700q-42 -8 -71 -40.5t-29 -69.5q0 -28 19 -42t50 -14q30 0 61 10l17 -46q-61 -24 -115 -24z" />
    <glyph glyph-name="iogonek" unicode="&#x12f;" horiz-adv-x="281" 
d="M143 -226q-53 0 -83.5 24.5t-30.5 73.5q0 78 92 128h-48v500h134v-500q-38 -8 -67 -40.5t-29 -69.5q0 -56 69 -56q30 0 61 10l17 -46q-61 -24 -115 -24zM141 578q-31 0 -53.5 21.5t-22.5 51.5q0 34 21.5 56t55.5 22q31 0 52.5 -21.5t21.5 -53.5t-21.5 -54t-53.5 -22z" />
    <glyph glyph-name="Idotaccent" unicode="&#x130;" horiz-adv-x="295" 
d="M218 0h-140v700h140v-700zM147 777q-26 0 -45.5 19t-19.5 45q0 28 19.5 47t46.5 19q26 0 45 -19.5t19 -45.5q0 -27 -19 -46t-46 -19z" />
    <glyph glyph-name="dotlessi" unicode="&#x131;" horiz-adv-x="281" 
d="M207 0h-134v500h134v-500z" />
    <glyph glyph-name="Jcircumflex" unicode="&#x134;" horiz-adv-x="300" 
d="M222 700v-618q0 -106 -17 -153q-20 -56 -72.5 -87.5t-121.5 -31.5v82q48 16 59.5 48.5t11.5 146.5v613h140zM322 758h-60l-111 102l-110 -102h-59l136 182h68z" />
    <glyph glyph-name="jcircumflex" unicode="&#x135;" horiz-adv-x="281" 
d="M207 500v-514q0 -135 -46 -185.5t-156 -50.5v49q47 9 59 50q9 27 9 144v507h134zM312 561h-60l-111 102l-110 -102h-59l136 182h68z" />
    <glyph glyph-name="Kcommaaccent" unicode="&#x136;" horiz-adv-x="635" 
d="M631 27l-142 -38l-271 365v-354h-140v700h140v-304l255 313l112 -42l-238 -281zM303 -250l-45 22l32 82q0 6 -9 21t-9 30q0 20 17.5 36.5t43.5 16.5q30 0 47 -17.5t17 -40.5q0 -30 -33 -73z" />
    <glyph glyph-name="kcommaaccent" unicode="&#x137;" horiz-adv-x="533" 
d="M529 33l-126 -43l-196 275v-265h-134v734h134v-438h8l180 212l103 -42l-169 -183zM255 -250l-45 22l32 82q0 6 -9 21t-9 30q0 20 17.5 36.5t43.5 16.5q30 0 47 -17.5t17 -40.5q0 -30 -33 -73z" />
    <glyph glyph-name="kgreenlandic" unicode="&#x138;" horiz-adv-x="533" 
d="M529 33l-126 -43l-196 275v-265h-134v500h134v-204h8l180 212l103 -42l-169 -183z" />
    <glyph glyph-name="Lacute" unicode="&#x139;" horiz-adv-x="505" 
d="M502 0h-424v700h140v-605h284v-95zM61 774l211 189l78 -70l-251 -137z" />
    <glyph glyph-name="lacute" unicode="&#x13a;" horiz-adv-x="281" 
d="M207 0h-134v734h134v-734zM53 798l211 189l78 -70l-251 -137z" />
    <glyph glyph-name="Lcommaaccent" unicode="&#x13b;" horiz-adv-x="505" 
d="M502 0h-424v700h140v-605h284v-95zM257 -250l-45 22l32 82q0 6 -9 21t-9 30q0 20 17.5 36.5t43.5 16.5q30 0 47 -17.5t17 -40.5q0 -30 -33 -73z" />
    <glyph glyph-name="lcommaaccent" unicode="&#x13c;" horiz-adv-x="281" 
d="M207 0h-134v734h134v-734zM109 -250l-45 22l32 82q0 6 -9 21t-9 30q0 20 17.5 36.5t43.5 16.5q30 0 47 -17.5t17 -40.5q0 -30 -33 -73z" />
    <glyph glyph-name="Lcaron" unicode="&#x13d;" horiz-adv-x="505" 
d="M502 0h-424v700h140v-605h284v-95zM333 542l-49 5q7 54 7 110q0 49 -5 89l95 -9q-5 -90 -48 -195z" />
    <glyph glyph-name="lcaron" unicode="&#x13e;" horiz-adv-x="281" 
d="M207 0h-134v734h134v-734zM331 542l-49 5q7 54 7 110q0 49 -5 89l95 -9q-5 -90 -48 -195z" />
    <glyph glyph-name="Ldot" unicode="&#x13f;" horiz-adv-x="505" 
d="M502 0h-424v700h140v-605h284v-95zM395 317q-26 0 -45.5 19t-19.5 45q0 28 19.5 47t46.5 19q26 0 45 -19.5t19 -45.5q0 -27 -19 -46t-46 -19z" />
    <glyph glyph-name="ldot" unicode="&#x140;" horiz-adv-x="393" 
d="M207 0h-134v734h134v-734zM337 319q-26 0 -45.5 19t-19.5 45q0 28 19.5 47t46.5 19q26 0 45 -19.5t19 -45.5q0 -27 -19 -46t-46 -19z" />
    <glyph glyph-name="Lslash" unicode="&#x141;" horiz-adv-x="505" 
d="M502 0h-424v283l-92 -54l-34 59l126 75v337h140v-258l105 62l35 -60l-140 -83v-266h284v-95z" />
    <glyph glyph-name="lslash" unicode="&#x142;" horiz-adv-x="296" 
d="M331 460l-116 -78v-382h-134v301l-77 -52l-36 56l113 76v353h134v-272l79 53z" />
    <glyph glyph-name="Nacute" unicode="&#x143;" horiz-adv-x="746" 
d="M668 0h-103l-305 407l-34 45.5t-35 48.5v-501h-113v700h107l306 -413l64 -88v501h113v-700zM286 774l211 189l78 -70l-251 -137z" />
    <glyph glyph-name="nacute" unicode="&#x144;" horiz-adv-x="616" 
d="M545 0h-134v285q0 66 -13 91q-24 46 -83 46q-66 0 -94 -60q-14 -34 -14 -94v-268h-134v500h134v-72q32 45 71.5 64.5t92.5 19.5q55 0 98.5 -26t60.5 -70q15 -36 15 -134v-282zM219 587l211 189l78 -70l-251 -137z" />
    <glyph glyph-name="Ncommaaccent" unicode="&#x145;" horiz-adv-x="746" 
d="M668 0h-103l-305 407l-34 45.5t-35 48.5v-501h-113v700h107l306 -413l64 -88v501h113v-700zM346 -250l-45 22l32 82q0 6 -9 21t-9 30q0 20 17.5 36.5t43.5 16.5q30 0 47 -17.5t17 -40.5q0 -30 -33 -73z" />
    <glyph glyph-name="ncommaaccent" unicode="&#x146;" horiz-adv-x="616" 
d="M545 0h-134v285q0 66 -13 91q-24 46 -83 46q-66 0 -94 -60q-14 -34 -14 -94v-268h-134v500h134v-72q32 45 71.5 64.5t92.5 19.5q55 0 98.5 -26t60.5 -70q15 -36 15 -134v-282zM280 -250l-45 22l32 82q0 6 -9 21t-9 30q0 20 17.5 36.5t43.5 16.5q30 0 47 -17.5t17 -40.5
q0 -30 -33 -73z" />
    <glyph glyph-name="Ncaron" unicode="&#x147;" horiz-adv-x="746" 
d="M668 0h-103l-305 407l-34 45.5t-35 48.5v-501h-113v700h107l306 -413l64 -88v501h113v-700zM548 936l-136 -182h-68l-136 182h59l110 -103l111 103h60z" />
    <glyph glyph-name="ncaron" unicode="&#x148;" horiz-adv-x="616" 
d="M545 0h-134v285q0 66 -13 91q-24 46 -83 46q-66 0 -94 -60q-14 -34 -14 -94v-268h-134v500h134v-72q32 45 71.5 64.5t92.5 19.5q55 0 98.5 -26t60.5 -70q15 -36 15 -134v-282zM482 743l-136 -182h-68l-136 182h59l110 -103l111 103h60z" />
    <glyph glyph-name="Eng" unicode="&#x14a;" horiz-adv-x="746" 
d="M668 700v-717q0 -70 -13.5 -117t-40 -71.5t-59.5 -34.5t-79 -10v48q27 6 43.5 20.5t23.5 40t9 49t2 64.5v40l-294 395l-34 45.5t-35 48.5v-501h-113v700h107l306 -413l64 -88v501h113z" />
    <glyph glyph-name="eng" unicode="&#x14b;" horiz-adv-x="616" 
d="M343 -250v49q47 9 59 50q9 27 9 144v292q0 66 -13 91q-24 46 -83 46q-66 0 -94 -60q-14 -34 -14 -94v-268h-134v500h134v-72q32 45 71.5 64.5t92.5 19.5q55 0 98.5 -26t60.5 -70q15 -36 15 -134v-296q0 -135 -46 -185.5t-156 -50.5z" />
    <glyph glyph-name="Omacron" unicode="&#x14c;" horiz-adv-x="787" 
d="M742 356q0 -158 -95.5 -263t-252.5 -105q-156 0 -252.5 104.5t-96.5 261.5t99.5 257.5t254.5 100.5q148 0 245.5 -101.5t97.5 -254.5zM595 347q0 121 -52 193.5t-150 72.5q-53 0 -94 -24t-63.5 -64t-33.5 -84t-11 -91q0 -66 18 -122.5t65.5 -98.5t118.5 -42
q93 0 147.5 69.5t54.5 190.5zM547 797h-311v78h311v-78z" />
    <glyph glyph-name="omacron" unicode="&#x14d;" horiz-adv-x="600" 
d="M300 -12q-111 0 -188 73t-77 193q0 115 75.5 186.5t191.5 71.5q112 0 187.5 -72.5t75.5 -185.5q0 -120 -77 -193t-188 -73zM299 57q55 0 91 51.5t36 143.5q0 90 -35 140.5t-91 50.5q-55 0 -90.5 -51.5t-35.5 -139.5q0 -90 36 -142.5t89 -52.5zM454 604h-311v78h311v-78z
" />
    <glyph glyph-name="Obreve" unicode="&#x14e;" horiz-adv-x="787" 
d="M742 356q0 -158 -95.5 -263t-252.5 -105q-156 0 -252.5 104.5t-96.5 261.5t99.5 257.5t254.5 100.5q148 0 245.5 -101.5t97.5 -254.5zM595 347q0 121 -52 193.5t-150 72.5q-53 0 -94 -24t-63.5 -64t-33.5 -84t-11 -91q0 -66 18 -122.5t65.5 -98.5t118.5 -42
q93 0 147.5 69.5t54.5 190.5zM393 757q-57 0 -99 30t-61 81q-11 30 -14 64h54q14 -44 45.5 -68.5t74.5 -24.5t75 24.5t45 68.5h55q-5 -48 -20 -78q-46 -97 -155 -97z" />
    <glyph glyph-name="obreve" unicode="&#x14f;" horiz-adv-x="600" 
d="M300 -12q-111 0 -188 73t-77 193q0 115 75.5 186.5t191.5 71.5q112 0 187.5 -72.5t75.5 -185.5q0 -120 -77 -193t-188 -73zM299 57q55 0 91 51.5t36 143.5q0 90 -35 140.5t-91 50.5q-55 0 -90.5 -51.5t-35.5 -139.5q0 -90 36 -142.5t89 -52.5zM295 564q-57 0 -99 30
t-61 81q-11 30 -14 64h54q14 -44 45.5 -68.5t74.5 -24.5t75 24.5t45 68.5h55q-5 -48 -20 -78q-46 -97 -155 -97z" />
    <glyph glyph-name="Ohungarumlaut" unicode="&#x150;" horiz-adv-x="787" 
d="M742 356q0 -158 -95.5 -263t-252.5 -105q-156 0 -252.5 104.5t-96.5 261.5t99.5 257.5t254.5 100.5q148 0 245.5 -101.5t97.5 -254.5zM595 347q0 121 -52 193.5t-150 72.5q-53 0 -94 -24t-63.5 -64t-33.5 -84t-11 -91q0 -66 18 -122.5t65.5 -98.5t118.5 -42
q93 0 147.5 69.5t54.5 190.5zM663 894l-206 -143h-68l198 202zM456 894l-206 -143h-68l198 202z" />
    <glyph glyph-name="ohungarumlaut" unicode="&#x151;" horiz-adv-x="600" 
d="M300 -12q-111 0 -188 73t-77 193q0 115 75.5 186.5t191.5 71.5q112 0 187.5 -72.5t75.5 -185.5q0 -120 -77 -193t-188 -73zM299 57q55 0 91 51.5t36 143.5q0 90 -35 140.5t-91 50.5q-55 0 -90.5 -51.5t-35.5 -139.5q0 -90 36 -142.5t89 -52.5zM563 701l-206 -143h-68
l198 202zM356 701l-206 -143h-68l198 202z" />
    <glyph glyph-name="OE" unicode="&#x152;" horiz-adv-x="986" 
d="M957 0h-420q-92 -12 -138 -12q-160 0 -255 102.5t-95 263.5q0 156 98.5 257t250.5 101q40 0 142 -12h374v-96h-235v-191h230v-95h-230v-223h278v-95zM539 114v477q-59 23 -127 23q-105 0 -160.5 -72.5t-55.5 -188.5q0 -122 54 -194.5t159 -72.5q73 0 130 28z" />
    <glyph glyph-name="oe" unicode="&#x153;" horiz-adv-x="937" 
d="M848 117l41 -70q-83 -59 -195 -59q-86 0 -141 42q-32 22 -55 59q-77 -101 -199 -101q-108 0 -186 70t-78 193q0 120 78.5 190.5t189.5 70.5t194 -83q21 26 49 47q57 36 135 36q94 0 150 -56q64 -64 64 -178q0 -17 -1 -39h-323q4 -78 42 -122t109 -44q67 0 126 44zM304 57
q54 0 90.5 51.5t36.5 142.5q0 90 -35.5 141t-91.5 51q-55 0 -90.5 -51t-35.5 -140q0 -91 36 -143t90 -52zM777 307v19q-2 51 -28 85t-68 34q-49 0 -77 -34.5t-30 -103.5h203z" />
    <glyph glyph-name="Racute" unicode="&#x154;" horiz-adv-x="612" 
d="M596 13l-143 -25l-142 299h-93v-287h-140v700h199q139 0 199 -42q75 -51 75 -153q0 -63 -33.5 -112.5t-90.5 -79.5zM417 496q0 58 -37 87q-35 29 -114 29h-48v-242h61q73 0 107 37q31 38 31 89zM205 774l211 189l78 -70l-251 -137z" />
    <glyph glyph-name="racute" unicode="&#x155;" horiz-adv-x="404" 
d="M416 470l-43 -97q-31 20 -65 20q-63 0 -88 -74q-13 -39 -13 -115v-204h-134v500h134v-98q2 5 11 26q37 84 103 84q46 0 95 -42zM146 587l211 189l78 -70l-251 -137z" />
    <glyph glyph-name="Rcommaaccent" unicode="&#x156;" horiz-adv-x="612" 
d="M596 13l-143 -25l-142 299h-93v-287h-140v700h199q139 0 199 -42q75 -51 75 -153q0 -63 -33.5 -112.5t-90.5 -79.5zM417 496q0 58 -37 87q-35 29 -114 29h-48v-242h61q73 0 107 37q31 38 31 89zM287 -250l-45 22l32 82q0 6 -9 21t-9 30q0 20 17.5 36.5t43.5 16.5
q30 0 47 -17.5t17 -40.5q0 -30 -33 -73z" />
    <glyph glyph-name="rcommaaccent" unicode="&#x157;" horiz-adv-x="404" 
d="M416 470l-43 -97q-31 20 -65 20q-63 0 -88 -74q-13 -39 -13 -115v-204h-134v500h134v-98q2 5 11 26q37 84 103 84q46 0 95 -42zM110 -250l-45 22l32 82q0 6 -9 21t-9 30q0 20 17.5 36.5t43.5 16.5q30 0 47 -17.5t17 -40.5q0 -30 -33 -73z" />
    <glyph glyph-name="Rcaron" unicode="&#x158;" horiz-adv-x="612" 
d="M596 13l-143 -25l-142 299h-93v-287h-140v700h199q139 0 199 -42q75 -51 75 -153q0 -63 -33.5 -112.5t-90.5 -79.5zM417 496q0 58 -37 87q-35 29 -114 29h-48v-242h61q73 0 107 37q31 38 31 89zM469 936l-136 -182h-68l-136 182h59l110 -103l111 103h60z" />
    <glyph glyph-name="rcaron" unicode="&#x159;" horiz-adv-x="404" 
d="M416 470l-43 -97q-31 20 -65 20q-63 0 -88 -74q-13 -39 -13 -115v-204h-134v500h134v-98q2 5 11 26q37 84 103 84q46 0 95 -42zM408 743l-136 -182h-68l-136 182h59l110 -103l111 103h60z" />
    <glyph glyph-name="Sacute" unicode="&#x15a;" horiz-adv-x="529" 
d="M479 189q0 -89 -67.5 -145t-172.5 -56q-113 0 -201 63l48 83q66 -54 137 -54q49 0 82.5 29.5t33.5 68.5q0 44 -36 80q-19 20 -86 73t-90 76q-59 62 -59 129q0 78 62 127t160 49q96 0 170 -54l-45 -75q-52 37 -110 37q-45 0 -69.5 -23t-24.5 -55t35 -67q19 -19 85 -71.5
t86 -72.5q62 -62 62 -142zM176 774l211 189l78 -70l-251 -137z" />
    <glyph glyph-name="sacute" unicode="&#x15b;" horiz-adv-x="419" 
d="M195 -12q-95 0 -163 55l38 72q56 -51 107 -51q35 0 54 17.5t19 45.5q0 24 -17.5 44.5t-66.5 56.5q-36 26 -55.5 43t-36.5 45.5t-17 60.5q0 61 47 98t123 37q81 0 145 -40l-36 -64q-39 28 -81 28q-31 0 -48.5 -16t-17.5 -36q0 -21 16 -39.5t56 -48.5q73 -53 97 -85.5
t24 -77.5q0 -65 -53 -105t-134 -40zM113 587l211 189l78 -70l-251 -137z" />
    <glyph glyph-name="Scircumflex" unicode="&#x15c;" horiz-adv-x="529" 
d="M479 189q0 -89 -67.5 -145t-172.5 -56q-113 0 -201 63l48 83q66 -54 137 -54q49 0 82.5 29.5t33.5 68.5q0 44 -36 80q-19 20 -86 73t-90 76q-59 62 -59 129q0 78 62 127t160 49q96 0 170 -54l-45 -75q-52 37 -110 37q-45 0 -69.5 -23t-24.5 -55t35 -67q19 -19 85 -71.5
t86 -72.5q62 -62 62 -142zM435 754h-60l-111 102l-110 -102h-59l136 182h68z" />
    <glyph glyph-name="scircumflex" unicode="&#x15d;" horiz-adv-x="419" 
d="M195 -12q-95 0 -163 55l38 72q56 -51 107 -51q35 0 54 17.5t19 45.5q0 24 -17.5 44.5t-66.5 56.5q-36 26 -55.5 43t-36.5 45.5t-17 60.5q0 61 47 98t123 37q81 0 145 -40l-36 -64q-39 28 -81 28q-31 0 -48.5 -16t-17.5 -36q0 -21 16 -39.5t56 -48.5q73 -53 97 -85.5
t24 -77.5q0 -65 -53 -105t-134 -40zM376 561h-60l-111 102l-110 -102h-59l136 182h68z" />
    <glyph glyph-name="Scedilla" unicode="&#x15e;" horiz-adv-x="529" 
d="M222 -237q-42 0 -89 14l18 45q38 -11 66 -11q55 0 55 39q0 37 -48 37q-17 0 -33 -3l-9 7l41 97q-105 4 -185 63l48 83q66 -54 137 -54q49 0 82.5 29.5t33.5 68.5q0 44 -36 80q-19 20 -86 73.5t-90 76.5q-58 61 -58 129q0 77 62.5 126t158.5 49q97 0 170 -53l-45 -76
q-55 37 -111 37q-45 0 -69 -22.5t-24 -54.5q0 -34 32 -64q19 -21 87 -75t87 -73q62 -62 62 -142q0 -81 -57 -135.5t-148 -63.5l-24 -60q22 2 26 2q36 0 58.5 -20t22.5 -53q0 -42 -38.5 -69t-96.5 -27z" />
    <glyph glyph-name="scedilla" unicode="&#x15f;" horiz-adv-x="419" 
d="M172 -237q-41 0 -89 14l18 45q38 -11 67 -11q55 0 55 39q0 37 -49 37q-15 0 -33 -3l-9 7l41 98q-82 6 -141 54l37 72q58 -51 108 -51q35 0 54 17.5t19 45.5q0 24 -17.5 44.5t-66.5 56.5q-36 26 -55.5 43t-36.5 45.5t-17 60.5q0 61 47 98t123 37q81 0 145 -40l-36 -64
q-39 28 -81 28q-31 0 -48.5 -16t-17.5 -36q0 -21 16 -39.5t56 -48.5q73 -53 97 -85.5t24 -77.5q0 -59 -43.5 -97.5t-113.5 -45.5l-24 -60q22 2 25 2q36 0 58.5 -20t22.5 -53q0 -42 -38 -69t-97 -27z" />
    <glyph glyph-name="Scaron" unicode="&#x160;" horiz-adv-x="529" 
d="M479 189q0 -89 -67.5 -145t-172.5 -56q-113 0 -201 63l48 83q66 -54 137 -54q49 0 82.5 29.5t33.5 68.5q0 44 -36 80q-19 20 -86 73t-90 76q-59 62 -59 129q0 78 62 127t160 49q96 0 170 -54l-45 -75q-52 37 -110 37q-45 0 -69.5 -23t-24.5 -55t35 -67q19 -19 85 -71.5
t86 -72.5q62 -62 62 -142zM440 938l-136 -182h-68l-136 182h59l110 -103l111 103h60z" />
    <glyph glyph-name="scaron" unicode="&#x161;" horiz-adv-x="419" 
d="M195 -12q-95 0 -163 55l38 72q56 -51 107 -51q35 0 54 17.5t19 45.5q0 24 -17.5 44.5t-66.5 56.5q-36 26 -55.5 43t-36.5 45.5t-17 60.5q0 61 47 98t123 37q81 0 145 -40l-36 -64q-39 28 -81 28q-31 0 -48.5 -16t-17.5 -36q0 -21 16 -39.5t56 -48.5q73 -53 97 -85.5
t24 -77.5q0 -65 -53 -105t-134 -40zM385 743l-136 -182h-68l-136 182h59l110 -103l111 103h60z" />
    <glyph glyph-name="uni0162" unicode="&#x162;" horiz-adv-x="576" 
d="M576 605h-219v-605h-140v605h-217v95h576v-95zM256 -250l-45 22l32 82q0 6 -9 21t-9 30q0 20 17.5 36.5t43.5 16.5q30 0 47 -17.5t17 -40.5q0 -30 -33 -73z" />
    <glyph glyph-name="uni0163" unicode="&#x163;" horiz-adv-x="381" 
d="M351 83l22 -64q-70 -31 -134 -31q-92 0 -129 57q-14 23 -19 49t-5 78v258h-70v70h70v121l134 29v-150h131v-70h-131v-226q0 -71 15.5 -104.5t54.5 -33.5q28 0 61 17zM181 -250l-45 22l32 82q0 6 -9 21t-9 30q0 20 17.5 36.5t43.5 16.5q30 0 47 -17.5t17 -40.5
q0 -30 -33 -73z" />
    <glyph glyph-name="Tcaron" unicode="&#x164;" horiz-adv-x="576" 
d="M576 605h-219v-605h-140v605h-217v95h576v-95zM458 936l-136 -182h-68l-136 182h59l110 -103l111 103h60z" />
    <glyph glyph-name="tcaron" unicode="&#x165;" horiz-adv-x="381" 
d="M351 83l22 -64q-70 -31 -134 -31q-92 0 -129 57q-14 23 -19 49t-5 78v258h-70v70h70v121l134 29v-150h131v-70h-131v-226q0 -71 15.5 -104.5t54.5 -33.5q28 0 61 17zM328 547l-49 5q7 54 7 110q0 49 -5 89l95 -9q-5 -90 -48 -195z" />
    <glyph glyph-name="Tbar" unicode="&#x166;" horiz-adv-x="576" 
d="M576 605h-219v-233h111v-80h-111v-292h-140v292h-111v80h111v233h-217v95h576v-95z" />
    <glyph glyph-name="tbar" unicode="&#x167;" horiz-adv-x="381" 
d="M351 83l22 -64q-70 -31 -134 -31q-81 0 -117 41t-36 143v51h-55v69h55v138h-70v70h70v121l134 29v-150h131v-70h-131v-138h116v-69h-116q0 -78 13.5 -117.5t56.5 -39.5q28 0 61 17z" />
    <glyph glyph-name="Utilde" unicode="&#x168;" horiz-adv-x="707" 
d="M641 700v-391q0 -79 -7.5 -118.5t-29.5 -74.5q-69 -128 -253 -128q-174 0 -247 115q-23 36 -30 78t-7 136v383h139v-365q0 -80 5.5 -118t21.5 -63q39 -65 123 -65q94 0 136 76q16 26 21 64t5 110v361h123zM425 779q-28 0 -79 24q-46 22 -63 22q-39 0 -57 -46h-47
q10 42 22 65q31 58 93 58q30 0 76 -23q47 -22 65 -22q45 0 63 52h46q-6 -40 -18 -63q-33 -67 -101 -67z" />
    <glyph glyph-name="utilde" unicode="&#x169;" horiz-adv-x="613" 
d="M540 0h-135v72q-59 -84 -163 -84q-56 0 -98.5 25t-59.5 69q-16 37 -16 136v282h134v-285q0 -66 13 -91q22 -45 83 -45q67 0 93 59q14 31 14 93v269h135v-500zM362 586q-28 0 -79 24q-46 22 -63 22q-39 0 -57 -46h-47q10 42 22 65q31 58 93 58q30 0 76 -23q47 -22 65 -22
q45 0 63 52h46q-6 -40 -18 -63q-33 -67 -101 -67z" />
    <glyph glyph-name="Umacron" unicode="&#x16a;" horiz-adv-x="707" 
d="M641 700v-391q0 -79 -7.5 -118.5t-29.5 -74.5q-69 -128 -253 -128q-174 0 -247 115q-23 36 -30 78t-7 136v383h139v-365q0 -80 5.5 -118t21.5 -63q39 -65 123 -65q94 0 136 76q16 26 21 64t5 110v361h123zM510 797h-311v78h311v-78z" />
    <glyph glyph-name="umacron" unicode="&#x16b;" horiz-adv-x="613" 
d="M540 0h-135v72q-59 -84 -163 -84q-56 0 -98.5 25t-59.5 69q-16 37 -16 136v282h134v-285q0 -66 13 -91q22 -45 83 -45q67 0 93 59q14 31 14 93v269h135v-500zM452 604h-311v78h311v-78z" />
    <glyph glyph-name="Ubreve" unicode="&#x16c;" horiz-adv-x="707" 
d="M641 700v-391q0 -79 -7.5 -118.5t-29.5 -74.5q-69 -128 -253 -128q-174 0 -247 115q-23 36 -30 78t-7 136v383h139v-365q0 -80 5.5 -118t21.5 -63q39 -65 123 -65q94 0 136 76q16 26 21 64t5 110v361h123zM353 757q-57 0 -99 30t-61 81q-11 30 -14 64h54
q14 -44 45.5 -68.5t74.5 -24.5t75 24.5t45 68.5h55q-5 -48 -20 -78q-46 -97 -155 -97z" />
    <glyph glyph-name="ubreve" unicode="&#x16d;" horiz-adv-x="613" 
d="M540 0h-135v72q-59 -84 -163 -84q-56 0 -98.5 25t-59.5 69q-16 37 -16 136v282h134v-285q0 -66 13 -91q22 -45 83 -45q67 0 93 59q14 31 14 93v269h135v-500zM299 564q-57 0 -99 30t-61 81q-11 30 -14 64h54q14 -44 45.5 -68.5t74.5 -24.5t75 24.5t45 68.5h55
q-5 -48 -20 -78q-46 -97 -155 -97z" />
    <glyph glyph-name="Uring" unicode="&#x16e;" horiz-adv-x="707" 
d="M641 700v-391q0 -79 -7.5 -118.5t-29.5 -74.5q-69 -128 -253 -128q-174 0 -247 115q-23 36 -30 78t-7 136v383h139v-365q0 -80 5.5 -118t21.5 -63q39 -65 123 -65q94 0 136 76q16 26 21 64t5 110v361h123zM471 864q0 -46 -32 -78t-78 -32q-45 0 -77.5 32.5t-32.5 77.5
q0 46 32.5 78t79.5 32q44 0 76 -32.5t32 -77.5zM411 864q0 21 -14.5 36t-36.5 15q-19 0 -33.5 -15.5t-14.5 -35.5q0 -21 14.5 -36.5t34.5 -15.5q21 0 35.5 15.5t14.5 36.5z" />
    <glyph glyph-name="uring" unicode="&#x16f;" horiz-adv-x="613" 
d="M540 0h-135v72q-59 -84 -163 -84q-56 0 -98.5 25t-59.5 69q-16 37 -16 136v282h134v-285q0 -66 13 -91q22 -45 83 -45q67 0 93 59q14 31 14 93v269h135v-500zM409 671q0 -46 -32 -78t-78 -32q-45 0 -77.5 32.5t-32.5 77.5q0 46 32.5 78t79.5 32q44 0 76 -32.5t32 -77.5z
M349 671q0 21 -14.5 36t-36.5 15q-19 0 -33.5 -15.5t-14.5 -35.5q0 -21 14.5 -36.5t34.5 -15.5q21 0 35.5 15.5t14.5 36.5z" />
    <glyph glyph-name="Uhungarumlaut" unicode="&#x170;" horiz-adv-x="707" 
d="M641 700v-391q0 -79 -7.5 -118.5t-29.5 -74.5q-69 -128 -253 -128q-174 0 -247 115q-23 36 -30 78t-7 136v383h139v-365q0 -80 5.5 -118t21.5 -63q39 -65 123 -65q94 0 136 76q16 26 21 64t5 110v361h123zM625 894l-206 -143h-68l198 202zM418 894l-206 -143h-68l198 202
z" />
    <glyph glyph-name="uhungarumlaut" unicode="&#x171;" horiz-adv-x="613" 
d="M540 0h-135v72q-59 -84 -163 -84q-56 0 -98.5 25t-59.5 69q-16 37 -16 136v282h134v-285q0 -66 13 -91q22 -45 83 -45q67 0 93 59q14 31 14 93v269h135v-500zM565 701l-206 -143h-68l198 202zM358 701l-206 -143h-68l198 202z" />
    <glyph glyph-name="Uogonek" unicode="&#x172;" horiz-adv-x="707" 
d="M416 -226q-52 0 -82.5 24.5t-30.5 73.5q0 69 72 117q-14 -1 -24 -1q-174 0 -247 115q-23 36 -30 78t-7 136v383h139v-365q0 -80 5.5 -118t21.5 -63q39 -65 123 -65q94 0 136 76q16 26 21 64t5 110v361h123v-391q0 -79 -7.5 -118.5t-29.5 -74.5q-38 -73 -128 -112
q-41 -18 -66 -48.5t-25 -65.5q0 -56 68 -56q31 0 61 10l17 -46q-59 -24 -115 -24z" />
    <glyph glyph-name="uogonek" unicode="&#x173;" horiz-adv-x="613" 
d="M445 -226q-53 0 -83.5 24.5t-30.5 73.5q0 78 92 128h-18v72q-59 -84 -163 -84q-56 0 -98.5 25t-59.5 69q-16 37 -16 136v282h134v-285q0 -66 13 -91q22 -45 83 -45q67 0 93 59q14 31 14 93v269h135v-500h-25q-34 0 -68 -34.5t-34 -75.5q0 -56 68 -56q31 0 61 10l18 -46
q-61 -24 -115 -24z" />
    <glyph glyph-name="Wcircumflex" unicode="&#x174;" horiz-adv-x="966" 
d="M973 693l-206 -693h-133l-154 510l-160 -510h-129l-196 693l143 17l137 -551l166 541h109l157 -544l146 554zM664 754h-60l-111 102l-110 -102h-59l136 182h68z" />
    <glyph glyph-name="wcircumflex" unicode="&#x175;" horiz-adv-x="820" 
d="M814 493l-194 -493h-93l-128 336l-127 -336h-92l-176 485l133 25l109 -353l129 343h89l124 -343l114 353zM586 561h-60l-111 102l-110 -102h-59l136 182h68z" />
    <glyph glyph-name="Ycircumflex" unicode="&#x176;" horiz-adv-x="564" 
d="M574 694l-230 -403v-291h-140v290l-208 396l148 24l144 -312l168 312zM462 754h-60l-111 102l-110 -102h-59l136 182h68z" />
    <glyph glyph-name="ycircumflex" unicode="&#x177;" horiz-adv-x="517" 
d="M511 488l-243 -553q-49 -107 -89 -140q-52 -45 -153 -45h-33v89h26q42 0 68.5 14.5t49.5 49.5q26 41 62 136l-191 444l130 26l130 -350l137 350zM432 561h-60l-111 102l-110 -102h-59l136 182h68z" />
    <glyph glyph-name="Ydieresis" unicode="&#x178;" horiz-adv-x="564" 
d="M574 694l-230 -403v-291h-140v290l-208 396l148 24l144 -312l168 312zM403 778q-25 0 -43.5 18t-18.5 44t18.5 44.5t44.5 18.5q25 0 43 -18.5t18 -43.5q0 -26 -18 -44.5t-44 -18.5zM182 778q-26 0 -44 18.5t-18 44.5t18.5 44t44.5 18q25 0 43 -18t18 -44t-18 -44.5
t-44 -18.5z" />
    <glyph glyph-name="Zacute" unicode="&#x179;" horiz-adv-x="588" 
d="M575 0h-559v55l372 551h-306v94h481v-50l-367 -556h379v-94zM219 774l211 189l78 -70l-251 -137z" />
    <glyph glyph-name="zacute" unicode="&#x17a;" horiz-adv-x="474" 
d="M455 0h-442v46l280 375h-225v79h382v-50l-267 -368h272v-82zM167 587l211 189l78 -70l-251 -137z" />
    <glyph glyph-name="Zdotaccent" unicode="&#x17b;" horiz-adv-x="588" 
d="M575 0h-559v55l372 551h-306v94h481v-50l-367 -556h379v-94zM323 777q-26 0 -45.5 19t-19.5 45q0 28 19.5 47t46.5 19q26 0 45 -19.5t19 -45.5q0 -27 -19 -46t-46 -19z" />
    <glyph glyph-name="zdotaccent" unicode="&#x17c;" horiz-adv-x="474" 
d="M455 0h-442v46l280 375h-225v79h382v-50l-267 -368h272v-82zM250 584q-26 0 -45.5 19t-19.5 45q0 28 19.5 47t46.5 19q26 0 45 -19.5t19 -45.5q0 -27 -19 -46t-46 -19z" />
    <glyph glyph-name="Zcaron" unicode="&#x17d;" horiz-adv-x="588" 
d="M575 0h-559v55l372 551h-306v94h481v-50l-367 -556h379v-94zM493 938l-136 -182h-68l-136 182h59l110 -103l111 103h60z" />
    <glyph glyph-name="zcaron" unicode="&#x17e;" horiz-adv-x="474" 
d="M455 0h-442v46l280 375h-225v79h382v-50l-267 -368h272v-82zM432 743l-136 -182h-68l-136 182h59l110 -103l111 103h60z" />
    <glyph glyph-name="florin" unicode="&#x192;" 
d="M573 712l-35 -68q-28 11 -52 11q-38 0 -58 -22q-18 -20 -29 -73l-19 -86h119l-13 -70h-120l-88 -421q-20 -96 -67 -140q-56 -54 -145 -54q-59 0 -101 21l35 70q27 -12 54 -12q47 0 68 39q11 20 24 82l86 415h-80l14 70h80l18 86q18 84 74 128.5t138 44.5q51 0 97 -21z
" />
    <glyph glyph-name="AEacute" unicode="&#x1fc;" horiz-adv-x="859" 
d="M830 0h-416v193h-219l-105 -193h-117l403 700h412v-95h-235v-191h230v-96h-230v-223h277v-95zM414 273v320l-175 -320h175zM382 774l211 189l78 -70l-251 -137z" />
    <glyph glyph-name="aeacute" unicode="&#x1fd;" horiz-adv-x="842" 
d="M754 117l40 -70q-80 -59 -195 -59q-89 0 -147 43q-44 31 -70 82q-99 -125 -202 -125q-60 0 -102.5 42.5t-42.5 104.5q0 74 67 128q49 39 146 62l88 20q-11 42 -32.5 65.5t-65.5 23.5q-60 0 -123 -54l-44 65q91 67 194 67q84 0 129 -39q13 -10 26 -27q14 17 39 33
q55 33 123 33q125 0 181 -92q38 -62 38 -147q0 -11 -3 -34h-321q1 -75 40.5 -120.5t109.5 -45.5q62 0 127 44zM682 307v17q-2 52 -27.5 87t-68.5 35q-48 0 -76.5 -35t-31.5 -104h204zM225 75q51 0 79 43q33 41 33 102v50q-45 -10 -63 -16q-115 -34 -115 -105q0 -31 19 -52.5
t47 -21.5zM329 587l211 189l78 -70l-251 -137z" />
    <glyph glyph-name="Oslashacute" unicode="&#x1fe;" horiz-adv-x="787" 
d="M304 777l211 189l78 -70l-251 -137zM394 -12q-137 0 -234 86l-92 -88l-52 55l93 92q-65 97 -65 222q0 155 100 256t252 101q128 0 228 -83l93 90l54 -56l-95 -91q66 -95 66 -215q0 -159 -95.5 -264t-252.5 -105zM392 87q98 0 150.5 75.5t52.5 183.5q0 72 -28 129
l-319 -322q54 -66 144 -66zM394 613q-55 0 -96 -24.5t-63.5 -65t-33 -85.5t-10.5 -93q0 -65 26 -117l318 323q-54 62 -141 62z" />
    <glyph glyph-name="oslashacute" unicode="&#x1ff;" horiz-adv-x="600" 
d="M207 587l211 189l78 -70l-251 -137zM302 -12q-108 0 -184 70l-75 -67l-40 47l76 65q-43 72 -43 151q0 111 74 184.5t190 73.5q106 0 181 -66l76 66l40 -47l-75 -65q44 -65 44 -145q0 -121 -77 -194t-187 -73zM303 444q-58 0 -95 -50.5t-37 -139.5q0 -40 10 -71l219 200
q-33 61 -97 61zM300 56q59 0 94.5 57.5t35.5 136.5q0 36 -9 70l-220 -201q37 -63 99 -63z" />
    <glyph glyph-name="Scommaaccent" unicode="&#x218;" horiz-adv-x="529" 
d="M479 189q0 -89 -67.5 -145t-172.5 -56q-113 0 -201 63l48 83q66 -54 137 -54q49 0 82.5 29.5t33.5 68.5q0 44 -36 80q-19 20 -86 73t-90 76q-59 62 -59 129q0 78 62 127t160 49q96 0 170 -54l-45 -75q-52 37 -110 37q-45 0 -69.5 -23t-24.5 -55t35 -67q19 -19 85 -71.5
t86 -72.5q62 -62 62 -142zM220 -250l-45 22l32 82q0 6 -9 21t-9 30q0 20 17.5 36.5t43.5 16.5q30 0 47 -17.5t17 -40.5q0 -30 -33 -73z" />
    <glyph glyph-name="scommaaccent" unicode="&#x219;" horiz-adv-x="419" 
d="M195 -12q-95 0 -163 55l38 72q56 -51 107 -51q35 0 54 17.5t19 45.5q0 24 -17.5 44.5t-66.5 56.5q-36 26 -55.5 43t-36.5 45.5t-17 60.5q0 61 47 98t123 37q81 0 145 -40l-36 -64q-39 28 -81 28q-31 0 -48.5 -16t-17.5 -36q0 -21 16 -39.5t56 -48.5q73 -53 97 -85.5
t24 -77.5q0 -65 -53 -105t-134 -40zM176 -250l-45 22l32 82q0 6 -9 21t-9 30q0 20 17.5 36.5t43.5 16.5q30 0 47 -17.5t17 -40.5q0 -30 -33 -73z" />
    <glyph glyph-name="uni021A" unicode="&#x21a;" horiz-adv-x="576" 
d="M576 605h-219v-605h-140v605h-217v95h576v-95zM256 -250l-45 22l32 82q0 6 -9 21t-9 30q0 20 17.5 36.5t43.5 16.5q30 0 47 -17.5t17 -40.5q0 -30 -33 -73z" />
    <glyph glyph-name="uni021B" unicode="&#x21b;" horiz-adv-x="381" 
d="M351 83l22 -64q-70 -31 -134 -31q-92 0 -129 57q-14 23 -19 49t-5 78v258h-70v70h70v121l134 29v-150h131v-70h-131v-226q0 -71 15.5 -104.5t54.5 -33.5q28 0 61 17zM181 -250l-45 22l32 82q0 6 -9 21t-9 30q0 20 17.5 36.5t43.5 16.5q30 0 47 -17.5t17 -40.5
q0 -30 -33 -73z" />
    <glyph glyph-name="dotlessj" unicode="&#x237;" horiz-adv-x="281" 
d="M207 500v-514q0 -135 -46 -185.5t-156 -50.5v49q47 9 59 50q9 27 9 144v507h134z" />
    <glyph glyph-name="circumflex" unicode="&#x2c6;" horiz-adv-x="527" 
d="M433 561h-60l-111 102l-110 -102h-59l136 182h68z" />
    <glyph glyph-name="caron" unicode="&#x2c7;" horiz-adv-x="527" 
d="M433 743l-136 -182h-68l-136 182h59l110 -103l111 103h60z" />
    <glyph glyph-name="uni02C9" unicode="&#x2c9;" horiz-adv-x="527" 
d="M426 604h-328v78h328v-78z" />
    <glyph glyph-name="breve" unicode="&#x2d8;" horiz-adv-x="527" 
d="M262 564q-57 0 -99 30t-61 81q-11 30 -14 64h54q14 -44 45.5 -68.5t74.5 -24.5t75 24.5t45 68.5h55q-5 -48 -20 -78q-46 -97 -155 -97z" />
    <glyph glyph-name="dotaccent" unicode="&#x2d9;" horiz-adv-x="527" 
d="M262 584q-26 0 -45.5 19t-19.5 45q0 28 19.5 47t46.5 19q26 0 45 -19.5t19 -45.5q0 -27 -19 -46t-46 -19z" />
    <glyph glyph-name="ring" unicode="&#x2da;" horiz-adv-x="527" 
d="M372 671q0 -46 -32 -78t-78 -32q-45 0 -77.5 32.5t-32.5 77.5q0 46 32.5 78t79.5 32q44 0 76 -32.5t32 -77.5zM312 671q0 21 -14.5 36t-36.5 15q-19 0 -33.5 -15.5t-14.5 -35.5q0 -21 14.5 -36.5t34.5 -15.5q21 0 35.5 15.5t14.5 36.5z" />
    <glyph glyph-name="ogonek" unicode="&#x2db;" horiz-adv-x="527" 
d="M408 -156l17 -46q-59 -24 -114 -24q-53 0 -83.5 24.5t-30.5 73.5q0 77 91 128h73q-38 -18 -60 -48t-22 -62q0 -56 68 -56q31 0 61 10z" />
    <glyph glyph-name="tilde" unicode="&#x2dc;" horiz-adv-x="527" 
d="M325 586q-28 0 -79 24q-46 22 -63 22q-39 0 -57 -46h-47q10 42 22 65q31 58 93 58q30 0 76 -23q47 -22 65 -22q45 0 63 52h46q-6 -40 -18 -63q-33 -67 -101 -67z" />
    <glyph glyph-name="hungarumlaut" unicode="&#x2dd;" horiz-adv-x="527" 
d="M553 701l-206 -143h-68l198 202zM346 701l-206 -143h-68l198 202z" />
    <glyph glyph-name="uni0394" unicode="&#x394;" horiz-adv-x="702" 
d="M694 0h-678v59l255 641h171l252 -641v-59zM533 112l-162 423q-4 11 -17 62h-4q-4 -26 -17 -60l-164 -425h364z" />
    <glyph glyph-name="uni03A9" unicode="&#x3a9;" horiz-adv-x="792" 
d="M741 0h-287v108q62 51 100.5 114t38.5 156q0 96 -52 156.5t-144 60.5q-88 0 -145 -60t-57 -161q0 -157 139 -266v-108h-290v112h173q-71 40 -122 114t-51 179q0 135 97.5 221t254.5 86q169 0 257.5 -86.5t88.5 -218.5q0 -98 -49.5 -175t-128.5 -120h177v-112z" />
    <glyph glyph-name="uni03BC" unicode="&#x3bc;" horiz-adv-x="598" 
d="M544 0h-134v63q-29 -74 -102 -74q-71 0 -102 74v-242h-134v679h134v-264q0 -67 15 -97q25 -53 86 -53q63 0 87 53q16 32 16 96v265h134v-500z" />
    <glyph glyph-name="pi" unicode="&#x3c0;" horiz-adv-x="786" 
d="M706 97l23 -87q-41 -22 -104 -22q-79 0 -115.5 45t-36.5 120v245h-155v-249q0 -97 -21 -149h-141q24 64 24 160v238q-60 0 -105 -25l-38 89q59 38 170 38h517v-102h-112v-224q0 -87 55 -87q19 0 39 10z" />
    <glyph glyph-name="Wgrave" unicode="&#x1e80;" horiz-adv-x="966" 
d="M973 693l-206 -693h-133l-154 510l-160 -510h-129l-196 693l143 17l137 -551l166 541h109l157 -544l146 554zM586 776l-36 -20l-252 137l77 70z" />
    <glyph glyph-name="wgrave" unicode="&#x1e81;" horiz-adv-x="820" 
d="M814 493l-194 -493h-93l-128 336l-127 -336h-92l-176 485l133 25l109 -353l129 343h89l124 -343l114 353zM503 589l-36 -20l-252 137l77 70z" />
    <glyph glyph-name="Wacute" unicode="&#x1e82;" horiz-adv-x="966" 
d="M973 693l-206 -693h-133l-154 510l-160 -510h-129l-196 693l143 17l137 -551l166 541h109l157 -544l146 554zM401 774l211 189l78 -70l-251 -137z" />
    <glyph glyph-name="wacute" unicode="&#x1e83;" horiz-adv-x="820" 
d="M814 493l-194 -493h-93l-128 336l-127 -336h-92l-176 485l133 25l109 -353l129 343h89l124 -343l114 353zM325 587l211 189l78 -70l-251 -137z" />
    <glyph glyph-name="Wdieresis" unicode="&#x1e84;" horiz-adv-x="966" 
d="M973 693l-206 -693h-133l-154 510l-160 -510h-129l-196 693l143 17l137 -551l166 541h109l157 -544l146 554zM600 778q-26 0 -44 18t-18 44t18.5 44.5t44.5 18.5q25 0 43 -18.5t18 -43.5q0 -26 -18 -44.5t-44 -18.5zM379 778q-26 0 -44 18.5t-18 44.5t18.5 44t44.5 18
q25 0 43 -18t18 -44t-18 -44.5t-44 -18.5z" />
    <glyph glyph-name="wdieresis" unicode="&#x1e85;" horiz-adv-x="820" 
d="M814 493l-194 -493h-93l-128 336l-127 -336h-92l-176 485l133 25l109 -353l129 343h89l124 -343l114 353zM528 585q-26 0 -44 18.5t-18 43.5q0 26 18.5 44.5t44.5 18.5q25 0 43 -18.5t18 -43.5q0 -26 -18 -44.5t-44 -18.5zM307 585q-26 0 -44 18.5t-18 44.5t18.5 44
t44.5 18q25 0 43 -18t18 -44t-18 -44.5t-44 -18.5z" />
    <glyph glyph-name="Ygrave" unicode="&#x1ef2;" horiz-adv-x="564" 
d="M574 694l-230 -403v-291h-140v290l-208 396l148 24l144 -312l168 312zM371 779l-36 -20l-252 137l77 70z" />
    <glyph glyph-name="ygrave" unicode="&#x1ef3;" horiz-adv-x="517" 
d="M511 488l-243 -553q-49 -107 -89 -140q-52 -45 -153 -45h-33v89h26q42 0 68.5 14.5t49.5 49.5q26 41 62 136l-191 444l130 26l130 -350l137 350zM351 589l-36 -20l-252 137l77 70z" />
    <glyph glyph-name="endash" unicode="&#x2013;" horiz-adv-x="612" 
d="M600 204h-600v82h600v-82z" />
    <glyph glyph-name="emdash" unicode="&#x2014;" horiz-adv-x="881" 
d="M828 204h-790v82h790v-82z" />
    <glyph glyph-name="quoteleft" unicode="&#x2018;" horiz-adv-x="315" 
d="M261 711l-84 -163q0 -6 12 -26.5t12 -41.5q0 -29 -22 -50t-53 -21q-37 0 -57.5 22t-20.5 50q0 36 40 90l124 170z" />
    <glyph glyph-name="quoteright" unicode="&#x2019;" horiz-adv-x="315" 
d="M114 410l-49 30l84 164q0 6 -12 26t-12 41q0 30 21.5 50.5t53.5 20.5q37 0 57.5 -21.5t20.5 -49.5q0 -36 -40 -90z" />
    <glyph glyph-name="quotesinglbase" unicode="&#x201a;" horiz-adv-x="315" 
d="M72 -192l-49 30l84 164q0 6 -12 26t-12 41q0 30 21.5 50.5t53.5 20.5q37 0 57.5 -21.5t20.5 -49.5q0 -35 -41 -90z" />
    <glyph glyph-name="quotedblleft" unicode="&#x201c;" horiz-adv-x="522" 
d="M257 711l-84 -164q0 -6 12 -26t12 -41q0 -30 -21.5 -50.5t-53.5 -20.5q-37 0 -57.5 21.5t-20.5 49.5q0 35 40 91l124 170zM480 711l-84 -164q0 -6 12 -26t12 -41q0 -30 -21.5 -50.5t-53.5 -20.5q-37 0 -57.5 21.5t-20.5 49.5q0 34 41 91l123 170z" />
    <glyph glyph-name="quotedblright" unicode="&#x201d;" horiz-adv-x="523" 
d="M99 410l-49 30l84 164q0 6 -11.5 26t-11.5 41q0 30 21.5 50.5t53.5 20.5q37 0 57 -21.5t20 -49.5q0 -36 -40 -90zM323 410l-49 30l84 164q0 6 -12 26t-12 41q0 30 21.5 50.5t53.5 20.5q37 0 57.5 -21.5t20.5 -49.5q0 -35 -41 -90z" />
    <glyph glyph-name="quotedblbase" unicode="&#x201e;" horiz-adv-x="525" 
d="M78 -191l-48 30l84 163q0 6 -12 26.5t-12 41.5q0 29 22 50t53 21q37 0 57 -21.5t20 -50.5q0 -36 -40 -90zM305 -191l-48 30l83 163q0 6 -11.5 26.5t-11.5 41.5q0 29 22 50t53 21q37 0 57.5 -21.5t20.5 -50.5q0 -35 -41 -90z" />
    <glyph glyph-name="dagger" unicode="&#x2020;" horiz-adv-x="603" 
d="M529 413h-83l-118 25l36 -171l-38 -438h-52l-38 438l36 171l-118 -25h-83v102h83l118 -24l-32 116v104h121v-104l-33 -116l118 24h83v-102z" />
    <glyph glyph-name="daggerdbl" unicode="&#x2021;" horiz-adv-x="603" 
d="M529 26h-83l-118 25l33 -117v-105h-121v105l32 117l-118 -25h-83v102h83l118 -25l-36 167l36 168l-118 -25h-83v102h83l118 -24l-32 116v104h121v-104l-33 -116l118 24h83v-102h-83l-118 25l36 -168l-36 -167l118 25h83v-102z" />
    <glyph glyph-name="bullet" unicode="&#x2022;" horiz-adv-x="500" 
d="M251 209q-60 0 -103 43t-43 103q0 61 43 103t105 42q58 0 100.5 -43t42.5 -102q0 -60 -42.5 -103t-102.5 -43z" />
    <glyph glyph-name="ellipsis" unicode="&#x2026;" horiz-adv-x="895" 
d="M148 -8q-32 0 -54 21.5t-22 52.5q0 34 22 56t56 22q31 0 52.5 -22.5t21.5 -54.5t-22 -53.5t-54 -21.5zM445 -8q-32 0 -54 21.5t-22 52.5q0 34 22 56t57 22q31 0 52 -22.5t21 -54.5t-22 -53.5t-54 -21.5zM741 -8q-32 0 -54 21.5t-22 52.5q0 34 22 56t57 22q31 0 52 -22.5
t21 -54.5t-22 -53.5t-54 -21.5z" />
    <glyph glyph-name="perthousand" unicode="&#x2030;" horiz-adv-x="1385" 
d="M217 272q-82 0 -134 60.5t-52 156.5q0 97 51.5 156.5t136.5 59.5q81 0 131.5 -59.5t50.5 -154.5q0 -97 -51 -158t-133 -61zM217 343q33 0 52 39t19 108q0 70 -19 109t-53 39q-33 0 -52.5 -39t-19.5 -108q0 -70 19.5 -109t53.5 -39zM725 699l-419 -699h-80l418 699h81z
M733 -7q-82 0 -133.5 60.5t-51.5 156.5q0 97 51.5 156.5t135.5 59.5q81 0 132 -60t51 -155q0 -97 -51.5 -157.5t-133.5 -60.5zM734 63q33 0 52 39.5t19 108.5q0 70 -19 109t-54 39q-33 0 -52 -39.5t-19 -108.5t19.5 -108.5t53.5 -39.5zM1159 -7q-82 0 -133 60.5t-51 156.5
q0 97 51 156.5t136 59.5q80 0 131 -60t51 -155q0 -97 -51.5 -157.5t-133.5 -60.5zM1160 63q33 0 52 39.5t19 108.5q0 70 -19 109t-53 39q-33 0 -52.5 -39.5t-19.5 -108.5t19.5 -108.5t53.5 -39.5z" />
    <glyph glyph-name="guilsinglleft" unicode="&#x2039;" horiz-adv-x="311" 
d="M266 88l-54 -35l-198 179l183 185l54 -32l-113 -151z" />
    <glyph glyph-name="guilsinglright" unicode="&#x203a;" horiz-adv-x="311" 
d="M294 238l-183 -186l-55 32l114 152l-128 145l54 35z" />
    <glyph glyph-name="fraction" unicode="&#x2044;" horiz-adv-x="169" 
d="M284 732l-341 -766h-75l339 766h77z" />
    <glyph glyph-name="zero.superior" unicode="&#x2070;" horiz-adv-x="422" 
d="M211 443q-82 0 -133.5 61.5t-51.5 154.5q0 96 51.5 156.5t136.5 60.5q80 0 130.5 -60.5t50.5 -154.5q0 -95 -51 -156.5t-133 -61.5zM211 513q34 0 52.5 39t18.5 107q0 72 -18.5 111t-53.5 39q-34 0 -53 -39t-19 -109q0 -69 19.5 -108.5t53.5 -39.5z" />
    <glyph glyph-name="four.superior" unicode="&#x2074;" horiz-adv-x="409" 
d="M381 557h-65v-107h-95v107h-206v43l225 270h76v-254h65v-59zM221 616v153q-8 -11 -118 -153h118z" />
    <glyph glyph-name="five.superior" unicode="&#x2075;" horiz-adv-x="372" 
d="M335 870l-18 -68h-146l-20 -68q72 -5 115 -32q70 -43 70 -116q0 -63 -51 -103.5t-129 -40.5q-75 0 -149 44l39 65q57 -42 103 -42q30 0 51 20.5t21 50.5q0 54 -63 77q-45 16 -92 16h-10l61 197h218z" />
    <glyph glyph-name="six.superior" unicode="&#x2076;" horiz-adv-x="405" 
d="M199 443q-78 0 -126.5 43t-48.5 112q0 111 94 189t224 91v-60q-58 -6 -111.5 -41t-74.5 -80q26 17 67 17q65 0 109 -36.5t44 -90.5q0 -61 -51 -102.5t-126 -41.5zM201 499q27 0 45 23t18 59q0 35 -17 56t-46 21q-28 0 -46 -21t-18 -56q0 -36 18 -59t46 -23z" />
    <glyph glyph-name="seven.superior" unicode="&#x2077;" horiz-adv-x="345" 
d="M330 822l-211 -379l-91 21l196 338h-199l-1 68h305z" />
    <glyph glyph-name="eight.superior" unicode="&#x2078;" horiz-adv-x="405" 
d="M200 443q-77 0 -125.5 34t-48.5 87q0 35 23 61t70 51q-73 37 -73 93q0 53 47.5 80t109.5 27q68 0 110.5 -28.5t42.5 -70.5q0 -56 -82 -99q105 -43 105 -113q0 -53 -50 -87.5t-129 -34.5zM201 499q26 0 44 19t18 45q0 50 -70 79q-52 -28 -52 -77q0 -29 16.5 -47.5
t43.5 -18.5zM153 774q0 -45 48 -65q49 21 49 66q0 17 -13 32t-36 15q-21 0 -34.5 -14.5t-13.5 -33.5z" />
    <glyph glyph-name="nine.superior" unicode="&#x2079;" horiz-adv-x="397" 
d="M177 605q-70 0 -114 37t-44 92q0 61 49.5 101.5t127.5 40.5q76 0 125.5 -42t49.5 -111q0 -83 -50 -146.5t-120 -95.5t-149 -40v61q59 7 113 41.5t75 80.5q-28 -19 -63 -19zM194 662q27 0 45 21.5t18 54.5q0 38 -17 59.5t-46 21.5q-27 0 -45 -22t-18 -58q0 -35 17.5 -56
t45.5 -21z" />
    <glyph glyph-name="zero.inferior" unicode="&#x2080;" horiz-adv-x="422" 
d="M211 -179q-82 0 -133.5 61.5t-51.5 154.5q0 96 51.5 156.5t136.5 60.5q80 0 130.5 -60.5t50.5 -154.5q0 -95 -51 -156.5t-133 -61.5zM211 -109q34 0 52.5 39t18.5 107q0 72 -18.5 111t-53.5 39q-34 0 -53 -39t-19 -109q0 -69 19.5 -108.5t53.5 -39.5z" />
    <glyph glyph-name="one.inferior" unicode="&#x2081;" horiz-adv-x="304" 
d="M226 -172h-112v345l-83 -31l-21 58l131 48h85v-420z" />
    <glyph glyph-name="two.inferior" unicode="&#x2082;" horiz-adv-x="379" 
d="M345 -172h-342v49q110 94 167 157q54 61 54 101q0 23 -15.5 36.5t-37.5 13.5q-38 0 -98 -46l-48 51q68 64 163 64q66 0 110 -30.5t44 -81.5q0 -39 -25 -74.5t-81 -87.5q-19 -18 -92 -79h201v-73z" />
    <glyph glyph-name="three.inferior" unicode="&#x2083;" horiz-adv-x="360" 
d="M148 -180q-77 0 -133 26l29 61q51 -27 92 -27q32 0 52.5 18.5t20.5 48.5q0 50 -48 63q-28 9 -93 9v54q55 2 83 16q34 18 34 55q0 21 -13.5 34.5t-37.5 13.5q-39 0 -84 -28l-32 55q61 34 136 34q67 0 107 -26.5t40 -71.5q0 -63 -77 -99q51 -11 77 -39.5t26 -67.5
q0 -57 -50.5 -93t-128.5 -36z" />
    <glyph glyph-name="four.inferior" unicode="&#x2084;" horiz-adv-x="409" 
d="M381 -65h-65v-107h-95v107h-206v43l225 270h76v-254h65v-59zM221 -6v153q-8 -11 -118 -153h118z" />
    <glyph glyph-name="five.inferior" unicode="&#x2085;" horiz-adv-x="372" 
d="M335 248l-18 -68h-146l-20 -68q72 -5 115 -32q70 -43 70 -116q0 -63 -51 -103.5t-129 -40.5q-75 0 -149 44l39 65q57 -42 103 -42q30 0 51 20.5t21 50.5q0 54 -63 77q-45 16 -92 16h-10l61 197h218z" />
    <glyph glyph-name="six.inferior" unicode="&#x2086;" horiz-adv-x="405" 
d="M199 -179q-78 0 -126.5 43t-48.5 112q0 111 94 189t224 91v-60q-58 -6 -111.5 -41t-74.5 -80q26 17 67 17q65 0 109 -36.5t44 -90.5q0 -61 -51 -102.5t-126 -41.5zM201 -123q27 0 45 23t18 59q0 35 -17 56t-46 21q-28 0 -46 -21t-18 -56q0 -36 18 -59t46 -23z" />
    <glyph glyph-name="seven.inferior" unicode="&#x2087;" horiz-adv-x="345" 
d="M330 200l-211 -379l-91 21l196 338h-199l-1 68h305z" />
    <glyph glyph-name="eight.inferior" unicode="&#x2088;" horiz-adv-x="405" 
d="M200 -179q-77 0 -125.5 34t-48.5 87q0 35 23 61t70 51q-73 37 -73 93q0 53 47.5 80t109.5 27q68 0 110.5 -28.5t42.5 -70.5q0 -56 -82 -99q105 -43 105 -113q0 -53 -50 -87.5t-129 -34.5zM201 -123q26 0 44 19t18 45q0 50 -70 79q-52 -28 -52 -77q0 -29 16.5 -47.5
t43.5 -18.5zM153 152q0 -45 48 -65q49 21 49 66q0 17 -13 32t-36 15q-21 0 -34.5 -14.5t-13.5 -33.5z" />
    <glyph glyph-name="nine.inferior" unicode="&#x2089;" horiz-adv-x="397" 
d="M177 -17q-70 0 -114 37t-44 92q0 61 49.5 101.5t127.5 40.5q76 0 125.5 -42t49.5 -111q0 -83 -50 -146.5t-120 -95.5t-149 -40v61q59 7 113 41.5t75 80.5q-28 -19 -63 -19zM194 40q27 0 45 21.5t18 54.5q0 38 -17 59.5t-46 21.5q-27 0 -45 -22t-18 -58q0 -35 17.5 -56
t45.5 -21z" />
    <glyph glyph-name="Euro" unicode="&#x20ac;" 
d="M531 110l32 -82q-59 -40 -149 -40q-116 0 -196 68.5t-105 201.5h-89v68h81q-1 11 -1 34q0 24 1 37h-81v68h91q27 118 106 182.5t190 64.5q91 0 149 -42l-39 -79q-43 28 -104 28q-59 0 -102 -39t-60 -115h208v-68h-219q-1 -14 -1 -42q0 -18 1 -29h219v-68h-211
q14 -87 60.5 -131.5t111.5 -44.5q61 0 107 28z" />
    <glyph glyph-name="afii61289" unicode="&#x2113;" horiz-adv-x="554" 
d="M435 118l41 -68q-72 -66 -165 -66q-69 0 -109 40q-46 47 -46 136v55l-59 -53l-37 63q59 51 96 87v186q0 108 42 169t124 61q62 0 93 -37t31 -89q0 -120 -124 -249q-22 -26 -41 -43v-129q0 -104 68 -104q40 0 86 41zM363 584q0 50 -37 50q-45 0 -45 -97v-128q8 8 20 22
q62 78 62 153z" />
    <glyph glyph-name="trademark" unicode="&#x2122;" horiz-adv-x="523" 
d="M475 500h-43v99l1 45q-12 -33 -18 -46l-39 -98h-32l-41 98l-16 46v-45v-99h-43v200h62l55 -140l54 140h60v-200zM212 663h-64v-163h-45v163h-64v37h173v-37z" />
    <glyph glyph-name="Omega" unicode="&#x2126;" horiz-adv-x="792" 
d="M741 0h-287v108q62 51 100.5 114t38.5 156q0 96 -52 156.5t-144 60.5q-88 0 -145 -60t-57 -161q0 -157 139 -266v-108h-290v112h173q-71 40 -122 114t-51 179q0 135 97.5 221t254.5 86q169 0 257.5 -86.5t88.5 -218.5q0 -98 -49.5 -175t-128.5 -120h177v-112z" />
    <glyph glyph-name="estimated" unicode="&#x212e;" horiz-adv-x="709" 
d="M667 320h-493v-222q75 -70 175 -70q84 0 138.5 37.5t99.5 107.5l38 -23q-54 -80 -116.5 -121t-159.5 -41q-139 0 -225.5 96.5t-86.5 235.5q0 142 86 237.5t229 95.5q142 0 227 -95.5t88 -237.5zM527 359v186q-73 68 -175 68q-107 0 -178 -68v-186h353z" />
    <glyph glyph-name="onethird" unicode="&#x2153;" horiz-adv-x="952" 
d="M694 700l-417 -700h-81l418 700h80zM278 280h-112v345l-83 -31l-21 58l131 48h85v-420zM711 -8q-76 0 -133 26l29 61q51 -27 92 -27q32 0 52.5 18.5t20.5 48.5q0 50 -48 63q-28 9 -93 9v54q56 2 84 16q33 17 33 55q0 21 -13 34.5t-37 13.5q-40 0 -85 -28l-32 55
q61 34 136 34q67 0 107 -26.5t40 -71.5q0 -33 -17.5 -56t-59.5 -43q52 -11 78 -39.5t26 -67.5q0 -57 -50.5 -93t-129.5 -36z" />
    <glyph glyph-name="twothirds" unicode="&#x2154;" horiz-adv-x="1041" 
d="M783 700l-417 -700h-81l418 700h80zM373 280h-342v49q110 94 167 157q54 61 54 101q0 23 -15.5 36.5t-37.5 13.5q-38 0 -98 -46l-48 51q68 64 163 64q66 0 110 -30.5t44 -81.5q0 -39 -25 -74.5t-81 -87.5q-19 -18 -92 -79h201v-73zM800 -8q-76 0 -133 26l30 61
q49 -27 91 -27q32 0 52.5 18.5t20.5 48.5q0 50 -48 63q-28 9 -93 9v54q56 2 84 16q33 17 33 55q0 21 -13 34.5t-37 13.5q-40 0 -85 -28l-31 55q59 34 135 34q68 0 107.5 -26.5t39.5 -71.5q0 -33 -17 -56t-59 -43q51 -11 77 -39.5t26 -67.5q0 -57 -50.5 -93t-129.5 -36z" />
    <glyph glyph-name="oneeighth" unicode="&#x215b;" horiz-adv-x="934" 
d="M694 700l-417 -700h-81l418 700h80zM278 280h-112v345l-83 -31l-21 58l131 48h85v-420zM721 -7q-78 0 -126.5 34t-48.5 87q0 63 94 112q-73 37 -73 93q0 53 47 80t109 27q69 0 111.5 -28.5t42.5 -70.5q0 -56 -82 -99q104 -44 104 -113q0 -53 -49.5 -87.5t-128.5 -34.5z
M722 49q25 0 43.5 19t18.5 45q0 50 -70 79q-52 -28 -52 -77q0 -29 16.5 -47.5t43.5 -18.5zM673 324q0 -45 49 -65q49 21 49 66q0 17 -13 32t-36 15q-22 0 -35.5 -14.5t-13.5 -33.5z" />
    <glyph glyph-name="threeeighths" unicode="&#x215c;" horiz-adv-x="968" 
d="M727 700l-417 -700h-81l418 700h80zM181 272q-77 0 -133 26l29 61q51 -27 92 -27q32 0 52.5 18.5t20.5 48.5q0 49 -48 63q-28 9 -93 9v54q55 2 83 16q34 18 34 55q0 21 -13.5 34.5t-37.5 13.5q-39 0 -84 -28l-32 55q61 34 136 34q67 0 107 -26.5t40 -71.5q0 -63 -77 -99
q51 -11 77 -39.5t26 -67.5q0 -57 -50.5 -93t-128.5 -36zM754 -7q-77 0 -125.5 34t-48.5 87q0 35 23 61t70 51q-38 19 -55 40.5t-17 52.5q0 53 47 80t109 27q69 0 111.5 -28.5t42.5 -70.5q0 -56 -82 -99q104 -44 104 -113q0 -53 -50 -87.5t-129 -34.5zM755 49q26 0 44.5 19
t18.5 45q0 50 -70 79q-53 -28 -53 -77q0 -29 17 -47.5t43 -18.5zM707 324q0 -45 49 -65q49 21 49 66q0 17 -13.5 32t-36.5 15q-21 0 -34.5 -14.5t-13.5 -33.5z" />
    <glyph glyph-name="fiveeighths" unicode="&#x215d;" horiz-adv-x="954" 
d="M714 700l-418 -700h-80l417 700h81zM363 700l-18 -68h-146l-20 -68q72 -5 115 -32q70 -43 70 -116q0 -63 -51 -103.5t-129 -40.5q-75 0 -149 44l39 65q57 -42 103 -42q30 0 51 20.5t21 50.5q0 54 -63 77q-45 16 -92 16h-10l61 197h218zM741 -7q-77 0 -125.5 34t-48.5 87
q0 35 23 61t70 51q-73 37 -73 93q0 53 47.5 80t109.5 27q68 0 111 -28.5t43 -70.5q0 -55 -83 -99q105 -43 105 -113q0 -53 -50 -87.5t-129 -34.5zM742 49q26 0 44 19t18 45q0 50 -70 79q-52 -28 -52 -77q0 -29 16.5 -47.5t43.5 -18.5zM694 324q0 -45 48 -65q49 21 49 66
q0 17 -13 32t-36 15q-22 0 -35 -14.5t-13 -33.5z" />
    <glyph glyph-name="seveneighths" unicode="&#x215e;" horiz-adv-x="889" 
d="M649 700l-417 -700h-81l417 700h81zM355 652l-211 -379l-91 21l196 338h-199l-1 68h305zM676 -7q-77 0 -125.5 34t-48.5 87q0 35 23 61t70 51q-73 37 -73 93q0 53 47.5 80t109.5 27q69 0 111.5 -28.5t42.5 -70.5q0 -55 -83 -99q105 -43 105 -113q0 -53 -50 -87.5
t-129 -34.5zM677 49q26 0 44 19t18 45q0 50 -70 79q-52 -29 -52 -77q0 -29 16.5 -47.5t43.5 -18.5zM629 324q0 -45 48 -65q49 21 49 66q0 17 -13 32t-36 15q-21 0 -34.5 -14.5t-13.5 -33.5z" />
    <glyph glyph-name="partialdiff" unicode="&#x2202;" horiz-adv-x="657" 
d="M271 -12q-97 0 -157 58.5t-60 148.5q0 137 80 216.5t182 79.5q50 0 88.5 -19t58.5 -50h2q3 21 3 47q0 74 -35.5 117.5t-102.5 43.5q-57 0 -108 -32l-30 89q62 45 166 45q120 0 183 -75t63 -198q0 -99 -26 -187q-40 -131 -117 -207.5t-190 -76.5zM280 94q58 0 102 64.5
t64 164.5q-23 72 -97 72q-63 0 -109 -61t-46 -141q0 -46 23 -72.5t63 -26.5z" />
    <glyph glyph-name="Delta" unicode="&#x2206;" horiz-adv-x="702" 
d="M694 0h-678v59l255 641h171l252 -641v-59zM533 112l-162 423q-4 11 -17 62h-4q-4 -26 -17 -60l-164 -425h364z" />
    <glyph glyph-name="product" unicode="&#x220f;" horiz-adv-x="814" 
d="M733 -230h-141v809h-370v-809h-141v930h652v-930z" />
    <glyph glyph-name="summation" unicode="&#x2211;" horiz-adv-x="718" 
d="M682 -230h-664v76l336 394l-318 378v82h623v-114h-427l284 -343l-301 -359h467v-114z" />
    <glyph glyph-name="minus" unicode="&#x2212;" 
d="M544 209h-477v82h477v-82z" />
    <glyph glyph-name="uni2215" unicode="&#x2215;" horiz-adv-x="349" 
d="M439 700l-417 -700h-81l418 700h80z" />
    <glyph glyph-name="uni2219" unicode="&#x2219;" horiz-adv-x="301" 
d="M149 175q-32 0 -54 21.5t-22 52.5q0 34 21.5 56t55.5 22q32 0 53.5 -22t21.5 -54t-21.5 -54t-54.5 -22z" />
    <glyph glyph-name="radical" unicode="&#x221a;" horiz-adv-x="623" 
d="M618 729l-241 -741h-93l-145 313l-63 -38l-37 69l156 92l134 -297l194 602h95z" />
    <glyph glyph-name="infinity" unicode="&#x221e;" horiz-adv-x="907" 
d="M655 107q-60 0 -113 30.5t-88 82.5h-2q-35 -48 -88.5 -80.5t-113.5 -32.5q-88 0 -141.5 51t-53.5 133q0 84 54 135t139 51q121 0 204 -113h2q32 46 83 79.5t115 33.5q87 0 141 -50t54 -131q0 -83 -53.5 -136t-138.5 -53zM647 202q45 0 69 26t24 65q0 38 -24 63.5
t-72 25.5q-79 0 -138 -90q57 -90 141 -90zM259 201q76 0 137 91q-27 41 -64 65.5t-77 24.5q-43 0 -68 -25.5t-25 -65.5q0 -39 27 -64.5t70 -25.5z" />
    <glyph glyph-name="integral" unicode="&#x222b;" horiz-adv-x="550" 
d="M144 -237q-62 0 -104 22l29 95q24 -14 53 -14q35 0 55.5 23t20.5 68v584q0 102 48 155.5t142 53.5q65 0 107 -23l-29 -93q-23 13 -55 13q-34 0 -54 -22.5t-20 -67.5v-587q0 -99 -50 -153t-143 -54z" />
    <glyph glyph-name="approxequal" unicode="&#x2248;" 
d="M555 421q-63 -87 -146 -87q-54 0 -112 32q-53 33 -95 33q-48 0 -92 -67l-55 62q31 42 64 65t81 23q55 0 112 -32q54 -33 96 -33q49 0 92 66zM555 197q-63 -87 -146 -87q-54 0 -112 32q-53 33 -95 33q-48 0 -92 -67l-55 62q31 42 64 65t81 23q55 0 112 -32q57 -33 96 -33
q49 0 92 66z" />
    <glyph glyph-name="notequal" unicode="&#x2260;" 
d="M541 143h-271l-58 -120h-90l58 120h-111v83h154l70 142h-224v82h266l63 130h90l-64 -130h117v-82h-160l-69 -142h229v-83z" />
    <glyph glyph-name="lessequal" unicode="&#x2264;" 
d="M541 0h-472v82h472v-82zM541 139l-472 194v68l472 194v-88l-347 -139v-3l347 -139v-87z" />
    <glyph glyph-name="greaterequal" unicode="&#x2265;" 
d="M540 0h-471v82h471v-82zM541 333l-472 -194v88l347 139v2l-347 139v88l472 -194v-68z" />
    <glyph glyph-name="lozenge" unicode="&#x25ca;" horiz-adv-x="650" 
d="M586 350l-235 -350h-66l-235 349l235 351h66zM479 350l-161 242l-162 -242l162 -243z" />
    <glyph glyph-name="uniF8FF" unicode="&#xf8ff;" horiz-adv-x="500" 
d="M487 0h-475v665h475v-665zM250 375l161 243h-323zM60 91l161 242l-161 242v-484zM440 90v485l-162 -242zM411 48l-161 242l-162 -242h323z" />
    <glyph glyph-name="commaaccent" horiz-adv-x="527" 
d="M243 -250l-45 22l32 82q0 6 -9 21t-9 30q0 20 17.5 36.5t43.5 16.5q30 0 47 -17.5t17 -40.5q0 -30 -33 -73z" />
    <glyph glyph-name="exclam.sc" horiz-adv-x="332" 
d="M238 550l-27 -380h-89l-28 380h144zM167 -8q-29 0 -49 19t-20 48t20.5 49t49.5 20t47.5 -19.5t18.5 -49.5q0 -28 -19 -47.5t-48 -19.5z" />
    <glyph glyph-name="dollar.oldstyle" horiz-adv-x="501" 
d="M274 -84h-53v83q-119 3 -196 68l46 72q66 -54 150 -57v228q-67 41 -86 54q-98 64 -98 154q0 72 51.5 113t132.5 48v74h53v-73q92 -7 154 -58l-43 -58q-49 39 -111 43v-203q90 -53 120 -80q67 -62 67 -139q0 -72 -53 -121t-134 -61v-87zM150 526q0 -25 17 -45t54 -44v165
q-33 -7 -52 -28t-19 -48zM274 276v-186q71 21 71 87q0 51 -71 99z" />
    <glyph glyph-name="ampersand.sc" horiz-adv-x="708" 
d="M667 25l-117 -36l-74 65q-79 -64 -193 -64q-95 0 -158.5 49t-63.5 124q0 49 35 89t92 57q-76 63 -76 126q0 54 45 89.5t119 35.5q70 0 136 -40l-40 -69q-47 30 -82 30q-26 0 -42.5 -14t-16.5 -38q0 -20 16 -39.5t66 -63.5l166 -143q11 25 11 61q0 44 -24 87h-86l21 63
h263l-23 -63h-87q20 -45 20 -87q0 -67 -30 -116zM410 111l-167 149q-61 -28 -61 -87q0 -45 32.5 -74.5t84.5 -29.5q59 0 111 42z" />
    <glyph glyph-name="zero.oldstyle" horiz-adv-x="619" 
d="M310 -12q-111 0 -185.5 74t-74.5 188q0 115 74 186.5t189 71.5q109 0 183 -73t74 -185q0 -114 -74 -188t-186 -74zM311 69q61 0 97.5 48.5t36.5 132.5q0 81 -37.5 129t-98.5 48q-60 0 -97 -48t-37 -129q0 -86 37.5 -133.5t98.5 -47.5z" />
    <glyph glyph-name="one.oldstyle" horiz-adv-x="401" 
d="M292 0h-130v397l-110 -49l-23 81l162 73h101v-502z" />
    <glyph glyph-name="two.oldstyle" horiz-adv-x="536" 
d="M468 0h-418v75l128 84q84 56 118.5 94.5t34.5 81.5q0 38 -25.5 63t-67.5 25q-72 0 -138 -72l-54 63q94 98 219 98q88 0 142 -44t54 -112q0 -93 -101 -173q-63 -50 -140 -97h248v-86z" />
    <glyph glyph-name="three.oldstyle" horiz-adv-x="509" 
d="M195 -185q-106 0 -173 37l30 79q62 -32 129 -32q63 0 99.5 34.5t36.5 84.5q0 79 -76 108q-41 16 -131 17v80q75 6 111 26q64 33 64 92q0 36 -26 60t-72 24q-62 0 -120 -40l-34 73q85 54 182 54q91 0 145.5 -43.5t54.5 -110.5q0 -51 -35 -93t-100 -67q84 -15 127 -63
t43 -118q0 -85 -71 -143.5t-184 -58.5z" />
    <glyph glyph-name="four.oldstyle" horiz-adv-x="573" 
d="M540 0h-94v-185h-120v185h-304v53l337 448h87v-414h94v-87zM326 87v260l-193 -260h193z" />
    <glyph glyph-name="five.oldstyle" horiz-adv-x="499" 
d="M447 500l-19 -85h-195l-41 -138q78 -11 144 -49q111 -63 111 -184q0 -102 -73.5 -165.5t-184.5 -63.5q-101 0 -194 63l42 79q77 -56 144 -56q64 0 104 38t40 96q0 39 -19.5 69.5t-47.5 48t-66.5 29t-67.5 16t-60 6.5l89 296h294z" />
    <glyph glyph-name="six.oldstyle" horiz-adv-x="587" 
d="M296 -12q-111 0 -176.5 70.5t-65.5 172.5q0 182 124 303q136 133 325 156v-76q-111 -14 -189 -77.5t-105 -157.5q54 42 121 42q91 0 151 -58.5t60 -142.5q0 -97 -70.5 -164.5t-174.5 -67.5zM298 60q52 0 82 39t30 106t-30 105.5t-83 38.5q-52 0 -81.5 -38.5t-29.5 -104.5
t31 -106t81 -40z" />
    <glyph glyph-name="seven.oldstyle" horiz-adv-x="487" 
d="M484 441l-344 -626l-118 33l320 562h-293v90h420z" />
    <glyph glyph-name="eight.oldstyle" horiz-adv-x="578" 
d="M289 -12q-108 0 -175 55t-67 139q0 110 145 188q-55 29 -83 64.5t-28 87.5q0 78 63 122.5t152 44.5q92 0 148 -44.5t56 -110.5q0 -97 -126 -161q157 -63 157 -188q0 -86 -71 -141.5t-171 -55.5zM294 623q-44 0 -70 -28t-26 -67q0 -74 92 -119q43 20 68 51.5t25 67.5
q0 41 -24.5 68t-64.5 27zM291 58q46 0 78.5 36t32.5 88q0 91 -127 143q-101 -52 -101 -139q0 -54 32 -91t85 -37z" />
    <glyph glyph-name="nine.oldstyle" horiz-adv-x="587" 
d="M86 -185v76q230 32 294 215q-50 -39 -116 -39q-92 0 -154 58.5t-62 151.5q0 99 72.5 165t173.5 66q115 0 179 -69.5t64 -179.5q0 -97 -50.5 -189t-135.5 -150q-114 -89 -265 -105zM292 139q50 0 80.5 38.5t30.5 106.5q0 70 -30.5 112.5t-81.5 42.5q-48 0 -79.5 -42.5
t-31.5 -110.5q0 -69 31 -108t81 -39z" />
    <glyph glyph-name="question.sc" horiz-adv-x="450" 
d="M249 179h-98q-2 16 -2 18q0 46 53 123q4 6 17.5 23.5t17.5 23.5t11.5 19t10 23.5t2.5 22.5q0 26 -16 40t-44 14q-46 0 -97 -55l-51 59q71 70 180 70q68 0 115.5 -29.5t47.5 -85.5q0 -46 -32 -86q-12 -17 -60 -68q-50 -54 -55 -112zM202 -8q-29 0 -49 19t-20 48t20 49
t50 20q28 0 46.5 -19.5t18.5 -48.5t-19 -48.5t-47 -19.5z" />
    <glyph glyph-name="a.sc" horiz-adv-x="593" 
d="M582 0h-139l-51 148h-211l-56 -148h-115l235 550h120zM369 221l-77 227l-85 -227h162z" />
    <glyph glyph-name="b.sc" horiz-adv-x="572" 
d="M526 163q0 -98 -96 -140q-52 -23 -176 -23h-166v550h177q118 0 163 -24q63 -32 63 -103q0 -45 -30 -78.5t-84 -48.5q60 -5 99 -34q50 -35 50 -99zM386 167q0 51 -43 71q-33 14 -82 14h-39v-178h40q62 0 91 21q33 23 33 72zM363 407q0 39 -27 55q-23 14 -72 14h-42v-153
h21q56 0 87 22q33 24 33 62z" />
    <glyph glyph-name="c.sc" horiz-adv-x="602" 
d="M524 109l34 -78q-82 -41 -175 -41q-142 0 -235.5 78t-93.5 206q0 125 92.5 205.5t233.5 80.5q99 0 183 -47l-38 -75q-72 36 -128 36q-86 0 -143 -54t-57 -144q0 -86 55.5 -142t144.5 -56q60 0 127 31z" />
    <glyph glyph-name="d.sc" horiz-adv-x="657" 
d="M602 289q0 -78 -33.5 -142t-95.5 -102q-78 -45 -224 -45h-161v550h159q94 0 152 -11.5t102 -42.5q101 -69 101 -207zM457 286q0 108 -64 152q-41 28 -139 28h-32v-382h29q61 0 93 8.5t58 31.5q55 49 55 162z" />
    <glyph glyph-name="e.sc" horiz-adv-x="490" 
d="M448 0h-360v550h324v-84h-190v-137h185v-84h-185v-161h226v-84z" />
    <glyph glyph-name="f.sc" horiz-adv-x="443" 
d="M412 466h-190v-153h186v-84h-186v-229h-134v550h324v-84z" />
    <glyph glyph-name="g.sc" horiz-adv-x="655" 
d="M590 254v-228q-88 -36 -196 -36q-148 0 -244 79.5t-96 208.5q0 124 96.5 203t243.5 79q94 0 173 -41l-40 -76q-60 30 -118 30q-95 0 -153.5 -54t-58.5 -144q0 -88 55 -142.5t138 -54.5q36 0 68 13v163h132z" />
    <glyph glyph-name="h.sc" horiz-adv-x="675" 
d="M587 0h-134v260h-231v-260h-134v550h134v-205h231v205h134v-550z" />
    <glyph glyph-name="i.sc" horiz-adv-x="310" 
d="M222 0h-134v550h134v-550z" />
    <glyph glyph-name="j.sc" horiz-adv-x="330" 
d="M242 550v-473q0 -90 -17 -130q-19 -43 -65 -67.5t-112 -24.5v68q41 12 50.5 38t9.5 105v484h134z" />
    <glyph glyph-name="k.sc" horiz-adv-x="587" 
d="M576 22l-136 -33l-218 278v-267h-134v550h134v-228l207 238l107 -38l-200 -219z" />
    <glyph glyph-name="l.sc" horiz-adv-x="465" 
d="M454 0h-366v550h134v-466h232v-84z" />
    <glyph glyph-name="m.sc" horiz-adv-x="821" 
d="M733 0h-134v374l-159 -374h-75l-159 371v-371h-118v550h158l168 -399l166 399h153v-550z" />
    <glyph glyph-name="n.sc" horiz-adv-x="701" 
d="M613 0h-105l-301 369v-369h-119v550h110l296 -367v367h119v-550z" />
    <glyph glyph-name="o.sc" horiz-adv-x="697" 
d="M643 280q0 -124 -80 -207t-214 -83q-133 0 -214 82.5t-81 206.5q0 123 84 202t218 79q123 0 205 -80t82 -200zM500 272q0 96 -40.5 149t-112.5 53q-68 0 -109 -53.5t-41 -147.5q0 -91 41 -143.5t111 -52.5q69 0 110 52.5t41 142.5z" />
    <glyph glyph-name="p.sc" horiz-adv-x="546" 
d="M514 390q0 -38 -19.5 -75t-51.5 -60q-59 -45 -179 -45h-10v72h9q53 0 83.5 29t30.5 71q0 86 -122 86h-33v-468h-134v550h182q111 0 165 -30q79 -45 79 -130z" />
    <glyph glyph-name="q.sc" horiz-adv-x="704" 
d="M643 280q0 -85 -39.5 -153t-109.5 -103l192 -78l-53 -76l-259 121q-9 -1 -25 -1q-133 0 -214 82.5t-81 206.5q0 123 84 202t218 79q123 0 205 -80t82 -200zM500 272q0 96 -40.5 149t-112.5 53q-68 0 -109 -53.5t-41 -147.5q0 -91 41 -143.5t111 -52.5q69 0 110 52.5
t41 142.5z" />
    <glyph glyph-name="r.sc" horiz-adv-x="572" 
d="M547 12l-140 -22l-119 231h-66v-221h-134v550h185q122 0 175 -37q64 -42 64 -116q0 -99 -109 -153zM375 389q0 41 -35 65q-25 17 -80 17h-38v-177h41q58 0 83 24q29 27 29 71z" />
    <glyph glyph-name="s.sc" horiz-adv-x="487" 
d="M428 147q0 -71 -60.5 -114t-150.5 -43q-101 0 -177 55l48 78q60 -52 117 -52q36 0 59.5 20.5t23.5 49.5q0 38 -48 77q-17 15 -55.5 43.5t-56.5 44.5q-36 30 -50.5 56.5t-14.5 59.5q0 64 55.5 101t138.5 37q89 0 152 -45l-43 -70q-53 35 -94 35q-33 0 -51 -15t-18 -39
q0 -16 9.5 -28.5t34.5 -33.5l100 -81q45 -37 63 -67.5t18 -68.5z" />
    <glyph glyph-name="t.sc" horiz-adv-x="518" 
d="M510 466h-185v-466h-134v466h-183v84h502v-84z" />
    <glyph glyph-name="u.sc" horiz-adv-x="643" 
d="M569 550v-307q0 -61 -5.5 -89t-21.5 -56q-25 -52 -83.5 -80t-138.5 -28q-155 0 -213 89q-19 30 -26 63.5t-7 107.5v300h134v-291q0 -95 23 -133q28 -49 92 -49q38 0 66 18t41 49q15 33 15 111v295h124z" />
    <glyph glyph-name="v.sc" horiz-adv-x="565" 
d="M562 544l-228 -544h-121l-210 542l141 16l145 -423l160 423z" />
    <glyph glyph-name="w.sc" horiz-adv-x="819" 
d="M815 543l-166 -543h-125l-118 384l-123 -384h-122l-157 543l143 15l98 -403l124 395h105l118 -398l108 406z" />
    <glyph glyph-name="x.sc" horiz-adv-x="563" 
d="M555 10l-147 -20l-135 211l-130 -211l-128 20l192 287l-166 243l145 18l100 -159l98 159l129 -11l-165 -240z" />
    <glyph glyph-name="y.sc" horiz-adv-x="506" 
d="M503 544l-192 -315v-229h-135v229l-173 308l139 21l118 -242l135 242z" />
    <glyph glyph-name="z.sc" horiz-adv-x="525" 
d="M505 0h-486v43l301 423h-244v84h421v-41l-297 -425h305v-84z" />
    <glyph glyph-name="exclamdown.sc" horiz-adv-x="332" 
d="M238 0h-144l27 380h89zM164 423q-28 0 -47 19.5t-19 48.5q0 28 19 48t48 20t49 -19t20 -48q0 -30 -20 -49.5t-50 -19.5z" />
    <glyph glyph-name="cent.oldstyle" horiz-adv-x="518" 
d="M268 -81h-66l20 96q-80 27 -130.5 91.5t-50.5 154.5q0 111 76.5 182t184.5 76q12 1 24 0l16 74h68l-16 -78q52 -8 92 -31l-36 -76q-34 21 -73 24l-72 -337q34 -9 55 -9q48 0 93 25l35 -79q-59 -35 -153 -35q-28 0 -49 4zM308 432q-62 -13 -97.5 -58.5t-35.5 -109.5
q0 -89 68 -142z" />
    <glyph glyph-name="lslash.sc" horiz-adv-x="465" 
d="M358 324l-136 -70v-169h232v-85h-366v189l-74 -39l-34 71l108 55v274h134v-208l101 53z" />
    <glyph glyph-name="scaron.sc" horiz-adv-x="487" 
d="M428 147q0 -71 -60.5 -114t-150.5 -43q-101 0 -177 55l48 78q60 -52 117 -52q36 0 59.5 20.5t23.5 49.5q0 38 -48 77q-17 15 -55.5 43.5t-56.5 44.5q-36 30 -50.5 56.5t-14.5 59.5q0 64 55.5 101t138.5 37q89 0 152 -45l-43 -70q-53 35 -94 35q-33 0 -51 -15t-18 -39
q0 -16 9.5 -28.5t34.5 -33.5l100 -81q45 -37 63 -67.5t18 -68.5zM413 787l-136 -182h-68l-136 182h59l110 -103l111 103h60z" />
    <glyph glyph-name="zcaron.sc" horiz-adv-x="525" 
d="M505 0h-486v43l301 423h-244v84h421v-41l-297 -425h305v-84zM459 794l-136 -182h-68l-136 182h59l110 -103l111 103h60z" />
    <glyph glyph-name="questiondown.sc" horiz-adv-x="450" 
d="M346 121l51 -59q-73 -70 -181 -70q-68 0 -115.5 29.5t-47.5 85.5q0 46 33 86q11 17 59 68q51 55 56 112h98q2 -16 2 -17q0 -47 -53 -123l-18 -24l-17 -23t-12 -19t-9.5 -23t-2.5 -23q0 -26 16 -40.5t44 -14.5q46 0 97 55zM317 493q0 -29 -20.5 -48.5t-49.5 -19.5
q-28 0 -47 19.5t-19 48.5q0 28 19.5 47.5t47.5 19.5q30 0 49.5 -18.5t19.5 -48.5z" />
    <glyph glyph-name="agrave.sc" horiz-adv-x="593" 
d="M582 0h-139l-51 148h-211l-56 -148h-115l235 550h120zM369 221l-77 227l-85 -227h162zM378 633l-36 -20l-252 137l77 70z" />
    <glyph glyph-name="aacute.sc" horiz-adv-x="593" 
d="M582 0h-139l-51 148h-211l-56 -148h-115l235 550h120zM369 221l-77 227l-85 -227h162zM228 631l211 189l78 -70l-251 -137z" />
    <glyph glyph-name="acircumflex.sc" horiz-adv-x="593" 
d="M582 0h-139l-51 148h-211l-56 -148h-115l235 550h120zM369 221l-77 227l-85 -227h162zM475 605h-60l-111 102l-110 -102h-59l136 182h68z" />
    <glyph glyph-name="atilde.sc" horiz-adv-x="593" 
d="M582 0h-139l-51 148h-211l-56 -148h-115l235 550h120zM369 221l-77 227l-85 -227h162zM369 630q-28 0 -79 24q-46 22 -63 22q-39 0 -57 -46h-47q10 42 22 65q31 58 93 58q30 0 76 -23q47 -22 65 -22q45 0 63 52h46q-6 -40 -18 -63q-33 -67 -101 -67z" />
    <glyph glyph-name="adieresis.sc" horiz-adv-x="593" 
d="M582 0h-139l-51 148h-211l-56 -148h-115l235 550h120zM369 221l-77 227l-85 -227h162zM415 629q-25 0 -43.5 18.5t-18.5 43.5q0 26 18.5 44.5t44.5 18.5q25 0 43 -18.5t18 -43.5q0 -26 -18 -44.5t-44 -18.5zM194 629q-26 0 -44 18.5t-18 44.5t18.5 44t44.5 18
q25 0 43 -18t18 -44t-18 -44.5t-44 -18.5z" />
    <glyph glyph-name="aring.sc" horiz-adv-x="593" 
d="M582 0h-139l-51 148h-211l-56 -148h-115l235 550h120zM369 221l-77 227l-85 -227h162zM415 715q0 -46 -32 -78t-78 -32q-45 0 -77.5 32.5t-32.5 77.5q0 46 32.5 78t79.5 32q44 0 76 -32.5t32 -77.5zM355 715q0 21 -14.5 36t-36.5 15q-19 0 -33.5 -15.5t-14.5 -35.5
q0 -21 14.5 -36.5t34.5 -15.5q21 0 35.5 15.5t14.5 36.5z" />
    <glyph glyph-name="ae.sc" horiz-adv-x="765" 
d="M727 0h-359v148h-170l-80 -148h-114l325 550h362v-84h-188v-137h184v-84h-184v-161h224v-84zM368 221v248l-132 -248h132z" />
    <glyph glyph-name="ccedilla.sc" horiz-adv-x="602" 
d="M323 -237q-42 0 -89 14l18 45q38 -11 66 -11q55 0 55 39q0 37 -48 37q-17 0 -33 -3l-9 7l43 103q-120 15 -196 90t-76 190q0 125 92.5 205.5t233.5 80.5q99 0 183 -47l-38 -75q-72 36 -128 36q-86 0 -143 -54t-57 -144q0 -86 55.5 -142t144.5 -56q60 0 127 31l34 -78
q-82 -40 -183 -41l-24 -60q22 2 26 2q36 0 58.5 -20t22.5 -53q0 -42 -38.5 -69t-96.5 -27z" />
    <glyph glyph-name="egrave.sc" horiz-adv-x="490" 
d="M448 0h-360v550h324v-84h-190v-137h185v-84h-185v-161h226v-84zM325 633l-36 -20l-252 137l77 70z" />
    <glyph glyph-name="eacute.sc" horiz-adv-x="490" 
d="M448 0h-360v550h324v-84h-190v-137h185v-84h-185v-161h226v-84zM173 631l211 189l78 -70l-251 -137z" />
    <glyph glyph-name="ecircumflex.sc" horiz-adv-x="490" 
d="M448 0h-360v550h324v-84h-190v-137h185v-84h-185v-161h226v-84zM420 605h-60l-111 102l-110 -102h-59l136 182h68z" />
    <glyph glyph-name="edieresis.sc" horiz-adv-x="490" 
d="M448 0h-360v550h324v-84h-190v-137h185v-84h-185v-161h226v-84zM361 629q-25 0 -43.5 18.5t-18.5 43.5q0 26 18.5 44.5t44.5 18.5q25 0 43 -18.5t18 -43.5q0 -26 -18 -44.5t-44 -18.5zM140 629q-26 0 -44 18.5t-18 44.5t18.5 44t44.5 18q25 0 43 -18t18 -44t-18 -44.5
t-44 -18.5z" />
    <glyph glyph-name="igrave.sc" horiz-adv-x="310" 
d="M222 0h-134v550h134v-550zM230 633l-36 -20l-252 137l77 70z" />
    <glyph glyph-name="iacute.sc" horiz-adv-x="310" 
d="M222 0h-134v550h134v-550zM79 631l211 189l78 -70l-251 -137z" />
    <glyph glyph-name="icircumflex.sc" horiz-adv-x="310" 
d="M222 0h-134v550h134v-550zM325 605h-60l-111 102l-110 -102h-59l136 182h68z" />
    <glyph glyph-name="idieresis.sc" horiz-adv-x="310" 
d="M222 0h-134v550h134v-550zM265 629q-25 0 -43.5 18.5t-18.5 43.5q0 26 18.5 44.5t44.5 18.5q25 0 43 -18.5t18 -43.5q0 -26 -18 -44.5t-44 -18.5zM44 629q-26 0 -44 18.5t-18 44.5t18.5 44t44.5 18q25 0 43 -18t18 -44t-18 -44.5t-44 -18.5z" />
    <glyph glyph-name="eth.sc" horiz-adv-x="657" 
d="M603 289q0 -78 -33.5 -142t-95.5 -102q-78 -45 -225 -45h-161v237h-86v81h86v232h159q95 0 153 -11.5t102 -42.5q101 -70 101 -207zM319 237h-97v-153h30q60 0 92 8.5t58 31.5q56 50 56 162q0 110 -63 153q-40 27 -140 27h-33v-148h97v-81z" />
    <glyph glyph-name="ntilde.sc" horiz-adv-x="701" 
d="M613 0h-105l-301 369v-369h-119v550h110l296 -367v367h119v-550zM418 630q-28 0 -79 24q-46 22 -63 22q-39 0 -57 -46h-47q10 42 22 65q31 58 93 58q30 0 76 -23q47 -22 65 -22q45 0 63 52h46q-6 -40 -18 -63q-33 -67 -101 -67z" />
    <glyph glyph-name="ograve.sc" horiz-adv-x="697" 
d="M643 280q0 -124 -80 -207t-214 -83q-133 0 -214 82.5t-81 206.5q0 123 84 202t218 79q123 0 205 -80t82 -200zM500 272q0 96 -40.5 149t-112.5 53q-68 0 -109 -53.5t-41 -147.5q0 -91 41 -143.5t111 -52.5q69 0 110 52.5t41 142.5zM424 633l-36 -20l-252 137l77 70z" />
    <glyph glyph-name="oacute.sc" horiz-adv-x="697" 
d="M643 280q0 -124 -80 -207t-214 -83q-133 0 -214 82.5t-81 206.5q0 123 84 202t218 79q123 0 205 -80t82 -200zM500 272q0 96 -40.5 149t-112.5 53q-68 0 -109 -53.5t-41 -147.5q0 -91 41 -143.5t111 -52.5q69 0 110 52.5t41 142.5zM271 631l211 189l78 -70l-251 -137z
" />
    <glyph glyph-name="ocircumflex.sc" horiz-adv-x="697" 
d="M643 280q0 -124 -80 -207t-214 -83q-133 0 -214 82.5t-81 206.5q0 123 84 202t218 79q123 0 205 -80t82 -200zM500 272q0 96 -40.5 149t-112.5 53q-68 0 -109 -53.5t-41 -147.5q0 -91 41 -143.5t111 -52.5q69 0 110 52.5t41 142.5zM518 605h-60l-111 102l-110 -102h-59
l136 182h68z" />
    <glyph glyph-name="otilde.sc" horiz-adv-x="697" 
d="M643 280q0 -124 -80 -207t-214 -83q-133 0 -214 82.5t-81 206.5q0 123 84 202t218 79q123 0 205 -80t82 -200zM500 272q0 96 -40.5 149t-112.5 53q-68 0 -109 -53.5t-41 -147.5q0 -91 41 -143.5t111 -52.5q69 0 110 52.5t41 142.5zM412 630q-28 0 -79 24q-46 22 -63 22
q-39 0 -57 -46h-47q10 42 22 65q31 58 93 58q30 0 76 -23q47 -22 65 -22q45 0 63 52h46q-6 -40 -18 -63q-33 -67 -101 -67z" />
    <glyph glyph-name="odieresis.sc" horiz-adv-x="697" 
d="M643 280q0 -124 -80 -207t-214 -83q-133 0 -214 82.5t-81 206.5q0 123 84 202t218 79q123 0 205 -80t82 -200zM500 272q0 96 -40.5 149t-112.5 53q-68 0 -109 -53.5t-41 -147.5q0 -91 41 -143.5t111 -52.5q69 0 110 52.5t41 142.5zM459 629q-25 0 -43.5 18.5t-18.5 43.5
q0 26 18.5 44.5t44.5 18.5q25 0 43 -18.5t18 -43.5q0 -26 -18 -44.5t-44 -18.5zM238 629q-26 0 -44 18.5t-18 44.5t18.5 44t44.5 18q25 0 43 -18t18 -44t-18 -44.5t-44 -18.5z" />
    <glyph glyph-name="oe.sc" horiz-adv-x="835" 
d="M797 0h-352q-52 -10 -95 -10q-134 0 -215 82.5t-81 206.5q0 123 84 202t218 79q31 0 91 -10h314v-84h-188v-137h183v-84h-183v-161h224v-84zM438 95v361q-46 18 -91 18q-68 0 -109 -54t-41 -147q0 -91 41 -143.5t111 -52.5q46 0 89 18z" />
    <glyph glyph-name="oslash.sc" horiz-adv-x="697" 
d="M643 280q0 -124 -80 -207t-214 -83q-130 0 -212 79l-92 -74l-39 48l92 74q-44 70 -44 162q0 123 84 202t218 79q121 0 201 -77l97 79l40 -47l-97 -79q46 -70 46 -156zM504 272q0 41 -15 81l-261 -212q40 -66 121 -66q71 0 113 53t42 144zM195 273q0 -39 13 -71l260 210
q-42 63 -121 63q-70 0 -111 -53.5t-41 -148.5z" />
    <glyph glyph-name="ugrave.sc" horiz-adv-x="643" 
d="M569 550v-307q0 -61 -5.5 -89t-21.5 -56q-25 -52 -83.5 -80t-138.5 -28q-155 0 -213 89q-19 30 -26 63.5t-7 107.5v300h134v-291q0 -95 23 -133q28 -49 92 -49q38 0 66 18t41 49q15 33 15 111v295h124zM401 633l-36 -20l-252 137l77 70z" />
    <glyph glyph-name="uacute.sc" horiz-adv-x="643" 
d="M569 550v-307q0 -61 -5.5 -89t-21.5 -56q-25 -52 -83.5 -80t-138.5 -28q-155 0 -213 89q-19 30 -26 63.5t-7 107.5v300h134v-291q0 -95 23 -133q28 -49 92 -49q38 0 66 18t41 49q15 33 15 111v295h124zM248 631l211 189l78 -70l-251 -137z" />
    <glyph glyph-name="ucircumflex.sc" horiz-adv-x="643" 
d="M569 550v-307q0 -61 -5.5 -89t-21.5 -56q-25 -52 -83.5 -80t-138.5 -28q-155 0 -213 89q-19 30 -26 63.5t-7 107.5v300h134v-291q0 -95 23 -133q28 -49 92 -49q38 0 66 18t41 49q15 33 15 111v295h124zM495 602h-60l-111 102l-110 -102h-59l136 182h68z" />
    <glyph glyph-name="udieresis.sc" horiz-adv-x="643" 
d="M569 550v-307q0 -61 -5.5 -89t-21.5 -56q-25 -52 -83.5 -80t-138.5 -28q-155 0 -213 89q-19 30 -26 63.5t-7 107.5v300h134v-291q0 -95 23 -133q28 -49 92 -49q38 0 66 18t41 49q15 33 15 111v295h124zM435 629q-25 0 -43.5 18.5t-18.5 43.5q0 26 18.5 44.5t44.5 18.5
q25 0 43 -18.5t18 -43.5q0 -26 -18 -44.5t-44 -18.5zM214 629q-26 0 -44 18.5t-18 44.5t18.5 44t44.5 18q25 0 43 -18t18 -44t-18 -44.5t-44 -18.5z" />
    <glyph glyph-name="yacute.sc" horiz-adv-x="506" 
d="M503 544l-192 -315v-229h-135v229l-173 308l139 21l118 -242l135 242zM188 631l211 189l78 -70l-251 -137z" />
    <glyph glyph-name="thorn.sc" horiz-adv-x="546" 
d="M514 290q0 -83 -73 -137q-57 -42 -181 -42h-38v-111h-134v550h134v-101h38q116 0 174 -31q80 -43 80 -128zM377 277q0 52 -35 72q-29 17 -89 17h-31v-183h34q60 0 90 27q31 28 31 67z" />
    <glyph glyph-name="ydieresis.sc" horiz-adv-x="506" 
d="M503 544l-192 -315v-229h-135v229l-173 308l139 21l118 -242l135 242zM376 629q-26 0 -44 18.5t-18 43.5q0 26 18.5 44.5t44.5 18.5q25 0 43 -18.5t18 -43.5q0 -26 -18 -44.5t-44 -18.5zM155 629q-26 0 -44 18.5t-18 44.5t18.5 44t44.5 18q25 0 43 -18t18 -44t-18 -44.5
t-44 -18.5z" />
    <glyph glyph-name="zero.fitted" horiz-adv-x="652" 
d="M326 -12q-121 0 -197 103t-76 259q0 160 76 261t201 101q120 0 194.5 -101.5t74.5 -257.5q0 -159 -75.5 -262t-197.5 -103zM327 86q64 0 99 69.5t35 194.5q0 129 -35 199t-101 70q-64 0 -99 -70t-35 -196q0 -127 35 -197t101 -70z" />
    <glyph glyph-name="one.fitted" horiz-adv-x="455" 
d="M325 0h-140v604l-137 -56l-24 76l191 76h110v-700z" />
    <glyph glyph-name="two.fitted" horiz-adv-x="617" 
d="M547 0h-503v71q179 168 256 262q94 115 94 185q0 45 -30 73t-74 28q-70 0 -153 -73l-55 67q95 99 235 99q96 0 160 -49.5t64 -133.5q0 -62 -35 -121t-121 -150q-61 -67 -156 -156h318v-102z" />
    <glyph glyph-name="three.fitted" horiz-adv-x="560" 
d="M229 -12q-115 0 -186 37l33 79q74 -36 132 -36q61 0 99 36t38 92q0 41 -24.5 73.5t-66.5 45.5q-44 14 -132 15v72q78 3 122 29q63 35 63 102q0 44 -26.5 70.5t-73.5 26.5q-67 0 -125 -38l-37 69q84 51 194 51q98 0 155 -42.5t57 -116.5q0 -58 -34 -103.5t-101 -70.5
q84 -9 131 -59.5t47 -121.5q0 -92 -74.5 -151t-190.5 -59z" />
    <glyph glyph-name="four.fitted" horiz-adv-x="595" 
d="M551 184h-95v-184h-125v184h-318v62l349 454h94v-430h95v-86zM331 270v274q-46 -70 -199 -274h199z" />
    <glyph glyph-name="five.fitted" horiz-adv-x="557" 
d="M483 700l-21 -96h-207l-34 -144q105 -16 165 -56q104 -67 104 -184q0 -102 -77 -167t-197 -65q-104 0 -205 66l47 87q80 -58 153 -58q56 0 93 35t37 91q0 96 -108 138q-67 26 -134 26h-12l86 327h310z" />
    <glyph glyph-name="six.fitted" horiz-adv-x="613" 
d="M306 -12q-114 0 -185 71t-71 184q0 126 66 230t170.5 164.5t227.5 74.5v-79q-97 -12 -181 -80.5t-111 -155.5q54 34 122 34q95 0 159 -58.5t64 -147.5q0 -101 -75 -169t-186 -68zM309 60q52 0 84 42.5t32 111.5q0 66 -31 105t-85 39q-52 0 -83.5 -38.5t-31.5 -104.5
q0 -69 31 -112t84 -43z" />
    <glyph glyph-name="seven.fitted" horiz-adv-x="543" 
d="M522 635l-332 -644l-127 31l312 582h-325v96h472v-65z" />
    <glyph glyph-name="eight.fitted" horiz-adv-x="613" 
d="M299 -12q-113 0 -184 55t-71 141q0 63 35 106.5t109 87.5q-57 33 -84.5 70t-27.5 91q0 85 68.5 129t159.5 44q99 0 161 -46t62 -114q0 -98 -129 -171q79 -36 122 -82t43 -113q0 -87 -74 -142.5t-190 -55.5zM301 61q49 0 83 35.5t34 86.5q0 89 -131 147q-99 -55 -99 -144
q0 -55 31 -90t82 -35zM302 426q95 46 95 123q0 38 -26 66t-70 28q-43 0 -68.5 -29t-25.5 -67q0 -77 95 -121z" />
    <glyph glyph-name="nine.fitted" horiz-adv-x="608" 
d="M274 267q-104 0 -168 61.5t-64 150.5q0 99 72.5 166t187.5 67q114 0 185.5 -68.5t71.5 -183.5q0 -86 -27.5 -160.5t-73.5 -127.5t-107 -93t-125.5 -62t-131.5 -29v81q99 14 181 75.5t112 155.5q-50 -33 -113 -33zM299 341q52 0 84 40t32 104q0 69 -31.5 111t-85.5 42
q-50 0 -82.5 -42t-32.5 -109q0 -66 32 -106t84 -40z" />
    <glyph glyph-name="percent.oldstyle" horiz-adv-x="1015" 
d="M230 248q-82 0 -134 60.5t-52 156.5q0 97 51.5 156.5t136.5 59.5q80 0 131 -59.5t51 -154.5q0 -97 -51 -158t-133 -61zM230 319q33 0 52 39t19 108q0 70 -19 109t-53 39q-33 0 -52.5 -39t-19.5 -108q0 -70 19.5 -109t53.5 -39zM785 -7q-82 0 -133 60.5t-51 156.5
q0 97 51 156.5t136 59.5q81 0 132 -60t51 -155q0 -97 -51.5 -157.5t-134.5 -60.5zM786 63q33 0 52.5 39.5t19.5 108.5q0 70 -19.5 109t-53.5 39q-33 0 -52 -39.5t-19 -108.5q0 -70 19 -109t53 -39zM750 676l-405 -676h-80l404 676h81z" />
    <glyph glyph-name="perthousand.oldstyle" horiz-adv-x="1453" 
d="M230 248q-82 0 -134 60.5t-52 156.5q0 97 51.5 156.5t136.5 59.5q80 0 131 -59.5t51 -154.5q0 -97 -51 -158t-133 -61zM230 319q33 0 52 39t19 108q0 70 -19 109t-53 39q-33 0 -52.5 -39t-19.5 -108q0 -70 19.5 -109t53.5 -39zM785 -7q-82 0 -133 60.5t-51 156.5
q0 97 51 156.5t136 59.5q81 0 132 -60t51 -155q0 -97 -51.5 -157.5t-134.5 -60.5zM786 63q33 0 52.5 39.5t19.5 108.5q0 70 -19.5 109t-53.5 39q-33 0 -52 -39.5t-19 -108.5q0 -70 19 -109t53 -39zM750 676l-405 -676h-80l404 676h81zM1224 -7q-82 0 -133.5 60.5
t-51.5 156.5q0 97 51.5 156.5t135.5 59.5q81 0 132 -60t51 -155q0 -97 -51.5 -157.5t-133.5 -60.5zM1225 63q33 0 52 39.5t19 108.5q0 70 -19 109t-54 39q-33 0 -52 -39.5t-19 -108.5t19.5 -108.5t53.5 -39.5z" />
    <glyph glyph-name="zero.taboldstyle" horiz-adv-x="575" 
d="M287 -12q-111 0 -185.5 74t-74.5 188q0 115 74 186.5t189 71.5q109 0 183 -73t74 -185q0 -114 -74 -188t-186 -74zM288 69q61 0 97.5 48.5t36.5 132.5q0 81 -37.5 129t-98.5 48q-60 0 -97 -48t-37 -129q0 -86 37.5 -133.5t98.5 -47.5z" />
    <glyph glyph-name="one.taboldstyle" horiz-adv-x="575" 
d="M371 0h-130v397l-110 -49l-23 81l162 73h101v-502z" />
    <glyph glyph-name="two.taboldstyle" horiz-adv-x="575" 
d="M487 0h-418v75l128 84q84 56 118.5 94.5t34.5 81.5q0 38 -25.5 63t-67.5 25q-72 0 -138 -72l-54 63q94 98 219 98q88 0 142 -44t54 -112q0 -93 -101 -173q-63 -50 -140 -97h248v-86z" />
    <glyph glyph-name="three.taboldstyle" horiz-adv-x="575" 
d="M228 -185q-106 0 -173 37l30 79q62 -32 129 -32q63 0 99.5 34.5t36.5 84.5q0 79 -76 108q-41 16 -131 17v80q75 6 111 26q64 33 64 92q0 36 -26 60t-72 24q-62 0 -120 -40l-34 73q85 54 182 54q91 0 145.5 -43.5t54.5 -110.5q0 -51 -35 -93t-100 -67q84 -15 127 -63
t43 -118q0 -85 -71 -143.5t-184 -58.5z" />
    <glyph glyph-name="four.taboldstyle" horiz-adv-x="575" 
d="M540 0h-94v-185h-120v185h-304v53l337 448h87v-414h94v-87zM326 87v260l-193 -260h193z" />
    <glyph glyph-name="five.taboldstyle" horiz-adv-x="575" 
d="M482 500l-19 -85h-195l-41 -138q78 -11 144 -49q111 -63 111 -184q0 -102 -73.5 -165.5t-184.5 -63.5q-101 0 -194 63l42 79q77 -56 144 -56q64 0 104 38t40 96q0 39 -19.5 69.5t-47.5 48t-66.5 29t-67.5 16t-60 6.5l89 296h294z" />
    <glyph glyph-name="six.taboldstyle" horiz-adv-x="575" 
d="M287 -12q-111 0 -176.5 70.5t-65.5 172.5q0 182 124 303q136 133 325 156v-76q-111 -14 -189 -77.5t-105 -157.5q54 42 121 42q91 0 151 -58.5t60 -142.5q0 -97 -70.5 -164.5t-174.5 -67.5zM289 60q52 0 82 39t30 106t-30 105.5t-83 38.5q-52 0 -81.5 -38.5t-29.5 -104.5
t31 -106t81 -40z" />
    <glyph glyph-name="seven.taboldstyle" horiz-adv-x="575" 
d="M530 441l-344 -626l-118 33l320 562h-293v90h420z" />
    <glyph glyph-name="eight.taboldstyle" horiz-adv-x="575" 
d="M287 -12q-108 0 -175 55t-67 139q0 110 145 188q-55 29 -83 64.5t-28 87.5q0 78 63 122.5t152 44.5q92 0 148 -44.5t56 -110.5q0 -97 -126 -161q157 -63 157 -188q0 -86 -71 -141.5t-171 -55.5zM292 623q-44 0 -70 -28t-26 -67q0 -74 92 -119q43 20 68 51.5t25 67.5
q0 41 -24.5 68t-64.5 27zM289 58q46 0 78.5 36t32.5 88q0 91 -127 143q-101 -52 -101 -139q0 -54 32 -91t85 -37z" />
    <glyph glyph-name="nine.taboldstyle" horiz-adv-x="575" 
d="M80 -185v76q230 32 294 215q-49 -39 -116 -39q-92 0 -154 58.5t-62 151.5q0 99 72.5 165t173.5 66q115 0 179 -69.5t64 -179.5q0 -97 -50.5 -189t-135.5 -150q-114 -89 -265 -105zM286 139q50 0 80.5 38.5t30.5 106.5q0 70 -30.5 112.5t-81.5 42.5q-48 0 -79.5 -42.5
t-31.5 -110.5q0 -69 31 -108t81 -39z" />
    <glyph glyph-name="zero.denominator" horiz-adv-x="422" 
d="M211 -7q-82 0 -133.5 61.5t-51.5 154.5q0 96 51.5 156.5t136.5 60.5q80 0 130.5 -60.5t50.5 -154.5q0 -95 -51 -156.5t-133 -61.5zM211 63q34 0 52.5 39t18.5 107q0 72 -18.5 111t-53.5 39q-34 0 -53 -39t-19 -109q0 -69 19.5 -108.5t53.5 -39.5z" />
    <glyph glyph-name="one.denominator" horiz-adv-x="304" 
d="M226 0h-112v345l-83 -31l-21 58l131 48h85v-420z" />
    <glyph glyph-name="two.denominator" horiz-adv-x="379" 
d="M345 0h-342v49q110 94 167 157q54 61 54 101q0 23 -15.5 36.5t-37.5 13.5q-38 0 -98 -46l-48 51q68 64 163 64q66 0 110 -30.5t44 -81.5q0 -39 -25 -74.5t-81 -87.5q-19 -18 -92 -79h201v-73z" />
    <glyph glyph-name="three.denominator" horiz-adv-x="360" 
d="M148 -8q-77 0 -133 26l29 61q51 -27 92 -27q32 0 52.5 18.5t20.5 48.5q0 50 -48 63q-28 9 -93 9v54q55 2 83 16q34 18 34 55q0 21 -13.5 34.5t-37.5 13.5q-39 0 -84 -28l-32 55q61 34 136 34q67 0 107 -26.5t40 -71.5q0 -63 -77 -99q51 -11 77 -39.5t26 -67.5
q0 -57 -50.5 -93t-128.5 -36z" />
    <glyph glyph-name="four.denominator" horiz-adv-x="409" 
d="M381 107h-65v-107h-95v107h-206v43l225 270h76v-254h65v-59zM221 166v153q-8 -11 -118 -153h118z" />
    <glyph glyph-name="five.denominator" horiz-adv-x="372" 
d="M335 420l-18 -68h-146l-20 -68q72 -5 115 -32q70 -43 70 -116q0 -63 -51 -103.5t-129 -40.5q-75 0 -149 44l39 65q57 -42 103 -42q30 0 51 20.5t21 50.5q0 54 -63 77q-45 16 -92 16h-10l61 197h218z" />
    <glyph glyph-name="six.denominator" horiz-adv-x="405" 
d="M199 -7q-78 0 -126.5 43t-48.5 112q0 111 94 189t224 91v-60q-58 -6 -111.5 -41t-74.5 -80q26 17 67 17q65 0 109 -36.5t44 -90.5q0 -61 -51 -102.5t-126 -41.5zM201 49q27 0 45 23t18 59q0 35 -17 56t-46 21q-28 0 -46 -21t-18 -56q0 -36 18 -59t46 -23z" />
    <glyph glyph-name="seven.denominator" horiz-adv-x="345" 
d="M330 372l-211 -379l-91 21l196 338h-199l-1 68h305z" />
    <glyph glyph-name="eight.denominator" horiz-adv-x="405" 
d="M200 -7q-77 0 -125.5 34t-48.5 87q0 35 23 61t70 51q-73 37 -73 93q0 53 47.5 80t109.5 27q68 0 110.5 -28.5t42.5 -70.5q0 -56 -82 -99q105 -43 105 -113q0 -53 -50 -87.5t-129 -34.5zM201 49q26 0 44 19t18 45q0 50 -70 79q-52 -28 -52 -77q0 -29 16.5 -47.5
t43.5 -18.5zM153 324q0 -45 48 -65q49 21 49 66q0 17 -13 32t-36 15q-21 0 -34.5 -14.5t-13.5 -33.5z" />
    <glyph glyph-name="nine.denominator" horiz-adv-x="397" 
d="M177 155q-70 0 -114 37t-44 92q0 61 49.5 101.5t127.5 40.5q76 0 125.5 -42t49.5 -111q0 -83 -50 -146.5t-120 -95.5t-149 -40v61q59 7 113 41.5t75 80.5q-28 -19 -63 -19zM194 212q27 0 45 21.5t18 54.5q0 38 -17 59.5t-46 21.5q-27 0 -45 -22t-18 -58q0 -35 17.5 -56
t45.5 -21z" />
    <glyph glyph-name="zero.numerator" horiz-adv-x="422" 
d="M211 273q-82 0 -133.5 61.5t-51.5 154.5q0 96 51.5 156.5t136.5 60.5q80 0 130.5 -60.5t50.5 -154.5q0 -95 -51 -156.5t-133 -61.5zM211 343q34 0 52.5 39t18.5 107q0 72 -18.5 111t-53.5 39q-34 0 -53 -39t-19 -109q0 -69 19.5 -108.5t53.5 -39.5z" />
    <glyph glyph-name="one.numerator" horiz-adv-x="304" 
d="M226 280h-112v345l-83 -31l-21 58l131 48h85v-420z" />
    <glyph glyph-name="two.numerator" horiz-adv-x="379" 
d="M345 280h-342v49q110 94 167 157q54 61 54 101q0 23 -15.5 36.5t-37.5 13.5q-38 0 -98 -46l-48 51q68 64 163 64q66 0 110 -30.5t44 -81.5q0 -39 -25 -74.5t-81 -87.5q-19 -18 -92 -79h201v-73z" />
    <glyph glyph-name="three.numerator" horiz-adv-x="360" 
d="M148 272q-77 0 -133 26l29 61q51 -27 92 -27q32 0 52.5 18.5t20.5 48.5q0 49 -48 63q-28 9 -93 9v54q55 2 83 16q34 18 34 55q0 21 -13.5 34.5t-37.5 13.5q-39 0 -84 -28l-32 55q61 34 136 34q67 0 107 -26.5t40 -71.5q0 -63 -77 -99q51 -11 77 -39.5t26 -67.5
q0 -57 -50.5 -93t-128.5 -36z" />
    <glyph glyph-name="four.numerator" horiz-adv-x="409" 
d="M381 387h-65v-107h-95v107h-206v43l225 270h76v-254h65v-59zM221 446v153q-8 -11 -118 -153h118z" />
    <glyph glyph-name="five.numerator" horiz-adv-x="372" 
d="M335 700l-18 -68h-146l-20 -68q72 -5 115 -32q70 -43 70 -116q0 -63 -51 -103.5t-129 -40.5q-75 0 -149 44l39 65q57 -42 103 -42q30 0 51 20.5t21 50.5q0 54 -63 77q-45 16 -92 16h-10l61 197h218z" />
    <glyph glyph-name="six.numerator" horiz-adv-x="405" 
d="M199 273q-78 0 -126.5 43t-48.5 112q0 111 94 189t224 91v-60q-58 -6 -111.5 -41t-74.5 -80q26 17 67 17q65 0 109 -36.5t44 -90.5q0 -61 -51 -102.5t-126 -41.5zM201 329q27 0 45 23t18 59q0 35 -17 56t-46 21q-28 0 -46 -21t-18 -56q0 -36 18 -59t46 -23z" />
    <glyph glyph-name="seven.numerator" horiz-adv-x="345" 
d="M330 652l-211 -379l-91 21l196 338h-199l-1 68h305z" />
    <glyph glyph-name="eight.numerator" horiz-adv-x="405" 
d="M200 273q-77 0 -125.5 34t-48.5 87q0 35 23 61t70 51q-73 37 -73 93q0 53 47.5 80t109.5 27q68 0 110.5 -28.5t42.5 -70.5q0 -56 -82 -99q105 -43 105 -113q0 -53 -50 -87.5t-129 -34.5zM201 329q26 0 44 19t18 45q0 50 -70 79q-52 -28 -52 -77q0 -29 16.5 -47.5
t43.5 -18.5zM153 604q0 -45 48 -65q49 21 49 66q0 17 -13 32t-36 15q-21 0 -34.5 -14.5t-13.5 -33.5z" />
    <glyph glyph-name="nine.numerator" horiz-adv-x="397" 
d="M177 435q-70 0 -114 37t-44 92q0 61 49.5 101.5t127.5 40.5q76 0 125.5 -42t49.5 -111q0 -83 -50 -146.5t-120 -95.5t-149 -40v61q59 7 113 41.5t75 80.5q-28 -19 -63 -19zM194 492q27 0 45 21.5t18 54.5q0 38 -17 59.5t-46 21.5q-27 0 -45 -22t-18 -58q0 -35 17.5 -56
t45.5 -21z" />
    <glyph glyph-name="abreve.sc" horiz-adv-x="593" 
d="M582 0h-139l-51 148h-211l-56 -148h-115l235 550h120zM369 221l-77 227l-85 -227h162zM304 608q-57 0 -99 30t-61 81q-11 30 -14 64h54q14 -44 45.5 -68.5t74.5 -24.5t75 24.5t45 68.5h55q-5 -48 -20 -78q-46 -97 -155 -97z" />
    <glyph glyph-name="amacron.sc" horiz-adv-x="593" 
d="M582 0h-139l-51 148h-211l-56 -148h-115l235 550h120zM369 221l-77 227l-85 -227h162zM460 648h-311v78h311v-78z" />
    <glyph glyph-name="aogonek.sc" horiz-adv-x="593" 
d="M465 -226q-53 0 -83.5 24.5t-30.5 73.5q0 78 92 128l-51 148h-211l-56 -148h-115l235 550h120l217 -550h-42q-40 0 -73.5 -34t-33.5 -76q0 -56 68 -56q31 0 61 10l18 -46q-61 -24 -115 -24zM369 221l-77 227l-85 -227h162z" />
    <glyph glyph-name="aeacute.sc" horiz-adv-x="765" 
d="M347 631l211 189l78 -70l-251 -137zM727 0h-359v148h-170l-80 -148h-114l325 550h362v-84h-188v-137h184v-84h-184v-161h224v-84zM368 221v248l-132 -248h132z" />
    <glyph glyph-name="cacute.sc" horiz-adv-x="602" 
d="M524 109l34 -78q-82 -41 -175 -41q-142 0 -235.5 78t-93.5 206q0 125 92.5 205.5t233.5 80.5q99 0 183 -47l-38 -75q-72 36 -128 36q-86 0 -143 -54t-57 -144q0 -86 55.5 -142t144.5 -56q60 0 127 31zM269 631l211 189l78 -70l-251 -137z" />
    <glyph glyph-name="ccaron.sc" horiz-adv-x="602" 
d="M524 109l34 -78q-82 -41 -175 -41q-142 0 -235.5 78t-93.5 206q0 125 92.5 205.5t233.5 80.5q99 0 183 -47l-38 -75q-72 36 -128 36q-86 0 -143 -54t-57 -144q0 -86 55.5 -142t144.5 -56q60 0 127 31zM514 787l-136 -182h-68l-136 182h59l110 -103l111 103h60z" />
    <glyph glyph-name="ccircumflex.sc" horiz-adv-x="602" 
d="M524 109l34 -78q-82 -41 -175 -41q-142 0 -235.5 78t-93.5 206q0 125 92.5 205.5t233.5 80.5q99 0 183 -47l-38 -75q-72 36 -128 36q-86 0 -143 -54t-57 -144q0 -86 55.5 -142t144.5 -56q60 0 127 31zM515 605h-60l-111 102l-110 -102h-59l136 182h68z" />
    <glyph glyph-name="cdotaccent.sc" horiz-adv-x="602" 
d="M524 109l34 -78q-82 -41 -175 -41q-142 0 -235.5 78t-93.5 206q0 125 92.5 205.5t233.5 80.5q99 0 183 -47l-38 -75q-72 36 -128 36q-86 0 -143 -54t-57 -144q0 -86 55.5 -142t144.5 -56q60 0 127 31zM345 628q-26 0 -45.5 19t-19.5 45q0 28 19.5 47t46.5 19
q26 0 45 -19.5t19 -45.5q0 -27 -19 -46t-46 -19z" />
    <glyph glyph-name="dcaron.sc" horiz-adv-x="657" 
d="M602 289q0 -78 -33.5 -142t-95.5 -102q-78 -45 -224 -45h-161v550h159q94 0 152 -11.5t102 -42.5q101 -69 101 -207zM457 286q0 108 -64 152q-41 28 -139 28h-32v-382h29q61 0 93 8.5t58 31.5q55 49 55 162zM492 787l-136 -182h-68l-136 182h59l110 -103l111 103h60z" />
    <glyph glyph-name="dcroat.sc" horiz-adv-x="657" 
d="M603 289q0 -78 -33.5 -142t-95.5 -102q-78 -45 -225 -45h-161v237h-86v81h86v232h159q95 0 153 -11.5t102 -42.5q101 -70 101 -207zM319 237h-97v-153h30q60 0 92 8.5t58 31.5q56 50 56 162q0 110 -63 153q-40 27 -140 27h-33v-148h97v-81z" />
    <glyph glyph-name="ebreve.sc" horiz-adv-x="490" 
d="M448 0h-360v550h324v-84h-190v-137h185v-84h-185v-161h226v-84zM250 608q-57 0 -99 30t-61 81q-11 30 -14 64h54q14 -44 45.5 -68.5t74.5 -24.5t75 24.5t45 68.5h55q-5 -48 -20 -78q-46 -97 -155 -97z" />
    <glyph glyph-name="ecaron.sc" horiz-adv-x="490" 
d="M448 0h-360v550h324v-84h-190v-137h185v-84h-185v-161h226v-84zM420 787l-136 -182h-68l-136 182h59l110 -103l111 103h60z" />
    <glyph glyph-name="edotaccent.sc" horiz-adv-x="490" 
d="M448 0h-360v550h324v-84h-190v-137h185v-84h-185v-161h226v-84zM250 628q-26 0 -45.5 19t-19.5 45q0 28 19.5 47t46.5 19q26 0 45 -19.5t19 -45.5q0 -27 -19 -46t-46 -19z" />
    <glyph glyph-name="emacron.sc" horiz-adv-x="490" 
d="M448 0h-360v550h324v-84h-190v-137h185v-84h-185v-161h226v-84zM405 648h-311v78h311v-78z" />
    <glyph glyph-name="eng.sc" horiz-adv-x="701" 
d="M613 550v-573q0 -130 -46.5 -178.5t-145.5 -48.5v46q26 6 41 18.5t22 38.5t8.5 51t1.5 74v37l-287 354v-369h-119v550h110l296 -367v367h119z" />
    <glyph glyph-name="eogonek.sc" horiz-adv-x="490" 
d="M323 -226q-53 0 -83.5 24.5t-30.5 73.5q0 79 92 128h-213v550h324v-84h-190v-137h185v-84h-185v-161h226v-84h-60q-39 -8 -68 -40t-29 -70q0 -56 68 -56q31 0 61 10l18 -46q-61 -24 -115 -24z" />
    <glyph glyph-name="gbreve.sc" horiz-adv-x="655" 
d="M590 254v-228q-88 -36 -196 -36q-148 0 -244 79.5t-96 208.5q0 124 96.5 203t243.5 79q94 0 173 -41l-40 -76q-60 30 -118 30q-95 0 -153.5 -54t-58.5 -144q0 -88 55 -142.5t138 -54.5q36 0 68 13v163h132zM370 608q-57 0 -99 30t-61 81q-11 30 -14 64h54
q14 -44 45.5 -68.5t74.5 -24.5t75 24.5t45 68.5h55q-5 -48 -20 -78q-46 -97 -155 -97z" />
    <glyph glyph-name="gcircumflex.sc" horiz-adv-x="655" 
d="M590 254v-228q-88 -36 -196 -36q-148 0 -244 79.5t-96 208.5q0 124 96.5 203t243.5 79q94 0 173 -41l-40 -76q-60 30 -118 30q-95 0 -153.5 -54t-58.5 -144q0 -88 55 -142.5t138 -54.5q36 0 68 13v163h132zM541 605h-60l-111 102l-110 -102h-59l136 182h68z" />
    <glyph glyph-name="gcommaaccent.sc" horiz-adv-x="655" 
d="M590 254v-228q-88 -36 -196 -36q-148 0 -244 79.5t-96 208.5q0 124 96.5 203t243.5 79q94 0 173 -41l-40 -76q-60 30 -118 30q-95 0 -153.5 -54t-58.5 -144q0 -88 55 -142.5t138 -54.5q36 0 68 13v163h132zM338 -250l-45 22l32 82q0 6 -9 21t-9 30q0 20 17.5 36.5
t43.5 16.5q30 0 47 -17.5t17 -40.5q0 -30 -33 -73z" />
    <glyph glyph-name="gdotaccent.sc" horiz-adv-x="655" 
d="M590 254v-228q-88 -36 -196 -36q-148 0 -244 79.5t-96 208.5q0 124 96.5 203t243.5 79q94 0 173 -41l-40 -76q-60 30 -118 30q-95 0 -153.5 -54t-58.5 -144q0 -88 55 -142.5t138 -54.5q36 0 68 13v163h132zM375 628q-26 0 -45.5 19t-19.5 45q0 28 19.5 47t46.5 19
q26 0 45 -19.5t19 -45.5q0 -27 -19 -46t-46 -19z" />
    <glyph glyph-name="hbar.sc" horiz-adv-x="675" 
d="M587 0h-134v260h-231v-260h-134v413h-58v75h58v62h134v-62h231v62h134v-62h57v-75h-57v-413zM222 345h231v68h-231v-68z" />
    <glyph glyph-name="hcircumflex.sc" horiz-adv-x="675" 
d="M587 0h-134v260h-231v-260h-134v550h134v-205h231v205h134v-550zM507 605h-60l-111 102l-110 -102h-59l136 182h68z" />
    <glyph glyph-name="ibreve.sc" horiz-adv-x="310" 
d="M222 0h-134v550h134v-550zM154 608q-57 0 -99 30t-61 81q-11 30 -14 64h54q14 -44 45.5 -68.5t74.5 -24.5t75 24.5t45 68.5h55q-5 -48 -20 -78q-46 -97 -155 -97z" />
    <glyph glyph-name="ij.sc" horiz-adv-x="620" 
d="M222 0h-134v550h134v-550zM532 550v-473q0 -90 -17 -130q-19 -43 -65 -67.5t-112 -24.5v68q41 12 50.5 38t9.5 105v484h134z" />
    <glyph glyph-name="imacron.sc" horiz-adv-x="310" 
d="M222 0h-134v550h134v-550zM311 648h-311v78h311v-78z" />
    <glyph glyph-name="iogonek.sc" horiz-adv-x="310" 
d="M154 -226q-52 0 -82.5 24.5t-30.5 73.5q0 78 91 128h-44v550h134v-550q-42 -8 -70.5 -40.5t-28.5 -69.5q0 -56 68 -56q31 0 61 10l17 -46q-59 -24 -115 -24z" />
    <glyph glyph-name="itilde.sc" horiz-adv-x="310" 
d="M222 0h-134v550h134v-550zM218 630q-28 0 -79 24q-46 22 -63 22q-39 0 -57 -46h-47q10 42 22 65q31 58 93 58q30 0 76 -23q47 -22 65 -22q45 0 63 52h46q-6 -40 -18 -63q-33 -67 -101 -67z" />
    <glyph glyph-name="jcircumflex.sc" horiz-adv-x="330" 
d="M242 550v-473q0 -90 -17 -130q-19 -43 -65 -67.5t-112 -24.5v68q41 12 50.5 38t9.5 105v484h134zM345 605h-60l-111 102l-110 -102h-59l136 182h68z" />
    <glyph glyph-name="kcommaaccent.sc" horiz-adv-x="587" 
d="M576 22l-136 -33l-218 278v-267h-134v550h134v-228l207 238l107 -38l-200 -219zM283 -250l-45 22l32 82q0 6 -9 21t-9 30q0 20 17.5 36.5t43.5 16.5q30 0 47 -17.5t17 -40.5q0 -30 -33 -73z" />
    <glyph glyph-name="lacute.sc" horiz-adv-x="465" 
d="M454 0h-366v550h134v-466h232v-84zM78 631l211 189l78 -70l-251 -137z" />
    <glyph glyph-name="lcaron.sc" horiz-adv-x="465" 
d="M454 0h-366v550h134v-466h232v-84zM332 377l-49 5q7 54 7 110q0 49 -5 89l95 -9q-5 -90 -48 -195z" />
    <glyph glyph-name="lcommaaccent.sc" horiz-adv-x="465" 
d="M454 0h-366v550h134v-466h232v-84zM238 -250l-45 22l32 82q0 6 -9 21t-9 30q0 20 17.5 36.5t43.5 16.5q30 0 47 -17.5t17 -40.5q0 -30 -33 -73z" />
    <glyph glyph-name="ldot.sc" horiz-adv-x="465" 
d="M454 0h-366v550h134v-466h232v-84zM377 248q-26 0 -45.5 19t-19.5 45q0 28 19.5 47t46.5 19q26 0 45 -19.5t19 -45.5q0 -27 -19 -46t-46 -19z" />
    <glyph glyph-name="nacute.sc" horiz-adv-x="701" 
d="M613 0h-105l-301 369v-369h-119v550h110l296 -367v367h119v-550zM278 631l211 189l78 -70l-251 -137z" />
    <glyph glyph-name="ncaron.sc" horiz-adv-x="701" 
d="M613 0h-105l-301 369v-369h-119v550h110l296 -367v367h119v-550zM527 787l-136 -182h-68l-136 182h59l110 -103l111 103h60z" />
    <glyph glyph-name="ncommaaccent.sc" horiz-adv-x="701" 
d="M613 0h-105l-301 369v-369h-119v550h110l296 -367v367h119v-550zM318 -250l-45 22l32 82q0 6 -9 21t-9 30q0 20 17.5 36.5t43.5 16.5q30 0 47 -17.5t17 -40.5q0 -30 -33 -73z" />
    <glyph glyph-name="obreve.sc" horiz-adv-x="697" 
d="M643 280q0 -124 -80 -207t-214 -83q-133 0 -214 82.5t-81 206.5q0 123 84 202t218 79q123 0 205 -80t82 -200zM500 272q0 96 -40.5 149t-112.5 53q-68 0 -109 -53.5t-41 -147.5q0 -91 41 -143.5t111 -52.5q69 0 110 52.5t41 142.5zM348 608q-57 0 -99 30t-61 81
q-11 30 -14 64h54q14 -44 45.5 -68.5t74.5 -24.5t75 24.5t45 68.5h55q-5 -48 -20 -78q-46 -97 -155 -97z" />
    <glyph glyph-name="ohungarumlaut.sc" horiz-adv-x="697" 
d="M643 280q0 -124 -80 -207t-214 -83q-133 0 -214 82.5t-81 206.5q0 123 84 202t218 79q123 0 205 -80t82 -200zM500 272q0 96 -40.5 149t-112.5 53q-68 0 -109 -53.5t-41 -147.5q0 -91 41 -143.5t111 -52.5q69 0 110 52.5t41 142.5zM620 745l-206 -143h-68l198 202z
M413 745l-206 -143h-68l198 202z" />
    <glyph glyph-name="omacron.sc" horiz-adv-x="697" 
d="M643 280q0 -124 -80 -207t-214 -83q-133 0 -214 82.5t-81 206.5q0 123 84 202t218 79q123 0 205 -80t82 -200zM500 272q0 96 -40.5 149t-112.5 53q-68 0 -109 -53.5t-41 -147.5q0 -91 41 -143.5t111 -52.5q69 0 110 52.5t41 142.5zM505 648h-311v78h311v-78z" />
    <glyph glyph-name="oslashacute.sc" horiz-adv-x="697" 
d="M271 631l211 189l78 -70l-251 -137zM643 280q0 -124 -80 -207t-214 -83q-130 0 -212 79l-92 -74l-39 48l92 74q-44 70 -44 162q0 123 84 202t218 79q121 0 201 -77l97 79l40 -47l-97 -79q46 -70 46 -156zM504 272q0 41 -15 81l-261 -212q40 -66 121 -66q71 0 113 53
t42 144zM195 273q0 -39 13 -71l260 210q-42 63 -121 63q-70 0 -111 -53.5t-41 -148.5z" />
    <glyph glyph-name="racute.sc" horiz-adv-x="572" 
d="M547 12l-140 -22l-119 231h-66v-221h-134v550h185q122 0 175 -37q64 -42 64 -116q0 -99 -109 -153zM375 389q0 41 -35 65q-25 17 -80 17h-38v-177h41q58 0 83 24q29 27 29 71zM208 631l211 189l78 -70l-251 -137z" />
    <glyph glyph-name="rcaron.sc" horiz-adv-x="572" 
d="M547 12l-140 -22l-119 231h-66v-221h-134v550h185q122 0 175 -37q64 -42 64 -116q0 -99 -109 -153zM375 389q0 41 -35 65q-25 17 -80 17h-38v-177h41q58 0 83 24q29 27 29 71zM457 787l-136 -182h-68l-136 182h59l110 -103l111 103h60z" />
    <glyph glyph-name="rcommaaccent.sc" horiz-adv-x="572" 
d="M547 12l-140 -22l-119 231h-66v-221h-134v550h185q122 0 175 -37q64 -42 64 -116q0 -99 -109 -153zM375 389q0 41 -35 65q-25 17 -80 17h-38v-177h41q58 0 83 24q29 27 29 71zM275 -250l-45 22l32 82q0 6 -9 21t-9 30q0 20 17.5 36.5t43.5 16.5q30 0 47 -17.5t17 -40.5
q0 -30 -33 -73z" />
    <glyph glyph-name="sacute.sc" horiz-adv-x="487" 
d="M428 147q0 -71 -60.5 -114t-150.5 -43q-101 0 -177 55l48 78q60 -52 117 -52q36 0 59.5 20.5t23.5 49.5q0 38 -48 77q-17 15 -55.5 43.5t-56.5 44.5q-36 30 -50.5 56.5t-14.5 59.5q0 64 55.5 101t138.5 37q89 0 152 -45l-43 -70q-53 35 -94 35q-33 0 -51 -15t-18 -39
q0 -16 9.5 -28.5t34.5 -33.5l100 -81q45 -37 63 -67.5t18 -68.5zM164 631l211 189l78 -70l-251 -137z" />
    <glyph glyph-name="scedilla.sc" horiz-adv-x="487" 
d="M195 -237q-41 0 -89 14l18 45q38 -11 67 -11q55 0 55 39q0 37 -49 37q-15 0 -33 -3l-9 7l42 100q-89 4 -157 54l47 78q61 -52 118 -52q36 0 59.5 20.5t23.5 49.5q0 37 -48 77q-17 15 -55.5 43.5t-56.5 44.5q-36 30 -50.5 56.5t-14.5 59.5q0 64 55.5 101t138.5 37
q87 0 152 -45l-44 -70q-52 35 -94 35q-33 0 -50.5 -15t-17.5 -39q0 -16 9.5 -28.5t33.5 -33.5l101 -81q45 -37 63 -67.5t18 -68.5q0 -65 -50.5 -106.5t-129.5 -49.5l-24 -61q22 2 25 2q36 0 58.5 -20t22.5 -53q0 -42 -38 -69t-97 -27z" />
    <glyph glyph-name="scircumflex.sc" horiz-adv-x="487" 
d="M428 147q0 -71 -60.5 -114t-150.5 -43q-101 0 -177 55l48 78q60 -52 117 -52q36 0 59.5 20.5t23.5 49.5q0 38 -48 77q-17 15 -55.5 43.5t-56.5 44.5q-36 30 -50.5 56.5t-14.5 59.5q0 64 55.5 101t138.5 37q89 0 152 -45l-43 -70q-53 35 -94 35q-33 0 -51 -15t-18 -39
q0 -16 9.5 -28.5t34.5 -33.5l100 -81q45 -37 63 -67.5t18 -68.5zM412 605h-60l-111 102l-110 -102h-59l136 182h68z" />
    <glyph glyph-name="scommaaccent.sc" horiz-adv-x="487" 
d="M428 147q0 -71 -60.5 -114t-150.5 -43q-101 0 -177 55l48 78q60 -52 117 -52q36 0 59.5 20.5t23.5 49.5q0 38 -48 77q-17 15 -55.5 43.5t-56.5 44.5q-36 30 -50.5 56.5t-14.5 59.5q0 64 55.5 101t138.5 37q89 0 152 -45l-43 -70q-53 35 -94 35q-33 0 -51 -15t-18 -39
q0 -16 9.5 -28.5t34.5 -33.5l100 -81q45 -37 63 -67.5t18 -68.5zM196 -250l-45 22l32 82q0 6 -9 21t-9 30q0 20 17.5 36.5t43.5 16.5q30 0 47 -17.5t17 -40.5q0 -30 -33 -73z" />
    <glyph glyph-name="tbar.sc" horiz-adv-x="518" 
d="M510 466h-185v-194h88v-75h-88v-197h-134v197h-88v75h88v194h-183v84h502v-84z" />
    <glyph glyph-name="tcaron.sc" horiz-adv-x="518" 
d="M510 466h-185v-466h-134v466h-183v84h502v-84zM429 787l-136 -182h-68l-136 182h59l110 -103l111 103h60z" />
    <glyph glyph-name="uni0163.sc" horiz-adv-x="518" 
d="M510 466h-185v-466h-134v466h-183v84h502v-84zM229 -250l-45 22l32 82q0 6 -9 21t-9 30q0 20 17.5 36.5t43.5 16.5q30 0 47 -17.5t17 -40.5q0 -30 -33 -73z" />
    <glyph glyph-name="uni021B.sc" horiz-adv-x="518" 
d="M510 466h-185v-466h-134v466h-183v84h502v-84zM229 -250l-45 22l32 82q0 6 -9 21t-9 30q0 20 17.5 36.5t43.5 16.5q30 0 47 -17.5t17 -40.5q0 -30 -33 -73z" />
    <glyph glyph-name="ubreve.sc" horiz-adv-x="643" 
d="M569 550v-307q0 -61 -5.5 -89t-21.5 -56q-25 -52 -83.5 -80t-138.5 -28q-155 0 -213 89q-19 30 -26 63.5t-7 107.5v300h134v-291q0 -95 23 -133q28 -49 92 -49q38 0 66 18t41 49q15 33 15 111v295h124zM324 608q-57 0 -99 30t-61 81q-11 30 -14 64h54q14 -44 45.5 -68.5
t74.5 -24.5t75 24.5t45 68.5h55q-5 -48 -20 -78q-46 -97 -155 -97z" />
    <glyph glyph-name="uhungarumlaut.sc" horiz-adv-x="643" 
d="M569 550v-307q0 -61 -5.5 -89t-21.5 -56q-25 -52 -83.5 -80t-138.5 -28q-155 0 -213 89q-19 30 -26 63.5t-7 107.5v300h134v-291q0 -95 23 -133q28 -49 92 -49q38 0 66 18t41 49q15 33 15 111v295h124zM587 745l-206 -143h-68l198 202zM380 745l-206 -143h-68l198 202z
" />
    <glyph glyph-name="umacron.sc" horiz-adv-x="643" 
d="M569 550v-307q0 -61 -5.5 -89t-21.5 -56q-25 -52 -83.5 -80t-138.5 -28q-155 0 -213 89q-19 30 -26 63.5t-7 107.5v300h134v-291q0 -95 23 -133q28 -49 92 -49q38 0 66 18t41 49q15 33 15 111v295h124zM475 648h-311v78h311v-78z" />
    <glyph glyph-name="uogonek.sc" horiz-adv-x="643" 
d="M374 -226q-53 0 -83.5 24.5t-30.5 73.5q0 72 79 119q-12 -1 -19 -1q-155 0 -213 89q-19 30 -26 63.5t-7 107.5v300h134v-291q0 -96 22 -133q28 -49 93 -49q38 0 66 18t41 49q14 31 14 111v295h125v-307q0 -61 -5.5 -89t-22.5 -56q-29 -64 -115 -97q-38 -15 -61 -46.5
t-23 -64.5q0 -56 68 -56q31 0 61 10l18 -46q-61 -24 -115 -24z" />
    <glyph glyph-name="uring.sc" horiz-adv-x="643" 
d="M437 715q0 -46 -32 -78t-78 -32q-45 0 -77.5 32.5t-32.5 77.5q0 46 32.5 78t79.5 32q44 0 76 -32.5t32 -77.5zM377 715q0 21 -14.5 36t-36.5 15q-19 0 -33.5 -15.5t-14.5 -35.5q0 -21 14.5 -36.5t34.5 -15.5q21 0 35.5 15.5t14.5 36.5zM569 550v-307q0 -61 -5.5 -89
t-21.5 -56q-25 -52 -83.5 -80t-138.5 -28q-155 0 -213 89q-19 30 -26 63.5t-7 107.5v300h134v-291q0 -95 23 -133q28 -49 92 -49q38 0 66 18t41 49q15 33 15 111v295h124z" />
    <glyph glyph-name="utilde.sc" horiz-adv-x="643" 
d="M569 550v-307q0 -61 -5.5 -89t-21.5 -56q-25 -52 -83.5 -80t-138.5 -28q-155 0 -213 89q-19 30 -26 63.5t-7 107.5v300h134v-291q0 -95 23 -133q28 -49 92 -49q38 0 66 18t41 49q15 33 15 111v295h124zM387 630q-28 0 -79 24q-46 22 -63 22q-39 0 -57 -46h-47
q10 42 22 65q31 58 93 58q30 0 76 -23q47 -22 65 -22q45 0 63 52h46q-6 -40 -18 -63q-33 -67 -101 -67z" />
    <glyph glyph-name="wacute.sc" horiz-adv-x="819" 
d="M815 543l-166 -543h-125l-118 384l-123 -384h-122l-157 543l143 15l98 -403l124 395h105l118 -398l108 406zM342 631l211 189l78 -70l-251 -137z" />
    <glyph glyph-name="wcircumflex.sc" horiz-adv-x="819" 
d="M815 543l-166 -543h-125l-118 384l-123 -384h-122l-157 543l143 15l98 -403l124 395h105l118 -398l108 406zM591 605h-60l-111 102l-110 -102h-59l136 182h68z" />
    <glyph glyph-name="wdieresis.sc" horiz-adv-x="819" 
d="M815 543l-166 -543h-125l-118 384l-123 -384h-122l-157 543l143 15l98 -403l124 395h105l118 -398l108 406zM532 629q-26 0 -44 18.5t-18 43.5q0 26 18.5 44.5t44.5 18.5q25 0 43 -18.5t18 -43.5q0 -26 -18 -44.5t-44 -18.5zM311 629q-26 0 -44 18.5t-18 44.5t18.5 44
t44.5 18q25 0 43 -18t18 -44t-18 -44.5t-44 -18.5z" />
    <glyph glyph-name="wgrave.sc" horiz-adv-x="819" 
d="M815 543l-166 -543h-125l-118 384l-123 -384h-122l-157 543l143 15l98 -403l124 395h105l118 -398l108 406zM494 633l-36 -20l-252 137l77 70z" />
    <glyph glyph-name="ycircumflex.sc" horiz-adv-x="506" 
d="M503 544l-192 -315v-229h-135v229l-173 308l139 21l118 -242l135 242zM434 605h-60l-111 102l-110 -102h-59l136 182h68z" />
    <glyph glyph-name="ygrave.sc" horiz-adv-x="506" 
d="M503 544l-192 -315v-229h-135v229l-173 308l139 21l118 -242l135 242zM339 633l-36 -20l-252 137l77 70z" />
    <glyph glyph-name="zacute.sc" horiz-adv-x="525" 
d="M505 0h-486v43l301 423h-244v84h421v-41l-297 -425h305v-84zM207 631l211 189l78 -70l-251 -137z" />
    <glyph glyph-name="zdotaccent.sc" horiz-adv-x="525" 
d="M505 0h-486v43l301 423h-244v84h421v-41l-297 -425h305v-84zM285 628q-26 0 -45.5 19t-19.5 45q0 28 19.5 47t46.5 19q26 0 45 -19.5t19 -45.5q0 -27 -19 -46t-46 -19z" />
    <glyph glyph-name="idotaccent.sc" horiz-adv-x="310" 
d="M222 0h-134v550h134v-550zM155 628q-26 0 -45.5 19t-19.5 45q0 28 19.5 47t46.5 19q26 0 45 -19.5t19 -45.5q0 -27 -19 -46t-46 -19z" />
    <glyph glyph-name="parenleft.cap" horiz-adv-x="433" 
d="M371 -73l-52 -46q-256 180 -256 465q0 280 256 474l52 -45q-90 -80 -142.5 -194.5t-52.5 -234.5q0 -121 51.5 -230.5t143.5 -188.5z" />
    <glyph glyph-name="parenright.cap" horiz-adv-x="433" 
d="M366 356q0 -278 -256 -475l-52 47q90 79 142.5 193.5t52.5 234.5q0 121 -51.5 230.5t-143.5 188.5l52 45q122 -84 189 -202t67 -262z" />
    <glyph glyph-name="bracketleft.cap" horiz-adv-x="422" 
d="M360 -111h-246v925h246v-67h-137v-791h137v-67z" />
    <glyph glyph-name="bracketright.cap" horiz-adv-x="422" 
d="M304 -111h-246v67h137v791h-137v67h246v-925z" />
    <glyph glyph-name="braceleft.cap" horiz-adv-x="404" 
d="M333 -55v-60q-113 0 -153.5 50.5t-40.5 169.5v89q0 61 -15.5 90t-63.5 44v51q50 15 64 43.5t14 90.5v95q0 111 44 161.5t151 51.5v-60q-49 -9 -68 -37.5t-19 -81.5v-56q0 -121 -9 -149q-14 -49 -69 -85q57 -37 70 -86q8 -26 8 -149v-53q0 -55 20 -82.5t67 -36.5z" />
    <glyph glyph-name="braceright.cap" horiz-adv-x="404" 
d="M340 378v-50q-50 -15 -64.5 -44.5t-14.5 -90.5v-94q0 -112 -44 -162.5t-151 -51.5v60q50 10 68.5 38t18.5 82v55q0 121 9 149q14 51 69 85q-55 36 -70 87q-8 25 -8 148v53q0 55 -19.5 82.5t-67.5 36.5v60q113 0 154 -50.5t41 -168.5v-90q0 -61 15 -90t64 -44z" />
    <glyph glyph-name="exclamdown.cap" horiz-adv-x="360" 
d="M251 3h-142l31 530h81zM180 595q-32 0 -54 21.5t-22 52.5q0 34 21.5 55.5t55.5 21.5q32 0 53 -21.5t21 -53.5q0 -33 -21.5 -54.5t-53.5 -21.5z" />
    <glyph glyph-name="questiondown.cap" horiz-adv-x="502" 
d="M276 592q-32 0 -54 21.5t-22 53.5q0 34 21.5 55.5t55.5 21.5q31 0 52.5 -22t21.5 -54t-21.5 -54t-53.5 -22zM393 152l54 -59q-44 -49 -92 -71t-113 -22q-51 0 -95.5 14t-78 51t-33.5 91q0 58 39 116q9 14 75 95q39 47 56 80.5t20 74.5h103q1 -9 1 -19q0 -38 -16 -77
t-53 -98q-5 -8 -23 -33.5t-23 -33.5t-14.5 -26.5t-12.5 -32.5t-3 -31q0 -39 24 -62t64 -23q34 0 59 14t62 52z" />
    <glyph glyph-name="guillemotleft.cap" horiz-adv-x="520" 
d="M265 198l-53 -35l-199 179l183 185l55 -32l-113 -151zM475 198l-54 -35l-198 179l183 185l54 -32l-113 -151z" />
    <glyph glyph-name="guillemotright.cap" horiz-adv-x="520" 
d="M294 348l-182 -185l-55 31l113 152l-128 145l54 36zM504 348l-183 -185l-55 31l114 152l-129 145l55 36z" />
    <glyph glyph-name="guilsinglleft.cap" horiz-adv-x="311" 
d="M266 198l-54 -35l-198 179l183 185l54 -32l-113 -151z" />
    <glyph glyph-name="guilsinglright.cap" horiz-adv-x="311" 
d="M294 348l-183 -186l-55 32l114 152l-128 145l54 35z" />
    <glyph glyph-name="hyphen.cap" horiz-adv-x="336" 
d="M298 305h-263v84h263v-84z" />
    <glyph glyph-name="endash.cap" horiz-adv-x="612" 
d="M600 304h-600v82h600v-82z" />
    <glyph glyph-name="emdash.cap" horiz-adv-x="881" 
d="M828 304h-790v82h790v-82z" />
    <glyph glyph-name="periodcentered.cap" horiz-adv-x="301" 
d="M149 285q-32 0 -54 21.5t-22 52.5q0 34 21.5 56t55.5 22q32 0 53.5 -22t21.5 -54t-21.5 -54t-54.5 -22z" />
    <glyph glyph-name="sterling.oldstyle" horiz-adv-x="619" 
d="M533 113l48 -66q-72 -59 -154 -59q-39 0 -92 6q-119 15 -183 15q-36 0 -115 -9v71q55 21 76.5 53.5t33.5 114.5l13 88h-102v67h108l8 59q19 119 76 175q62 62 162 62q95 0 161 -68l-49 -51q-47 39 -99 39q-60 0 -90 -47q-25 -37 -33 -109l-7 -60h145v-67h-151l-7 -55
q-14 -125 -67 -172q23 0 94 -9q117 -13 125 -13q49 0 99 35z" />
    <glyph glyph-name="f_i.sc" horiz-adv-x="749" 
d="M412 466h-190v-153h186v-84h-186v-229h-134v550h324v-84zM661 0h-134v550h134v-550z" />
    <glyph glyph-name="f_l.sc" horiz-adv-x="904" 
d="M412 466h-190v-153h186v-84h-186v-229h-134v550h324v-84zM893 0h-366v550h134v-466h232v-84z" />
    <glyph glyph-name="germandbls.sc" horiz-adv-x="948" 
d="M428 147q0 -71 -60.5 -114t-150.5 -43q-101 0 -177 55l47 78q61 -52 118 -52q36 0 59.5 20.5t23.5 49.5q0 37 -48 77q-17 15 -55.5 43.5t-56.5 44.5q-36 30 -50.5 56.5t-14.5 59.5q0 64 55.5 101t138.5 37q87 0 152 -45l-44 -70q-52 35 -94 35q-33 0 -50.5 -15t-17.5 -39
q0 -16 9.5 -28.5t33.5 -33.5l101 -81q45 -37 63 -67.5t18 -68.5zM889 147q0 -71 -60.5 -114t-149.5 -43q-101 0 -177 55l47 78q60 -52 118 -52q36 0 59 20.5t23 49.5q0 38 -48 77q-18 16 -56 44.5t-56 43.5q-36 30 -50 56.5t-14 59.5q0 64 55 101t138 37q88 0 153 -45
l-44 -70q-52 35 -94 35q-33 0 -51 -15.5t-18 -38.5q0 -16 9.5 -28.5t34.5 -33.5l101 -81q44 -37 62 -67.5t18 -68.5z" />
    <glyph glyph-name="florin.oldstyle" horiz-adv-x="619" 
d="M563 660l-33 -64q-28 11 -50 11q-39 0 -58 -22q-18 -23 -29 -74l-19 -89h118l-14 -65h-118l-77 -374q-20 -93 -65 -138q-54 -54 -139 -54q-56 0 -95 21l33 63q25 -11 52 -11q45 0 66 39q13 23 26 83l76 371h-80l14 65h79l19 88q18 83 71 126.5t131 43.5q51 0 92 -20z" />
    <glyph glyph-name="numbersign.oldstyle" horiz-adv-x="651" 
d="M583 452l-11 -78h-103l-22 -130h103l-12 -77h-103l-35 -214h-70l36 214h-130l-36 -214h-69l35 214h-103l11 77h104l22 130h-104l12 78h103l34 201h69l-33 -201h130l34 201h69l-33 -201h102zM399 374h-129l-23 -130h130z" />
    <glyph glyph-name="bullet.cap" horiz-adv-x="500" 
d="M251 209q-60 0 -103 43t-43 103q0 61 43 103t105 42q58 0 100.5 -43t42.5 -102q0 -60 -42.5 -103t-102.5 -43z" />
    <glyph glyph-name="dotlessi.sc" horiz-adv-x="310" 
d="M222 0h-134v550h134v-550z" />
    </font>
</defs>
</svg>
