<?xml version="1.0" standalone="no"?>
<!DOCTYPE svg PUBLIC "-//W3C//DTD SVG 1.1//EN" "http://www.w3.org/Graphics/SVG/1.1/DTD/svg11.dtd" >
<svg>
<metadata>
Created by FontForge 20090622 at Tue Mar 14 17:07:46 2017
 By deploy user
Copyright 2002, 2007, 2009 International Typeface Corporation. All rights reserved.
</metadata>
<defs>
<font id="StoneSansIIITCPro-Bk" horiz-adv-x="563" >
  <font-face 
    font-family="Stone Sans II ITC Pro Bk"
    font-weight="400"
    font-stretch="normal"
    units-per-em="1000"
    panose-1="2 11 5 2 4 5 3 2 2 4"
    ascent="800"
    descent="-200"
    x-height="500"
    cap-height="700"
    bbox="-122 -251 1312 969"
    underline-thickness="50"
    underline-position="-75"
    unicode-range="U+0020-U+FB04"
  />
<missing-glyph horiz-adv-x="500" 
d="M487 0h-475v665h475v-665zM250 375l161 243h-323zM60 91l161 242l-161 242v-484zM440 90v485l-162 -242zM411 48l-161 242l-162 -242h323z" />
    <glyph glyph-name="IJ" unicode="IJ" horiz-adv-x="499" 
d="M163 0h-81v700h81v-700zM416 700v-669q0 -99 -13 -138q-15 -42 -52.5 -63.5t-89.5 -21.5v50q35 9 50 26.5t20 51t5 108.5v656h80z" />
    <glyph glyph-name="ij" unicode="ij" horiz-adv-x="478" 
d="M122 609q-20 0 -35 15t-15 35q0 21 14.5 36t36.5 15q20 0 34.5 -15t14.5 -35q0 -21 -14.5 -36t-35.5 -15zM162 0h-79v500h79v-500zM356 609q-20 0 -35 15t-15 35q0 21 14.5 36t36.5 15q20 0 34.5 -15t14.5 -35q0 -21 -14.5 -36t-35.5 -15zM396 500v-525
q0 -120 -37.5 -172.5t-109.5 -52.5v41q20 4 35.5 19.5t21.5 33.5q11 33 11 142v514h79z" />
    <glyph glyph-name="napostrophe" unicode="&#x27;n" horiz-adv-x="640" 
d="M562 0h-78v275q0 87 -15 117q-30 61 -108 61q-79 0 -114 -75q-17 -39 -17 -120v-258h-79v500h79v-70q52 82 160 82q56 0 100.5 -29t59.5 -76q12 -33 12 -132v-275zM6 447l-33 19l72 154q0 5 -12.5 22t-12.5 37q0 26 17.5 43t43.5 17q28 0 44.5 -17.5t16.5 -42.5
q0 -35 -32 -81z" />
    <glyph glyph-name="f_f" unicode="ff" horiz-adv-x="541" 
d="M557 714l-16 -45q-22 11 -45 11q-21 0 -39 -11.5t-24 -33.5q-5 -15 -5 -69v-66h114v-52h-114v-448h-79v448h-185v-448h-79v448h-81v52h81v47q0 93 22 127q17 27 47.5 43.5t62.5 16.5q42 0 78 -20l-16 -45q-23 11 -47 11q-52 0 -63 -45q-5 -13 -5 -69v-66h185v47
q0 92 22 127q16 27 46.5 43.5t63.5 16.5q41 0 76 -20z" />
    <glyph glyph-name="fi" unicode="fi" horiz-adv-x="512" 
d="M293 714l-16 -45q-22 11 -46 11q-21 0 -39 -11.5t-24 -33.5q-4 -18 -4 -69v-66h113v-52h-113v-448h-79v448h-81v52h81v47q0 93 21 127q17 27 47.5 43.5t62.5 16.5q41 0 77 -20zM439 0h-79v500h79v-500zM400 609q-21 0 -36 14.5t-15 35.5t14.5 36t36.5 15q21 0 35.5 -15
t14.5 -36t-14.5 -35.5t-35.5 -14.5z" />
    <glyph glyph-name="fl" unicode="fl" horiz-adv-x="522" 
d="M293 714l-16 -45q-25 11 -46 11q-52 0 -63 -45q-4 -16 -4 -69v-66h113v-52h-113v-448h-79v448h-81v52h81v47q0 93 21 127q17 27 47.5 43.5t62.5 16.5q41 0 77 -20zM439 0h-79v734h79v-734z" />
    <glyph glyph-name="f_f_i" unicode="ffi" horiz-adv-x="776" 
d="M664 609q-21 0 -35.5 14.5t-14.5 35.5t14.5 36t35.5 15t36 -15t15 -36t-15 -35.5t-36 -14.5zM704 0h-79v500h79v-500zM557 714l-16 -45q-22 11 -45 11q-21 0 -39 -11.5t-24 -33.5q-5 -15 -5 -69v-66h114v-52h-114v-448h-79v448h-185v-448h-79v448h-81v52h81v47
q0 93 22 127q17 27 47.5 43.5t62.5 16.5q42 0 78 -20l-16 -45q-23 11 -47 11q-52 0 -63 -45q-5 -13 -5 -69v-66h185v47q0 92 22 127q16 27 46.5 43.5t63.5 16.5q41 0 76 -20z" />
    <glyph glyph-name="f_f_l" unicode="ffl" horiz-adv-x="786" 
d="M704 0h-79v734h79v-734zM557 714l-16 -45q-22 11 -45 11q-21 0 -39 -11.5t-24 -33.5q-5 -15 -5 -69v-66h114v-52h-114v-448h-79v448h-185v-448h-79v448h-81v52h81v47q0 93 22 127q17 27 47.5 43.5t62.5 16.5q42 0 78 -20l-16 -45q-23 11 -47 11q-52 0 -63 -45
q-5 -13 -5 -69v-66h185v47q0 92 22 127q16 27 46.5 43.5t63.5 16.5q41 0 76 -20z" />
    <glyph glyph-name=".notdef" horiz-adv-x="500" 
d="M487 0h-475v665h475v-665zM250 375l161 243h-323zM60 91l161 242l-161 242v-484zM440 90v485l-162 -242zM411 48l-161 242l-162 -242h323z" />
    <glyph glyph-name=".null" horiz-adv-x="0" 
 />
    <glyph glyph-name="nonmarkingreturn" horiz-adv-x="333" 
 />
    <glyph glyph-name="space" unicode=" " horiz-adv-x="257" 
 />
    <glyph glyph-name="exclam" unicode="!" horiz-adv-x="275" 
d="M179 734l-19 -554h-48l-18 554h85zM138 -8q-26 0 -44 17.5t-18 42.5q0 27 17.5 44.5t44.5 17.5q26 0 43 -17.5t17 -43.5t-17 -43.5t-43 -17.5z" />
    <glyph glyph-name="quotedbl" unicode="&#x22;" horiz-adv-x="500" 
d="M176 390q-9 0 -12 8t-6 40l-17 159q-1 14 -3.5 35.5t-2.5 29.5q0 52 42 52q19 0 30.5 -13.5t11.5 -38.5q0 -9 -7 -65l-16 -159q-4 -32 -7.5 -40t-12.5 -8zM324 390q-9 0 -12 8t-7 40l-16 159q-6 47 -6 65q0 52 41 52t41 -52q0 -13 -5 -65l-17 -159q-3 -32 -6 -40t-13 -8z
" />
    <glyph glyph-name="numbersign" unicode="#" horiz-adv-x="593" 
d="M555 484l-9 -50h-110l-28 -154h110l-8 -50h-111l-42 -230h-58l41 230h-134l-43 -230h-58l42 230h-110l8 50h111l28 154h-110l8 50h110l40 216h59l-40 -216h135l40 216h59l-40 -216h110zM377 434h-134l-29 -154h135z" />
    <glyph glyph-name="dollar" unicode="$" 
d="M317 -77h-55v90q-50 1 -101 20t-82 46l34 52q68 -56 149 -61v270q-46 26 -71 42q-99 62 -99 154q0 65 48 104.5t122 46.5v70h55v-69q82 -8 143 -64l-37 -42q-47 44 -106 50v-241q76 -42 101 -64q70 -61 70 -138q0 -68 -49.5 -114t-121.5 -58v-94zM166 537
q0 -36 23.5 -59.5t72.5 -52.5v208q-45 -8 -70.5 -34.5t-25.5 -61.5zM317 305v-230q43 11 69.5 38.5t26.5 64.5q0 38 -23 68t-73 59z" />
    <glyph glyph-name="percent" unicode="%" horiz-adv-x="890" 
d="M208 272q-75 0 -121 60t-46 156q0 99 46 158t124 59q73 0 118 -59.5t45 -156.5t-45.5 -157t-120.5 -60zM210 323q40 0 63.5 44t23.5 122t-24 122t-65 44t-65 -44t-24 -122t24.5 -122t66.5 -44zM685 -7q-75 0 -120.5 59.5t-45.5 156.5q0 98 46 157.5t123 59.5
q74 0 119 -59.5t45 -156.5q0 -98 -45.5 -157.5t-121.5 -59.5zM687 44q40 0 63.5 44t23.5 122t-24 122t-65 44q-40 0 -64.5 -44t-24.5 -122t24.5 -122t66.5 -44zM712 700l-464 -700h-64l464 700h64z" />
    <glyph glyph-name="ampersand" unicode="&#x26;" horiz-adv-x="813" 
d="M730 481l-18 -50h-127q37 -60 37 -139q0 -85 -28 -144l131 -112l-57 -48l-114 103q-44 -53 -100.5 -78t-137.5 -25q-97 0 -165 59.5t-68 147.5q0 131 145 204q-89 83 -89 157q0 68 51.5 112t127.5 44q82 0 141 -49l-30 -48q-50 35 -106 35q-49 0 -77.5 -25t-28.5 -65
q0 -35 20.5 -67t79.5 -88l230 -213q15 35 15 93q0 78 -46 146h-98l14 50h298zM510 131l-242 227q-56 -31 -82 -67.5t-26 -85.5q0 -68 47 -112t123 -44q106 0 180 82z" />
    <glyph glyph-name="quotesingle" unicode="'" horiz-adv-x="346" 
d="M171 390q-9 0 -11.5 7t-5.5 39l-17 160q-1 11 -2 25.5t-2 24t-1 16.5q0 52 41 52t41 -52q0 -11 -5 -66l-18 -160q-3 -31 -6.5 -38.5t-13.5 -7.5z" />
    <glyph glyph-name="parenleft" unicode="(" horiz-adv-x="388" 
d="M327 -166l-31 -32q-119 73 -184.5 196t-65.5 264q0 294 250 479l31 -33q-94 -79 -148 -199.5t-54 -246.5q0 -129 52.5 -239.5t149.5 -188.5z" />
    <glyph glyph-name="parenright" unicode=")" horiz-adv-x="388" 
d="M341 280q0 -292 -250 -478l-31 33q93 79 147.5 199.5t54.5 245.5q0 128 -52.5 239t-149.5 190l31 32q118 -73 184 -196.5t66 -264.5z" />
    <glyph glyph-name="asterisk" unicode="*" horiz-adv-x="415" 
d="M395 535l-148 -29l103 -113l-66 -49l-77 131l-73 -131l-69 49l105 113l-150 29l28 77l138 -62l-18 150h81l-18 -150l139 62z" />
    <glyph glyph-name="plus" unicode="+" 
d="M508 221h-196v-195h-62v195h-196v62h196v197h62v-197h196v-62z" />
    <glyph glyph-name="comma" unicode="," horiz-adv-x="281" 
d="M69 -185l-33 19l72 154q0 5 -12.5 22t-12.5 37q0 26 17.5 43t43.5 17q28 0 44.5 -17.5t16.5 -42.5q0 -33 -32 -81z" />
    <glyph glyph-name="hyphen" unicode="-" horiz-adv-x="313" 
d="M277 208h-242v62h242v-62z" />
    <glyph glyph-name="period" unicode="." horiz-adv-x="281" 
d="M140 -8q-26 0 -43.5 17t-17.5 43q0 27 17.5 44.5t43.5 17.5t43.5 -17.5t17.5 -43.5t-17.5 -43.5t-43.5 -17.5z" />
    <glyph glyph-name="slash" unicode="/" horiz-adv-x="351" 
d="M325 734l-241 -842h-57l240 842h58z" />
    <glyph glyph-name="zero" unicode="0" 
d="M281 -12q-112 0 -179.5 103t-67.5 257q0 158 68 261t183 103q109 0 176 -103t67 -258q0 -157 -67.5 -260t-179.5 -103zM282 52q77 0 121 80t44 215q0 140 -44.5 221t-122.5 81t-122 -80t-44 -218t44.5 -218.5t123.5 -80.5z" />
    <glyph glyph-name="one" unicode="1" 
d="M339 0h-80v628l-137 -57l-25 53l191 76h51v-700z" />
    <glyph glyph-name="two" unicode="2" 
d="M499 0h-454v49q215 223 248 262q65 76 91 123t26 93q0 55 -36.5 89.5t-88.5 34.5q-78 0 -147 -78l-45 39q37 49 91 74.5t114 25.5q79 0 137.5 -49t58.5 -133q0 -65 -37 -122.5t-140 -171.5q-99 -110 -160 -169h342v-67z" />
    <glyph glyph-name="three" unicode="3" 
d="M248 -12q-104 0 -165 42l24 55q74 -39 134 -39q70 0 113.5 41t43.5 106q0 45 -23.5 81t-63.5 49q-27 10 -51.5 12.5t-86.5 2.5v56q84 5 131 38q53 42 53 112q0 47 -28.5 78.5t-81.5 31.5q-74 0 -134 -46l-30 49q74 55 175 55q82 0 132 -43.5t50 -116.5q0 -121 -124 -175
q80 -8 124 -60t44 -121q0 -89 -67.5 -148.5t-168.5 -59.5z" />
    <glyph glyph-name="four" unicode="4" 
d="M506 207h-88v-207h-76v207h-310v37l343 456h43v-432h88v-61zM342 268v298l-219 -298h219z" />
    <glyph glyph-name="five" unicode="5" 
d="M455 700l-16 -65h-196l-44 -182q91 -9 158 -48q115 -70 115 -190q0 -100 -70.5 -163.5t-178.5 -63.5q-47 0 -96.5 17.5t-82.5 44.5l30 57q73 -55 155 -55q67 0 112 42.5t45 110.5q0 123 -133 168q-73 25 -138 25h-6l83 302h263z" />
    <glyph glyph-name="six" unicode="6" 
d="M281 -12q-104 0 -162.5 71t-58.5 174q0 185 115 322t290 157v-55q-108 -18 -188.5 -94.5t-112.5 -185.5q57 54 147 54q81 0 138.5 -60t57.5 -151q0 -100 -64 -166t-162 -66zM283 44q63 0 101 47t38 122t-36.5 118.5t-100.5 43.5q-62 0 -100 -43.5t-38 -115.5
q0 -77 37 -124.5t99 -47.5z" />
    <glyph glyph-name="seven" unicode="7" 
d="M521 643l-326 -652l-75 18l316 625h-332v66h417v-57z" />
    <glyph glyph-name="eight" unicode="8" 
d="M276 -12q-98 0 -160.5 54t-62.5 138q0 69 38 112t111 83q-122 64 -122 171q0 77 59 121.5t139 44.5q91 0 144 -46.5t53 -112.5q0 -58 -35 -98t-100 -75q80 -37 123.5 -79.5t43.5 -115.5q0 -86 -65.5 -141.5t-165.5 -55.5zM277 45q61 0 103 40t42 96q0 31 -12 55.5
t-37 44.5t-47.5 33t-60.5 30q-126 -67 -126 -163q0 -61 37 -98.5t101 -37.5zM277 410q54 25 85.5 58t31.5 85q0 39 -31.5 72.5t-85.5 33.5q-53 0 -84 -35t-31 -75q0 -92 115 -139z" />
    <glyph glyph-name="nine" unicode="9" 
d="M268 265q-98 0 -155.5 65t-57.5 157q0 97 65.5 161t158.5 64q105 0 164.5 -66t59.5 -175q0 -90 -24 -167t-64 -131t-93.5 -94.5t-110.5 -62t-117 -28.5v58q238 46 305 272q-20 -22 -57 -37.5t-74 -15.5zM278 325q60 0 98.5 45t38.5 114q0 77 -37.5 123t-100.5 46
q-61 0 -99 -45t-38 -119t38 -119t100 -45z" />
    <glyph glyph-name="colon" unicode=":" horiz-adv-x="281" 
d="M140 -8q-26 0 -43.5 17t-17.5 43q0 27 17.5 44.5t43.5 17.5t43.5 -17.5t17.5 -43.5t-17.5 -43.5t-43.5 -17.5zM140 357q-26 0 -43.5 17t-17.5 43q0 27 17.5 44.5t43.5 17.5t43.5 -17.5t17.5 -43.5t-17.5 -43.5t-43.5 -17.5z" />
    <glyph glyph-name="semicolon" unicode=";" horiz-adv-x="281" 
d="M141 357q-26 0 -43.5 17t-17.5 43q0 27 17.5 44.5t43.5 17.5t43.5 -17.5t17.5 -43.5t-17.5 -43.5t-43.5 -17.5zM66 -185l-33 19l71 154q0 5 -12 22t-12 37q0 25 17 42.5t43 17.5q28 0 45 -17.5t17 -42.5q0 -32 -33 -81z" />
    <glyph glyph-name="less" unicode="&#x3c;" 
d="M459 59l-355 167v53l355 168v-66l-283 -129l283 -128v-65z" />
    <glyph glyph-name="equal" unicode="=" 
d="M508 126h-454v61h454v-61zM508 316h-454v62h454v-62z" />
    <glyph glyph-name="greater" unicode="&#x3e;" 
d="M459 226l-355 -168v67l283 128l-283 128v65l355 -166v-54z" />
    <glyph glyph-name="question" unicode="?" horiz-adv-x="457" 
d="M226 195h-61q-1 7 -1 15q0 77 60 164q9 13 34 45.5t36 48.5t21.5 44t10.5 56q0 47 -28 74.5t-75 27.5q-69 0 -131 -67l-41 41q74 90 182 90q79 0 132 -39.5t53 -117.5q0 -59 -37 -117q-16 -26 -90 -118q-64 -82 -65 -147zM199 -8q-26 0 -43.5 17.5t-17.5 42.5
q0 27 17.5 44.5t44.5 17.5q26 0 43 -17.5t17 -43.5t-17.5 -43.5t-43.5 -17.5z" />
    <glyph glyph-name="at" unicode="@" horiz-adv-x="781" 
d="M409 -13q-163 0 -268 99.5t-105 259.5q0 153 105 260t258 107q145 0 240 -89.5t95 -223.5q0 -99 -53.5 -174t-124.5 -75q-63 0 -74 65q-44 -67 -129 -67q-64 0 -105.5 47.5t-41.5 120.5q0 88 53.5 150.5t127.5 62.5q88 0 119 -69l10 57h60l-43 -218q-7 -32 -7 -54
q0 -18 9.5 -30.5t23.5 -12.5q47 0 83 59t36 136q0 112 -78 187.5t-198 75.5q-133 0 -220 -90.5t-87 -225.5t91 -221t220 -86q122 0 226 49l14 -51q-106 -49 -237 -49zM365 206q48 0 84 48t36 114q0 45 -26.5 74.5t-67.5 29.5q-48 0 -85.5 -46.5t-37.5 -107.5
q0 -51 26.5 -81.5t70.5 -30.5z" />
    <glyph glyph-name="A" unicode="A" horiz-adv-x="610" 
d="M611 0h-88l-74 215h-290l-82 -215h-78l283 700h71zM429 269l-119 348l-130 -348h249z" />
    <glyph glyph-name="B" unicode="B" horiz-adv-x="553" 
d="M516 202q0 -103 -92 -160q-65 -42 -215 -42h-127v700h134q147 0 199 -36q60 -43 60 -124q0 -57 -39.5 -105t-102.5 -60q45 -3 89 -23q94 -47 94 -150zM432 202q0 90 -91 121q-51 16 -129 16h-49v-281h58q116 0 166 39q45 36 45 105zM395 535q0 52 -34 79q-34 28 -137 28
h-61v-248h27q112 0 163 46q42 36 42 95z" />
    <glyph glyph-name="C" unicode="C" horiz-adv-x="681" 
d="M604 102l31 -49q-52 -36 -104 -50.5t-125 -14.5q-156 0 -258.5 102t-102.5 257q0 158 105 261.5t264 103.5q149 0 232 -74l-30 -50q-85 65 -201 65q-121 0 -202.5 -84t-81.5 -216t82 -218.5t201 -86.5q113 0 190 54z" />
    <glyph glyph-name="D" unicode="D" horiz-adv-x="725" 
d="M679 368q0 -204 -144 -302q-53 -36 -118 -51t-175 -15h-160v700h158q99 0 162 -8.5t115 -33.5q75 -35 118.5 -109t43.5 -181zM591 366q0 173 -114 233q-67 38 -229 38h-85v-574h78q96 0 153 11.5t97 44.5q100 78 100 247z" />
    <glyph glyph-name="E" unicode="E" horiz-adv-x="513" 
d="M475 0h-393v700h350v-63h-269v-239h264v-64h-264v-271h312v-63z" />
    <glyph glyph-name="F" unicode="F" horiz-adv-x="457" 
d="M432 637h-269v-249h264v-63h-264v-325h-81v700h350v-63z" />
    <glyph glyph-name="G" unicode="G" horiz-adv-x="740" 
d="M671 320v-283q-102 -49 -233 -49q-176 0 -283.5 101t-107.5 258q0 159 111 262t284 103q136 0 220 -60l-29 -52q-79 53 -185 53q-137 0 -226.5 -81.5t-89.5 -214.5q0 -132 81.5 -219.5t228.5 -87.5q75 0 149 33v237h80z" />
    <glyph glyph-name="H" unicode="H" horiz-adv-x="711" 
d="M629 0h-81v354h-385v-354h-81v700h81v-283h385v283h81v-700z" />
    <glyph glyph-name="I" unicode="I" horiz-adv-x="245" 
d="M163 0h-81v700h81v-700z" />
    <glyph glyph-name="J" unicode="J" horiz-adv-x="254" 
d="M171 700v-669q0 -99 -13 -138q-15 -42 -52.5 -63.5t-89.5 -21.5v50q35 9 50 26.5t20 51t5 108.5v656h80z" />
    <glyph glyph-name="K" unicode="K" horiz-adv-x="572" 
d="M567 26l-79 -37l-325 379v-368h-81v700h81v-317l320 326l53 -46l-286 -285z" />
    <glyph glyph-name="L" unicode="L" horiz-adv-x="478" 
d="M470 0h-388v700h81v-637h307v-63z" />
    <glyph glyph-name="M" unicode="M" horiz-adv-x="886" 
d="M804 0h-80v400q0 101 5 213l-36 -88.5t-52 -123.5l-177 -401h-53l-165 395l-99 222q5 -122 5 -217v-400h-70v700h103l259 -594l260 594h100v-700z" />
    <glyph glyph-name="N" unicode="N" horiz-adv-x="735" 
d="M652 0h-78l-347 483l-75 105v-588h-70v700h76l354 -494l70 -100v594h70v-700z" />
    <glyph glyph-name="O" unicode="O" horiz-adv-x="794" 
d="M747 358q0 -159 -96.5 -264.5t-253.5 -105.5t-253.5 105.5t-96.5 263.5q0 154 99.5 254.5t251.5 100.5q151 0 250 -100.5t99 -253.5zM661 348q0 128 -69.5 216.5t-194.5 88.5q-86 0 -148 -46.5t-89.5 -113.5t-27.5 -143q0 -123 69 -213t196 -90q117 0 190.5 83.5
t73.5 217.5z" />
    <glyph glyph-name="P" unicode="P" horiz-adv-x="521" 
d="M488 503q0 -100 -72 -163q-72 -61 -202 -62v56q96 4 144 49.5t48 113.5q0 67 -49 105t-140 38h-54v-640h-81v700h137q120 0 185 -40q84 -53 84 -157z" />
    <glyph glyph-name="Q" unicode="Q" horiz-adv-x="796" 
d="M398 -12q-158 0 -254.5 105t-96.5 264q0 154 99 254.5t251 100.5t251 -100.5t99 -253.5q0 -120 -58 -213t-160 -133l257 -119l-40 -59l-311 156q-24 -2 -37 -2zM397 47q117 0 190.5 83.5t73.5 217.5q0 128 -69.5 216.5t-194.5 88.5q-86 0 -148 -46.5t-89.5 -113.5
t-27.5 -143q0 -123 69 -213t196 -90z" />
    <glyph glyph-name="R" unicode="R" horiz-adv-x="547" 
d="M530 15l-78 -27l-163 310h-126v-298h-81v700h138q124 0 186 -43q34 -24 54 -62.5t20 -84.5q0 -63 -35.5 -114.5t-86.5 -78.5zM398 504q0 61 -40 98q-46 40 -138 40h-57v-287h83q47 0 72.5 12t45.5 37q34 43 34 100z" />
    <glyph glyph-name="S" unicode="S" horiz-adv-x="504" 
d="M451 180q0 -83 -62.5 -137.5t-153.5 -54.5q-105 0 -184 62l36 54q70 -57 145 -57q58 0 98 38.5t40 85.5q0 49 -38 89q-26 27 -96 79.5t-99 81.5q-55 55 -55 122q0 74 56.5 121.5t143.5 47.5q91 0 157 -59l-35 -45q-55 45 -120 45q-58 0 -89.5 -32t-31.5 -74q0 -39 43 -82
q23 -24 95 -78.5t89 -69.5q61 -58 61 -137z" />
    <glyph glyph-name="T" unicode="T" horiz-adv-x="549" 
d="M546 637h-231v-637h-81v637h-231v63h543v-63z" />
    <glyph glyph-name="U" unicode="U" horiz-adv-x="688" 
d="M616 700v-395q0 -91 -10 -134.5t-41 -82.5q-73 -100 -224 -100q-170 0 -236 119q-20 35 -26.5 76t-6.5 130v387h80v-384q0 -83 7.5 -124t28.5 -70q25 -34 67 -53t87 -19q106 0 160 70q27 34 33.5 73t6.5 125v382h74z" />
    <glyph glyph-name="V" unicode="V" horiz-adv-x="600" 
d="M605 695l-275 -695h-83l-252 689l85 19l214 -626l238 627z" />
    <glyph glyph-name="W" unicode="W" horiz-adv-x="903" 
d="M913 696l-218 -696h-74l-172 577l-173 -577h-69l-214 695l83 14l172 -595l173 586h70l170 -592l178 601z" />
    <glyph glyph-name="X" unicode="X" horiz-adv-x="623" 
d="M598 7l-84 -17l-221 340l-198 -339l-73 19l231 372l-213 304l85 22l173 -266l156 267l73 -18l-189 -302z" />
    <glyph glyph-name="Y" unicode="Y" horiz-adv-x="525" 
d="M530 696l-241 -389v-307h-80v306l-213 384l83 19l175 -342l203 342z" />
    <glyph glyph-name="Z" unicode="Z" horiz-adv-x="573" 
d="M553 0h-527v41l415 599h-357v60h462v-34l-414 -606h421v-60z" />
    <glyph glyph-name="bracketleft" unicode="[" horiz-adv-x="366" 
d="M302 -191h-209v925h209v-52h-136v-821h136v-52z" />
    <glyph glyph-name="backslash" unicode="\" horiz-adv-x="438" 
d="M369 -108h-57l-242 842h59z" />
    <glyph glyph-name="bracketright" unicode="]" horiz-adv-x="366" 
d="M272 -191h-209v52h137v821h-137v52h209v-925z" />
    <glyph glyph-name="asciicircum" unicode="^" 
d="M467 448h-71l-115 200l-114 -200h-72l139 252h92z" />
    <glyph glyph-name="underscore" unicode="_" horiz-adv-x="522" 
d="M525 -138h-525v69h525v-69z" />
    <glyph glyph-name="grave" unicode="`" horiz-adv-x="522" 
d="M287 594l-32 -15l-213 129l56 58z" />
    <glyph glyph-name="a" unicode="a" horiz-adv-x="480" 
d="M431 0h-80q-13 36 -14 86q-23 -42 -68 -70t-86 -28q-60 0 -100.5 40t-40.5 102q0 72 63 120q49 38 133 61l95 24q-4 28 -9 45.5t-16 37t-31 29t-50 9.5q-37 0 -64 -13t-58 -41l-33 44q75 66 163 66q100 0 144 -60q17 -24 23.5 -58.5t6.5 -101.5v-143q0 -90 22 -149z
M196 47q49 0 88 42q52 55 52 139v53q-37 -6 -82 -20q-59 -19 -97.5 -51.5t-38.5 -74.5q0 -40 21.5 -64t56.5 -24z" />
    <glyph glyph-name="b" unicode="b" horiz-adv-x="608" 
d="M325 -12q-51 0 -96.5 26t-67.5 69v-83h-78v734h78v-323q60 101 178 101q97 0 161 -69.5t64 -181.5q0 -115 -67 -194t-172 -79zM319 44q84 0 127 68q35 56 35 145q0 94 -46 146.5t-108 52.5q-70 0 -118 -54t-48 -158q0 -88 41.5 -144t116.5 -56z" />
    <glyph glyph-name="c" unicode="c" horiz-adv-x="487" 
d="M433 78l25 -50q-58 -40 -161 -40t-178.5 71.5t-75.5 191.5q0 118 77 189.5t189 71.5q95 0 147 -40l-29 -50q-46 32 -107 32q-86 0 -139 -57.5t-53 -143.5q0 -92 55.5 -149.5t137.5 -57.5q59 0 112 32z" />
    <glyph glyph-name="d" unicode="d" horiz-adv-x="608" 
d="M525 0h-78v86q-24 -44 -69.5 -71t-105.5 -27q-104 0 -166.5 77t-62.5 183q0 115 67 189.5t170 74.5q60 0 102.5 -29.5t64.5 -70.5v322h78v-734zM283 44q76 0 120 56t44 154q0 90 -44.5 146t-117.5 56q-71 0 -115 -54.5t-44 -147.5q0 -95 43.5 -152.5t113.5 -57.5z" />
    <glyph glyph-name="e" unicode="e" horiz-adv-x="526" 
d="M441 95l28 -44q-69 -63 -177 -63q-93 0 -157 50q-92 74 -92 225q0 135 90 203q60 46 143 46q94 0 147 -61q55 -64 55 -174q0 -15 -1 -27h-351q2 -94 48 -149.5t133 -55.5q32 0 69.5 14t64.5 36zM403 304v8q0 63 -34.5 106t-92.5 43q-61 0 -101.5 -40.5t-45.5 -116.5h274z
" />
    <glyph glyph-name="f" unicode="f" horiz-adv-x="278" 
d="M295 714l-16 -45q-23 11 -47 11q-52 0 -63 -45q-5 -13 -5 -69v-66h113v-52h-113v-448h-79v448h-81v52h81v47q0 93 22 127q17 27 47.5 43.5t62.5 16.5q42 0 78 -20z" />
    <glyph glyph-name="g" unicode="g" horiz-adv-x="599" 
d="M524 500v-462q0 -70 -17 -127q-25 -81 -90 -121.5t-154 -40.5q-100 0 -187 51l24 58q76 -48 161 -48q76 0 130 48q33 31 43.5 73t10.5 108v42q-65 -93 -176 -93q-72 0 -125 39t-77 96.5t-24 124.5q0 114 65.5 189t166.5 75q115 0 170 -85v73h79zM279 44q82 0 124 58.5
t42 155.5q0 90 -44.5 144t-115.5 54q-72 0 -115.5 -60t-43.5 -144q0 -90 45 -149t108 -59z" />
    <glyph glyph-name="h" unicode="h" horiz-adv-x="572" 
d="M494 0h-78v275q0 87 -15 117q-30 61 -108 61q-79 0 -114 -75q-17 -39 -17 -120v-258h-79v734h79v-304q52 82 160 82q56 0 100 -29t60 -76q12 -33 12 -133v-274z" />
    <glyph glyph-name="i" unicode="i" horiz-adv-x="244" 
d="M122 609q-20 0 -35 15t-15 35q0 21 14.5 36t36.5 15q20 0 34.5 -15t14.5 -35q0 -21 -14.5 -36t-35.5 -15zM162 0h-79v500h79v-500z" />
    <glyph glyph-name="j" unicode="j" horiz-adv-x="244" 
d="M122 609q-20 0 -35 15t-15 35q0 21 14.5 36t36.5 15q20 0 34.5 -15t14.5 -35q0 -21 -14.5 -36t-35.5 -15zM162 500v-525q0 -120 -37.5 -172.5t-109.5 -52.5v41q20 4 35.5 19.5t21.5 33.5q11 33 11 142v514h79z" />
    <glyph glyph-name="k" unicode="k" horiz-adv-x="465" 
d="M458 24l-75 -34l-221 285v-275h-79v734h79v-449h2l208 223l60 -34l-191 -193z" />
    <glyph glyph-name="l" unicode="l" horiz-adv-x="244" 
d="M162 0h-79v734h79v-734z" />
    <glyph glyph-name="m" unicode="m" horiz-adv-x="862" 
d="M784 0h-79v277q0 92 -22 128q-27 48 -85 48q-73 0 -108 -72q-17 -36 -17 -102v-279h-79v280q0 84 -16 116q-26 57 -87 57q-88 0 -116 -86q-13 -39 -13 -104v-263h-79v500h79v-71q46 83 142 83q109 0 147 -96q25 45 68.5 70.5t92.5 25.5q111 0 151 -85q21 -45 21 -133
v-294z" />
    <glyph glyph-name="n" unicode="n" horiz-adv-x="572" 
d="M494 0h-78v275q0 87 -15 117q-30 61 -108 61q-79 0 -114 -75q-17 -39 -17 -120v-258h-79v500h79v-70q52 82 160 82q56 0 100.5 -29t59.5 -76q12 -33 12 -132v-275z" />
    <glyph glyph-name="o" unicode="o" horiz-adv-x="578" 
d="M290 -12q-98 0 -172.5 71t-74.5 194q0 116 71 187.5t175 71.5q105 0 175.5 -71t70.5 -188q0 -123 -74 -194t-171 -71zM289 41q67 0 114.5 55.5t47.5 156.5q0 97 -45.5 151.5t-115.5 54.5t-116.5 -55t-46.5 -151q0 -101 48 -156.5t114 -55.5z" />
    <glyph glyph-name="p" unicode="p" horiz-adv-x="608" 
d="M324 -12q-49 0 -94 25t-69 69v-332h-78v750h78v-89q61 101 177 101q97 0 161.5 -69.5t64.5 -181.5q0 -115 -67.5 -194t-172.5 -79zM318 44q74 0 118.5 57t44.5 156q0 93 -46 146t-108 53q-64 0 -115 -50.5t-51 -161.5q0 -88 41 -144t116 -56z" />
    <glyph glyph-name="q" unicode="q" horiz-adv-x="587" 
d="M525 -250h-79v337q-55 -99 -174 -99q-104 0 -166.5 77t-62.5 183q0 114 67 189t170 75q113 0 166 -97v85h79v-750zM283 44q76 0 120 56t44 154q0 89 -44.5 145.5t-117.5 56.5q-72 0 -115.5 -54t-43.5 -148q0 -95 43.5 -152.5t113.5 -57.5z" />
    <glyph glyph-name="r" unicode="r" horiz-adv-x="346" 
d="M360 468l-32 -53q-33 25 -68 25q-62 0 -85 -88q-13 -45 -13 -123v-229h-79v500h79v-82q2 7 7 20q29 74 101 74q46 0 90 -44z" />
    <glyph glyph-name="s" unicode="s" horiz-adv-x="397" 
d="M191 -12q-88 0 -151 60l34 48q20 -24 50.5 -39.5t58.5 -15.5q46 0 69 21.5t23 59.5q0 30 -18 54t-65 58q-40 28 -61.5 46.5t-40.5 48t-19 59.5q0 55 41 89.5t108 34.5q77 0 130 -45l-31 -42q-38 35 -87 35q-42 0 -63 -21t-21 -45q0 -42 62 -88q89 -64 116 -99t27 -84
q0 -61 -46 -98t-116 -37z" />
    <glyph glyph-name="t" unicode="t" horiz-adv-x="339" 
d="M309 61l19 -41q-51 -32 -99 -32q-83 0 -114 59q-21 38 -21 124v278h-70v51h70v121l79 29v-150h129v-51h-129v-270q0 -70 14.5 -104t56.5 -34q30 0 65 20z" />
    <glyph glyph-name="u" unicode="u" horiz-adv-x="571" 
d="M489 0h-79v70q-54 -82 -161 -82q-56 0 -100 29t-60 75q-12 33 -12 133v275h79v-275q0 -89 14 -117q30 -61 108 -61q79 0 114 75q18 39 18 120v258h79v-500z" />
    <glyph glyph-name="v" unicode="v" horiz-adv-x="500" 
d="M489 490l-210 -490h-66l-201 484l75 24l167 -416l165 416z" />
    <glyph glyph-name="w" unicode="w" horiz-adv-x="787" 
d="M775 495l-183 -495h-55l-149 387l-150 -387h-53l-173 488l78 22l131 -401l150 391h54l147 -391l131 401z" />
    <glyph glyph-name="x" unicode="x" horiz-adv-x="461" 
d="M450 20l-74 -30l-147 226l-154 -226l-63 29l183 248l-153 214l76 29l124 -191l129 191l62 -24l-157 -215z" />
    <glyph glyph-name="y" unicode="y" horiz-adv-x="495" 
d="M483 490l-253 -571q-44 -98 -85 -129q-51 -40 -128 -40h-21v58h21q48 0 74 17.5t51 60.5q20 35 70 151l-200 447l72 23l166 -394l166 394z" />
    <glyph glyph-name="z" unicode="z" horiz-adv-x="459" 
d="M429 0h-409v39l313 407h-255v54h353v-40l-309 -406h307v-54z" />
    <glyph glyph-name="braceleft" unicode="{" horiz-adv-x="365" 
d="M295 -145v-49q-47 0 -79 16t-48.5 46.5t-23.5 66.5t-7 83v102q0 63 -16.5 89.5t-64.5 44.5v40q49 18 65 45t16 88v96q0 66 10.5 109.5t47 75.5t100.5 33v-48q-50 -11 -67.5 -43.5t-17.5 -88.5v-45q0 -135 -8 -156q-16 -51 -78 -87q67 -41 80 -96q6 -25 6 -132v-60
q0 -58 20 -89.5t65 -40.5z" />
    <glyph glyph-name="bar" unicode="|" horiz-adv-x="355" 
d="M206 -250h-57v994h57v-994z" />
    <glyph glyph-name="braceright" unicode="}" horiz-adv-x="365" 
d="M308 293v-40q-49 -18 -64.5 -45t-15.5 -88v-96q0 -48 -6.5 -83.5t-22.5 -67.5t-49 -49t-81 -18v48q50 11 68 43.5t18 88.5v44q0 136 7 157q18 52 78 87q-67 41 -80 96q-5 25 -5 132v60q0 113 -86 130v49q47 0 79 -16t48.5 -46.5t23.5 -66.5t7 -83v-102q0 -63 16.5 -89.5
t64.5 -44.5z" />
    <glyph glyph-name="asciitilde" unicode="~" 
d="M456 315l40 -21q-21 -44 -47 -67q-30 -30 -74 -30q-28 0 -116 38q-35 15 -55 15q-44 0 -73 -58l-40 22q19 38 36 60q35 40 81 40q35 0 96 -27q56 -26 79 -26t39 12.5t34 41.5z" />
    <glyph glyph-name="uni00A0" unicode="&#xa0;" horiz-adv-x="613" 
 />
    <glyph glyph-name="exclamdown" unicode="&#xa1;" horiz-adv-x="275" 
d="M181 -230h-85l19 554h48zM138 390q-26 0 -44 17.5t-18 43.5t17.5 43.5t44.5 17.5q26 0 43 -17.5t17 -43.5t-17 -43.5t-43 -17.5z" />
    <glyph glyph-name="cent" unicode="&#xa2;" 
d="M259 40h-55l19 86q-66 31 -106.5 92.5t-40.5 147.5q0 109 67.5 178.5t167.5 79.5h20l14 65h55l-15 -66q68 -7 111 -37l-28 -50q-38 29 -94 32l-86 -396q36 -13 72 -13q64 0 114 32l25 -51q-58 -39 -160 -39q-31 0 -65 8zM318 565q-73 -9 -116.5 -64t-43.5 -134
q0 -110 80 -170z" />
    <glyph glyph-name="sterling" unicode="&#xa3;" 
d="M499 98l36 -44q-65 -66 -144 -66q-28 0 -89 7q-115 15 -176 15q-50 0 -99 -12v58q59 23 80.5 64.5t33.5 142.5l10 82h-102v52h107l11 96q12 96 57 150q57 69 151 69q89 0 147 -67l-38 -40q-52 47 -109 47q-73 0 -105 -72q-16 -31 -23 -89l-11 -94h148v-52h-153l-7 -60
q-10 -101 -21.5 -135t-47.5 -74q34 -1 87 -7l42.5 -7t56 -8t45.5 -3q23 0 43.5 7t33 14.5t36.5 25.5z" />
    <glyph glyph-name="currency" unicode="&#xa4;" 
d="M508 174l-43 -44l-67 66q-51 -37 -117 -37q-67 0 -116 37l-68 -66l-43 44l68 64q-37 54 -37 116q0 67 37 116l-68 65l43 44l68 -66q53 37 116 37q69 0 116 -37l68 66l43 -44l-68 -65q38 -50 38 -116q0 -61 -38 -116zM281 219q55 0 95.5 40.5t40.5 95.5q0 58 -41.5 96
t-94.5 38q-57 0 -96 -39.5t-39 -94.5q0 -56 39.5 -96t95.5 -40z" />
    <glyph glyph-name="yen" unicode="&#xa5;" 
d="M552 697l-171 -275h144v-47h-173l-42 -66v-38h215v-47h-215v-224h-80v224h-211v47h210v37l-37 67h-173v47h146l-148 268l77 19l181 -344l206 344z" />
    <glyph glyph-name="brokenbar" unicode="&#xa6;" horiz-adv-x="355" 
d="M206 413h-57v321h57v-321zM206 -79h-57v322h57v-322z" />
    <glyph glyph-name="section" unicode="&#xa7;" horiz-adv-x="548" 
d="M490 271q0 -52 -43.5 -87t-114.5 -40q122 -71 122 -153q0 -71 -57.5 -105t-134.5 -34q-115 0 -185 56l27 48q68 -48 154 -48q53 0 82.5 19.5t29.5 56.5q0 40 -35.5 71t-103.5 66q-159 80 -159 177q0 70 76 109q29 14 70 22q-56 35 -87 68.5t-31 81.5q0 57 48.5 94.5
t135.5 37.5q94 0 150 -53l-29 -42q-64 43 -122 43q-45 0 -72 -22t-27 -54q0 -26 16.5 -47.5t74.5 -57.5l119 -73q96 -63 96 -134zM409 266q0 34 -33 64q-27 24 -104 68q-119 -16 -119 -94q0 -36 26 -63t95 -63q135 13 135 88z" />
    <glyph glyph-name="dieresis" unicode="&#xa8;" horiz-adv-x="522" 
d="M359 595q-20 0 -35 14.5t-15 34.5t15 34.5t36 14.5q19 0 33.5 -14.5t14.5 -34.5t-15 -34.5t-34 -14.5zM167 595q-20 0 -34.5 14.5t-14.5 34.5t14.5 34.5t35.5 14.5q20 0 34 -14.5t14 -34.5t-14.5 -34.5t-34.5 -14.5z" />
    <glyph glyph-name="copyright" unicode="&#xa9;" horiz-adv-x="808" 
d="M403 -11q-148 0 -254 106.5t-106 254.5q0 152 105.5 257.5t259.5 105.5q146 0 251.5 -106.5t105.5 -254.5q0 -149 -106.5 -256t-255.5 -107zM403 36q128 0 219 92t91 222q0 133 -91 224.5t-222 91.5q-126 0 -215.5 -92t-89.5 -222q0 -131 90 -223.5t218 -92.5zM539 216
l26 -40q-64 -42 -146 -42q-93 0 -154 61.5t-61 154.5q0 95 63 156.5t159 61.5q84 0 144 -45l-23 -40q-51 38 -120 38q-65 0 -110 -47.5t-45 -120.5q0 -74 44.5 -122.5t106.5 -48.5q67 0 116 34z" />
    <glyph glyph-name="ordfeminine" unicode="&#xaa;" horiz-adv-x="349" 
d="M303 402h-69q-6 12 -9 38q-45 -45 -94 -45q-40 0 -65.5 24.5t-25.5 65.5q0 44 39 74q25 20 83 35l34.5 8t26.5 6q-7 61 -60 61q-34 0 -80 -38l-29 37q54 44 115 44q67 0 96 -36q21 -29 21 -97v-82q0 -56 17 -95zM143 440q25 0 46.5 18.5t28.5 41.5t7 44v23
q-23 -4 -44 -11q-75 -22 -75 -72q0 -19 10 -31.5t27 -12.5z" />
    <glyph glyph-name="guillemotleft" unicode="&#xab;" horiz-adv-x="475" 
d="M249 87l-34 -36l-200 180l184 187l35 -35l-125 -152zM429 87l-35 -36l-200 180l184 187l35 -35l-125 -152z" />
    <glyph glyph-name="logicalnot" unicode="&#xac;" 
d="M508 105h-64v211h-390v62h454v-273z" />
    <glyph glyph-name="uni00AD" unicode="&#xad;" horiz-adv-x="313" 
d="M277 200h-242v70h242v-70z" />
    <glyph glyph-name="registered" unicode="&#xae;" horiz-adv-x="428" 
d="M214 409q-77 0 -131 55t-54 132q0 79 54.5 133t133.5 54q75 0 128.5 -55t53.5 -132t-54.5 -132t-130.5 -55zM214 442q61 0 104 45t43 108q0 65 -43.5 110.5t-105.5 45.5q-59 0 -102 -45.5t-43 -108.5q0 -64 43.5 -109.5t103.5 -45.5zM290 505l-39 -9l-40 86h-24v-82h-37
v200h53q33 0 53 -10q27 -14 27 -46q0 -41 -37 -55zM187 611h18q35 0 35 31q0 30 -35 30h-18v-61z" />
    <glyph glyph-name="macron" unicode="&#xaf;" horiz-adv-x="522" 
d="M392 614h-262v60h262v-60z" />
    <glyph glyph-name="degree" unicode="&#xb0;" horiz-adv-x="408" 
d="M204 449q-59 0 -101.5 42t-42.5 101q0 60 42 102t103 42q58 0 100.5 -42.5t42.5 -101.5t-42.5 -101t-101.5 -42zM204 501q38 0 65.5 26.5t27.5 64.5q0 39 -27.5 66t-66.5 27q-38 0 -65 -27.5t-27 -65.5t27.5 -64.5t65.5 -26.5z" />
    <glyph glyph-name="plusminus" unicode="&#xb1;" 
d="M508 324h-196v-192h-62v192h-196v61h196v196h62v-196h196v-61zM508 0h-454v62h454v-62z" />
    <glyph glyph-name="two.superior" unicode="&#xb2;" horiz-adv-x="355" 
d="M316 450h-309v35q129 125 160 158q38 41 53.5 66.5t15.5 51.5q0 29 -19.5 46.5t-46.5 17.5q-42 0 -90 -49l-42 35q52 64 140 64q54 0 94.5 -30.5t40.5 -81.5q0 -38 -24.5 -72.5t-91.5 -101.5l-92 -86h211v-53z" />
    <glyph glyph-name="three.superior" unicode="&#xb3;" horiz-adv-x="329" 
d="M134 442q-69 0 -118 30l21 46q53 -29 92 -29q37 0 61 22t24 57q0 53 -45 69q-25 8 -95 8v45q61 4 87 22q28 18 28 60q0 23 -15 39.5t-41 16.5q-39 0 -89 -34l-27 44q55 37 122 37q57 0 92 -27t35 -72q0 -66 -67 -99q45 -9 69.5 -39.5t24.5 -67.5q0 -55 -45.5 -91.5
t-113.5 -36.5z" />
    <glyph glyph-name="acute" unicode="&#xb4;" horiz-adv-x="522" 
d="M235 593l189 173l56 -57l-213 -130z" />
    <glyph glyph-name="mu" unicode="&#xb5;" horiz-adv-x="540" 
d="M490 0h-79v68q-19 -38 -53.5 -59t-74.5 -21q-39 0 -73 21t-53 59v-245h-79v677h79v-261q0 -80 18 -117q16 -37 46 -55t63 -18q75 0 109 73q18 41 18 117v261h79v-500z" />
    <glyph glyph-name="paragraph" unicode="&#xb6;" horiz-adv-x="570" 
d="M511 644h-59v-763h-66v763h-71v-763h-66v449q-9 -1 -18 -1q-82 0 -136 51t-54 133q0 100 70 146q62 41 188 41h212v-56z" />
    <glyph glyph-name="periodcentered" unicode="&#xb7;" horiz-adv-x="281" 
d="M139 191q-26 0 -43.5 17.5t-17.5 42.5q0 27 17.5 44.5t44.5 17.5q26 0 43 -17.5t17 -43.5t-17.5 -43.5t-43.5 -17.5z" />
    <glyph glyph-name="cedilla" unicode="&#xb8;" horiz-adv-x="522" 
d="M411 -134q0 -39 -35 -64.5t-87 -25.5q-34 0 -82 16l16 38q31 -12 67 -12q24 0 38.5 11t14.5 30q0 35 -50 35q-19 0 -34 -4l-9 6l44 104h40l-26 -67q11 1 24 1q36 0 57.5 -18.5t21.5 -49.5z" />
    <glyph glyph-name="one.superior" unicode="&#xb9;" horiz-adv-x="279" 
d="M193 450h-73v358l-80 -30l-23 45l128 47h48v-420z" />
    <glyph glyph-name="ordmasculine" unicode="&#xba;" horiz-adv-x="388" 
d="M195 395q-71 0 -116.5 45t-45.5 115t45.5 113.5t117.5 43.5q69 0 115 -45t46 -111q0 -70 -46 -115.5t-116 -45.5zM196 440q42 0 66 31t24 86q0 53 -24.5 81.5t-67.5 28.5q-41 0 -65.5 -29.5t-24.5 -82.5q0 -55 24.5 -85t67.5 -30z" />
    <glyph glyph-name="guillemotright" unicode="&#xbb;" horiz-adv-x="475" 
d="M284 238l-185 -187l-35 35l125 152l-140 144l34 36zM463 238l-184 -187l-35 35l125 152l-141 144l35 36z" />
    <glyph glyph-name="onequarter" unicode="&#xbc;" horiz-adv-x="802" 
d="M244 280h-73v358l-80 -30l-23 45l129 47h47v-420zM671 700l-463 -700h-65l464 700h64zM760 121h-59v-121h-67v121h-196v29l219 270h44v-252h59v-47zM634 168v155q-4 -6 -122 -155h122z" />
    <glyph glyph-name="onehalf" unicode="&#xbd;" horiz-adv-x="873" 
d="M244 280h-73v358l-80 -30l-23 45l129 47h47v-420zM669 700l-463 -700h-65l464 700h64zM815 0h-309v35q122 118 160 158q38 41 53.5 66.5t15.5 51.5q0 29 -19.5 46.5t-46.5 17.5q-42 0 -90 -49l-42 35q52 64 140 64q54 0 94.5 -30.5t40.5 -81.5q0 -38 -25 -72.5
t-92 -101.5q-48 -48 -92 -86h212v-53z" />
    <glyph glyph-name="threequarters" unicode="&#xbe;" horiz-adv-x="829" 
d="M165 272q-69 0 -117 30l21 46q53 -29 92 -29q37 0 61 22t24 57q0 53 -45 69q-25 8 -95 8v45q62 4 86 22q28 18 28 60q0 23 -14.5 39.5t-41.5 16.5q-40 0 -88 -34l-27 44q55 37 122 37q57 0 92 -27t35 -72q0 -66 -67 -99q45 -9 69 -39.5t24 -67.5q0 -55 -45.5 -91.5
t-113.5 -36.5zM700 700l-463 -700h-65l464 700h64zM787 121h-59v-121h-67v121h-196v29l219 270h44v-252h59v-47zM661 168v155q-4 -6 -122 -155h122z" />
    <glyph glyph-name="questiondown" unicode="&#xbf;" horiz-adv-x="457" 
d="M257 384q-26 0 -44 17.5t-18 43.5t18 43.5t44 17.5t43.5 -17.5t17.5 -43.5t-17.5 -43.5t-43.5 -17.5zM364 -105l41 -41q-75 -90 -182 -90q-76 0 -130.5 39t-54.5 118q0 59 37 117q13 23 90 118q64 82 65 147h61q1 -7 1 -14q0 -78 -60 -165q-9 -13 -34 -45.5t-36 -48.5
t-21.5 -44t-10.5 -56q0 -47 28 -74.5t75 -27.5q39 0 68 16t63 51z" />
    <glyph glyph-name="Agrave" unicode="&#xc0;" horiz-adv-x="610" 
d="M611 0h-88l-74 215h-290l-82 -215h-78l283 700h71zM429 269l-119 348l-130 -348h249zM383 775l-32 -15l-213 129l56 58z" />
    <glyph glyph-name="Aacute" unicode="&#xc1;" horiz-adv-x="610" 
d="M611 0h-88l-74 215h-290l-82 -215h-78l283 700h71zM429 269l-119 348l-130 -348h249zM247 774l189 173l56 -57l-213 -130z" />
    <glyph glyph-name="Acircumflex" unicode="&#xc2;" horiz-adv-x="610" 
d="M611 0h-88l-74 215h-290l-82 -215h-78l283 700h71zM429 269l-119 348l-130 -348h249zM464 755h-46l-103 105l-102 -105h-45l119 172h58z" />
    <glyph glyph-name="Atilde" unicode="&#xc3;" horiz-adv-x="610" 
d="M611 0h-88l-74 215h-290l-82 -215h-78l283 700h71zM429 269l-119 348l-130 -348h249zM371 785q-25 0 -68 18q-50 21 -61 21q-34 0 -51 -39h-38q10 38 21 53q28 45 82 45q24 0 73 -20q52 -19 57 -19q39 0 53 47h39q-6 -36 -15 -53q-31 -53 -92 -53z" />
    <glyph glyph-name="Adieresis" unicode="&#xc4;" horiz-adv-x="610" 
d="M611 0h-88l-74 215h-290l-82 -215h-78l283 700h71zM429 269l-119 348l-130 -348h249zM411 786q-20 0 -35 14.5t-15 34.5t15 34.5t36 14.5q19 0 33.5 -14.5t14.5 -34.5q0 -19 -15 -34t-34 -15zM219 786q-20 0 -34.5 14.5t-14.5 34.5t14.5 34.5t35.5 14.5q20 0 34 -14.5
t14 -34.5t-14.5 -34.5t-34.5 -14.5z" />
    <glyph glyph-name="Aring" unicode="&#xc5;" horiz-adv-x="610" 
d="M611 0h-88l-74 215h-290l-82 -215h-78l283 700h71zM429 269l-119 348l-130 -348h249zM415 855q0 -42 -29 -70.5t-71 -28.5q-41 0 -70 29t-29 70q0 42 29 71t71 29q40 0 69.5 -29.5t29.5 -70.5zM367 855q0 22 -15 37.5t-37 15.5q-21 0 -36 -15.5t-15 -37.5t15 -37.5
t37 -15.5q21 0 36 15.5t15 37.5z" />
    <glyph glyph-name="AE" unicode="&#xc6;" horiz-adv-x="789" 
d="M764 0h-375v215h-213l-119 -215h-77l406 700h335v-63h-251v-239h247v-64h-247v-271h294v-63zM389 269v330l-182 -330h182z" />
    <glyph glyph-name="Ccedilla" unicode="&#xc7;" horiz-adv-x="681" 
d="M487 -135q0 -39 -35.5 -64.5t-88.5 -25.5q-36 0 -83 16l17 38q34 -12 66 -12q24 0 39 11t15 30q0 35 -50 35q-18 0 -35 -5l-9 8l40 95q-140 14 -229 113t-89 243q0 158 105 261.5t264 103.5q149 0 232 -74l-30 -50q-85 65 -201 65q-121 0 -202.5 -84t-81.5 -216
t82 -218.5t201 -86.5q113 0 190 54l31 -49q-90 -61 -206 -64q-4 0 -12 -0.5t-12 -0.5l-22 -55q11 1 24 1q36 0 58 -18.5t22 -50.5z" />
    <glyph glyph-name="Egrave" unicode="&#xc8;" horiz-adv-x="513" 
d="M475 0h-393v700h350v-63h-269v-239h264v-64h-264v-271h312v-63zM319 775l-32 -15l-213 129l56 58z" />
    <glyph glyph-name="Eacute" unicode="&#xc9;" horiz-adv-x="513" 
d="M475 0h-393v700h350v-63h-269v-239h264v-64h-264v-271h312v-63zM186 774l189 173l56 -57l-213 -130z" />
    <glyph glyph-name="Ecircumflex" unicode="&#xca;" horiz-adv-x="513" 
d="M475 0h-393v700h350v-63h-269v-239h264v-64h-264v-271h312v-63zM399 755h-46l-103 105l-102 -105h-45l119 172h58z" />
    <glyph glyph-name="Edieresis" unicode="&#xcb;" horiz-adv-x="513" 
d="M475 0h-393v700h350v-63h-269v-239h264v-64h-264v-271h312v-63zM349 786q-20 0 -35 14.5t-15 34.5t15 34.5t36 14.5q19 0 33.5 -14.5t14.5 -34.5q0 -19 -15 -34t-34 -15zM157 786q-20 0 -34.5 14.5t-14.5 34.5t14.5 34.5t35.5 14.5q20 0 34 -14.5t14 -34.5t-14.5 -34.5
t-34.5 -14.5z" />
    <glyph glyph-name="Igrave" unicode="&#xcc;" horiz-adv-x="245" 
d="M163 0h-81v700h81v-700zM192 775l-32 -15l-213 129l56 58z" />
    <glyph glyph-name="Iacute" unicode="&#xcd;" horiz-adv-x="245" 
d="M163 0h-81v700h81v-700zM57 774l189 173l56 -57l-213 -130z" />
    <glyph glyph-name="Icircumflex" unicode="&#xce;" horiz-adv-x="245" 
d="M163 0h-81v700h81v-700zM271 755h-46l-103 105l-102 -105h-45l119 172h58z" />
    <glyph glyph-name="Idieresis" unicode="&#xcf;" horiz-adv-x="245" 
d="M163 0h-81v700h81v-700zM219 786q-20 0 -35 14.5t-15 34.5t15 34.5t36 14.5q19 0 33.5 -14.5t14.5 -34.5q0 -19 -15 -34t-34 -15zM27 786q-20 0 -34.5 14.5t-14.5 34.5t14.5 34.5t35.5 14.5q20 0 34 -14.5t14 -34.5t-14.5 -34.5t-34.5 -14.5z" />
    <glyph glyph-name="Eth" unicode="&#xd0;" horiz-adv-x="726" 
d="M82 0v340h-121v52h121v308h158q96 0 153.5 -7.5t108.5 -30.5q82 -33 129.5 -108t47.5 -186q0 -204 -144 -302q-53 -36 -118 -51t-175 -15h-160zM163 63h78q96 0 153 11.5t97 44.5q100 78 100 247q0 173 -114 233q-66 37 -229 37h-85v-244h157v-52h-157v-277z" />
    <glyph glyph-name="Ntilde" unicode="&#xd1;" horiz-adv-x="735" 
d="M652 0h-78l-347 483l-75 105v-588h-70v700h76l354 -494l70 -100v594h70v-700zM426 785q-25 0 -68 18q-50 21 -61 21q-35 0 -51 -39h-38q10 38 21 53q28 45 82 45q24 0 73 -20q52 -19 57 -19q39 0 53 47h39q-6 -36 -15 -53q-31 -53 -92 -53z" />
    <glyph glyph-name="Ograve" unicode="&#xd2;" horiz-adv-x="794" 
d="M747 358q0 -159 -96.5 -264.5t-253.5 -105.5t-253.5 105.5t-96.5 263.5q0 154 99.5 254.5t251.5 100.5q151 0 250 -100.5t99 -253.5zM661 348q0 128 -69.5 216.5t-194.5 88.5q-86 0 -148 -46.5t-89.5 -113.5t-27.5 -143q0 -123 69 -213t196 -90q117 0 190.5 83.5
t73.5 217.5zM463 775l-32 -15l-213 129l56 58z" />
    <glyph glyph-name="Oacute" unicode="&#xd3;" horiz-adv-x="794" 
d="M747 358q0 -159 -96.5 -264.5t-253.5 -105.5t-253.5 105.5t-96.5 263.5q0 154 99.5 254.5t251.5 100.5q151 0 250 -100.5t99 -253.5zM661 348q0 128 -69.5 216.5t-194.5 88.5q-86 0 -148 -46.5t-89.5 -113.5t-27.5 -143q0 -123 69 -213t196 -90q117 0 190.5 83.5
t73.5 217.5zM327 774l189 173l56 -57l-213 -130z" />
    <glyph glyph-name="Ocircumflex" unicode="&#xd4;" horiz-adv-x="794" 
d="M747 358q0 -159 -96.5 -264.5t-253.5 -105.5t-253.5 105.5t-96.5 263.5q0 154 99.5 254.5t251.5 100.5q151 0 250 -100.5t99 -253.5zM661 348q0 128 -69.5 216.5t-194.5 88.5q-86 0 -148 -46.5t-89.5 -113.5t-27.5 -143q0 -123 69 -213t196 -90q117 0 190.5 83.5
t73.5 217.5zM545 755h-46l-103 105l-102 -105h-45l119 172h58z" />
    <glyph glyph-name="Otilde" unicode="&#xd5;" horiz-adv-x="794" 
d="M747 358q0 -159 -96.5 -264.5t-253.5 -105.5t-253.5 105.5t-96.5 263.5q0 154 99.5 254.5t251.5 100.5q151 0 250 -100.5t99 -253.5zM661 348q0 128 -69.5 216.5t-194.5 88.5q-86 0 -148 -46.5t-89.5 -113.5t-27.5 -143q0 -123 69 -213t196 -90q117 0 190.5 83.5
t73.5 217.5zM448 785q-25 0 -68 18q-50 21 -61 21q-35 0 -51 -39h-38q10 38 21 53q28 45 82 45q24 0 73 -20q52 -19 57 -19q39 0 53 47h39q-6 -36 -15 -53q-31 -53 -92 -53z" />
    <glyph glyph-name="Odieresis" unicode="&#xd6;" horiz-adv-x="794" 
d="M747 358q0 -159 -96.5 -264.5t-253.5 -105.5t-253.5 105.5t-96.5 263.5q0 154 99.5 254.5t251.5 100.5q151 0 250 -100.5t99 -253.5zM661 348q0 128 -69.5 216.5t-194.5 88.5q-86 0 -148 -46.5t-89.5 -113.5t-27.5 -143q0 -123 69 -213t196 -90q117 0 190.5 83.5
t73.5 217.5zM496 786q-20 0 -35 14.5t-15 34.5t15 34.5t36 14.5q19 0 33.5 -14.5t14.5 -34.5q0 -19 -14.5 -34t-34.5 -15zM304 786q-20 0 -34.5 14.5t-14.5 34.5t14.5 34.5t35.5 14.5q20 0 34 -14.5t14 -34.5t-14.5 -34.5t-34.5 -14.5z" />
    <glyph glyph-name="multiply" unicode="&#xd7;" 
d="M437 56l-157 157l-156 -157l-44 44l157 157l-157 156l44 44l156 -157l158 157l44 -44l-158 -156l157 -157z" />
    <glyph glyph-name="Oslash" unicode="&#xd8;" horiz-adv-x="794" 
d="M397 -12q-143 0 -240 92l-92 -89l-39 42l93 91q-72 98 -72 233q0 154 99.5 254.5t251.5 100.5q137 0 236 -88l93 91l40 -42l-94 -91q73 -95 73 -224q0 -158 -96 -264t-253 -106zM397 47q118 0 191 85t73 216q0 104 -48 178l-405 -398q71 -81 189 -81zM397 653
q-127 0 -196 -91.5t-69 -212.5q0 -96 45 -172l405 399q-72 77 -185 77z" />
    <glyph glyph-name="Ugrave" unicode="&#xd9;" horiz-adv-x="688" 
d="M616 700v-395q0 -91 -10 -134.5t-41 -82.5q-73 -100 -224 -100q-170 0 -236 119q-20 35 -26.5 76t-6.5 130v387h80v-384q0 -83 7.5 -124t28.5 -70q25 -34 67 -53t87 -19q106 0 160 70q27 34 33.5 73t6.5 125v382h74zM405 775l-32 -15l-213 129l56 58z" />
    <glyph glyph-name="Uacute" unicode="&#xda;" horiz-adv-x="688" 
d="M616 700v-395q0 -91 -10 -134.5t-41 -82.5q-73 -100 -224 -100q-170 0 -236 119q-20 35 -26.5 76t-6.5 130v387h80v-384q0 -83 7.5 -124t28.5 -70q25 -34 67 -53t87 -19q106 0 160 70q27 34 33.5 73t6.5 125v382h74zM273 774l189 173l56 -57l-213 -130z" />
    <glyph glyph-name="Ucircumflex" unicode="&#xdb;" horiz-adv-x="688" 
d="M616 700v-395q0 -91 -10 -134.5t-41 -82.5q-73 -100 -224 -100q-170 0 -236 119q-20 35 -26.5 76t-6.5 130v387h80v-384q0 -83 7.5 -124t28.5 -70q25 -34 67 -53t87 -19q106 0 160 70q27 34 33.5 73t6.5 125v382h74zM489 755h-46l-103 105l-102 -105h-45l119 172h58z" />
    <glyph glyph-name="Udieresis" unicode="&#xdc;" horiz-adv-x="688" 
d="M616 700v-395q0 -91 -10 -134.5t-41 -82.5q-73 -100 -224 -100q-170 0 -236 119q-20 35 -26.5 76t-6.5 130v387h80v-384q0 -83 7.5 -124t28.5 -70q25 -34 67 -53t87 -19q106 0 160 70q27 34 33.5 73t6.5 125v382h74zM445 786q-20 0 -35 14.5t-15 34.5t15 34.5t36 14.5
q19 0 33.5 -14.5t14.5 -34.5q0 -19 -15 -34t-34 -15zM253 786q-20 0 -34.5 14.5t-14.5 34.5t14.5 34.5t35.5 14.5q20 0 34 -14.5t14 -34.5t-14.5 -34.5t-34.5 -14.5z" />
    <glyph glyph-name="Yacute" unicode="&#xdd;" horiz-adv-x="525" 
d="M530 696l-241 -389v-307h-80v306l-213 384l83 19l175 -342l203 342zM186 774l189 173l56 -57l-213 -130z" />
    <glyph glyph-name="Thorn" unicode="&#xde;" horiz-adv-x="521" 
d="M163 0h-81v700h81v-133h56q118 0 185 -40q84 -51 84 -158q0 -113 -84 -172q-73 -51 -185 -51h-56v-146zM163 203h55q85 0 136 37t51 117q0 149 -186 149h-56v-303z" />
    <glyph glyph-name="germandbls" unicode="&#xdf;" horiz-adv-x="601" 
d="M559 130q0 -67 -45 -104.5t-117 -37.5q-79 0 -146 58l34 48q50 -53 107 -53q89 0 89 81q0 28 -14 50t-54 51q-71 53 -96.5 86t-25.5 68q0 19 5.5 36t19 42t18.5 37q19 38 19 82q0 47 -27.5 77t-73.5 30q-89 0 -89 -129v-552h-79v554q0 90 39 130q44 50 134 50
q78 0 124.5 -42t46.5 -111q0 -47 -32 -111q-26 -52 -26 -83q0 -44 69 -95q37 -28 58 -46.5t41.5 -50.5t20.5 -65z" />
    <glyph glyph-name="agrave" unicode="&#xe0;" horiz-adv-x="480" 
d="M431 0h-80q-13 36 -14 86q-23 -42 -68 -70t-86 -28q-60 0 -100.5 40t-40.5 102q0 72 63 120q49 38 133 61l95 24q-4 28 -9 45.5t-16 37t-31 29t-50 9.5q-37 0 -64 -13t-58 -41l-33 44q75 66 163 66q100 0 144 -60q17 -24 23.5 -58.5t6.5 -101.5v-143q0 -90 22 -149z
M196 47q49 0 88 42q52 55 52 139v53q-37 -6 -82 -20q-59 -19 -97.5 -51.5t-38.5 -74.5q0 -40 21.5 -64t56.5 -24zM302 594l-32 -15l-213 129l56 58z" />
    <glyph glyph-name="aacute" unicode="&#xe1;" horiz-adv-x="480" 
d="M431 0h-80q-13 36 -14 86q-23 -42 -68 -70t-86 -28q-60 0 -100.5 40t-40.5 102q0 72 63 120q49 38 133 61l95 24q-4 28 -9 45.5t-16 37t-31 29t-50 9.5q-37 0 -64 -13t-58 -41l-33 44q75 66 163 66q100 0 144 -60q17 -24 23.5 -58.5t6.5 -101.5v-143q0 -90 22 -149z
M196 47q49 0 88 42q52 55 52 139v53q-37 -6 -82 -20q-59 -19 -97.5 -51.5t-38.5 -74.5q0 -40 21.5 -64t56.5 -24zM167 593l189 173l56 -57l-213 -130z" />
    <glyph glyph-name="acircumflex" unicode="&#xe2;" horiz-adv-x="480" 
d="M431 0h-80q-13 36 -14 86q-23 -42 -68 -70t-86 -28q-60 0 -100.5 40t-40.5 102q0 72 63 120q49 38 133 61l95 24q-4 28 -9 45.5t-16 37t-31 29t-50 9.5q-37 0 -64 -13t-58 -41l-33 44q75 66 163 66q100 0 144 -60q17 -24 23.5 -58.5t6.5 -101.5v-143q0 -90 22 -149z
M196 47q49 0 88 42q52 55 52 139v53q-37 -6 -82 -20q-59 -19 -97.5 -51.5t-38.5 -74.5q0 -40 21.5 -64t56.5 -24zM384 564h-46l-103 105l-102 -105h-45l119 172h58z" />
    <glyph glyph-name="atilde" unicode="&#xe3;" horiz-adv-x="480" 
d="M431 0h-80q-13 36 -14 86q-23 -42 -68 -70t-86 -28q-60 0 -100.5 40t-40.5 102q0 72 63 120q49 38 133 61l95 24q-4 28 -9 45.5t-16 37t-31 29t-50 9.5q-37 0 -64 -13t-58 -41l-33 44q75 66 163 66q100 0 144 -60q17 -24 23.5 -58.5t6.5 -101.5v-143q0 -90 22 -149z
M196 47q49 0 88 42q52 55 52 139v53q-37 -6 -82 -20q-59 -19 -97.5 -51.5t-38.5 -74.5q0 -40 21.5 -64t56.5 -24zM291 594q-25 0 -68 18q-50 21 -61 21q-34 0 -51 -39h-38q10 38 21 53q28 45 82 45q24 0 73 -20q52 -19 57 -19q39 0 53 47h39q-6 -36 -15 -53q-31 -53 -92 -53
z" />
    <glyph glyph-name="adieresis" unicode="&#xe4;" horiz-adv-x="480" 
d="M431 0h-80q-13 36 -14 86q-23 -42 -68 -70t-86 -28q-60 0 -100.5 40t-40.5 102q0 72 63 120q49 38 133 61l95 24q-4 28 -9 45.5t-16 37t-31 29t-50 9.5q-37 0 -64 -13t-58 -41l-33 44q75 66 163 66q100 0 144 -60q17 -24 23.5 -58.5t6.5 -101.5v-143q0 -90 22 -149z
M196 47q49 0 88 42q52 55 52 139v53q-37 -6 -82 -20q-59 -19 -97.5 -51.5t-38.5 -74.5q0 -40 21.5 -64t56.5 -24zM332 595q-20 0 -35 14.5t-15 34.5t15 34.5t36 14.5q19 0 33.5 -14.5t14.5 -34.5t-14.5 -34.5t-34.5 -14.5zM140 595q-20 0 -34.5 14.5t-14.5 34.5t14.5 34.5
t35.5 14.5q20 0 34 -14.5t14 -34.5t-14.5 -34.5t-34.5 -14.5z" />
    <glyph glyph-name="aring" unicode="&#xe5;" horiz-adv-x="480" 
d="M431 0h-80q-13 36 -14 86q-23 -42 -68 -70t-86 -28q-60 0 -100.5 40t-40.5 102q0 72 63 120q49 38 133 61l95 24q-4 28 -9 45.5t-16 37t-31 29t-50 9.5q-37 0 -64 -13t-58 -41l-33 44q75 66 163 66q100 0 144 -60q17 -24 23.5 -58.5t6.5 -101.5v-143q0 -90 22 -149z
M196 47q49 0 88 42q52 55 52 139v53q-37 -6 -82 -20q-59 -19 -97.5 -51.5t-38.5 -74.5q0 -40 21.5 -64t56.5 -24zM340 664q0 -42 -29 -70.5t-71 -28.5q-40 0 -69.5 29.5t-29.5 69.5q0 42 29 71t71 29q40 0 69.5 -29.5t29.5 -70.5zM292 664q0 22 -15 37.5t-37 15.5
q-21 0 -36 -15.5t-15 -37.5t15 -37.5t37 -15.5q21 0 36 15.5t15 37.5z" />
    <glyph glyph-name="ae" unicode="&#xe6;" horiz-adv-x="806" 
d="M720 95l29 -44q-67 -63 -172 -63q-89 0 -147 47q-45 35 -67 89q-24 -56 -76.5 -96t-103.5 -40q-60 0 -100.5 40t-40.5 102q0 72 63 120q47 37 133 61l95 24q-4 28 -9 45.5t-16 37t-31 29t-50 9.5q-37 0 -64 -13t-58 -41l-33 44q72 66 163 66t134 -52q14 -18 19 -34
q14 25 43 45q55 41 129 41q113 0 165 -95q33 -59 33 -140q0 -15 -2 -27h-340q2 -93 47 -149t128 -56q67 0 129 50zM682 304l-1 18q-3 61 -37.5 100t-82.5 39q-58 0 -98 -40.5t-45 -116.5h264zM196 47q49 0 88 42q52 55 52 139v53q-46 -9 -82 -20q-59 -19 -97.5 -51.5
t-38.5 -74.5q0 -40 21.5 -64t56.5 -24z" />
    <glyph glyph-name="ccedilla" unicode="&#xe7;" horiz-adv-x="487" 
d="M374 -134q0 -39 -35 -64.5t-87 -25.5q-34 0 -82 16l16 38q31 -12 67 -12q24 0 38.5 11t14.5 30q0 35 -50 35q-19 0 -34 -4l-9 6l40 96q-90 15 -150 84t-60 175q0 118 77 189.5t189 71.5q95 0 147 -40l-29 -50q-46 32 -107 32q-86 0 -139 -57.5t-53 -143.5
q0 -92 55.5 -149.5t137.5 -57.5q59 0 112 32l25 -50q-59 -40 -166 -40l-21 -55q11 1 24 1q36 0 57.5 -18.5t21.5 -49.5z" />
    <glyph glyph-name="egrave" unicode="&#xe8;" horiz-adv-x="526" 
d="M441 95l28 -44q-69 -63 -177 -63q-93 0 -157 50q-92 74 -92 225q0 135 90 203q60 46 143 46q94 0 147 -61q55 -64 55 -174q0 -15 -1 -27h-351q2 -94 48 -149.5t133 -55.5q32 0 69.5 14t64.5 36zM403 304v8q0 63 -34.5 106t-92.5 43q-61 0 -101.5 -40.5t-45.5 -116.5h274z
M336 594l-32 -15l-213 129l56 58z" />
    <glyph glyph-name="eacute" unicode="&#xe9;" horiz-adv-x="526" 
d="M441 95l28 -44q-69 -63 -177 -63q-93 0 -157 50q-92 74 -92 225q0 135 90 203q60 46 143 46q94 0 147 -61q55 -64 55 -174q0 -15 -1 -27h-351q2 -94 48 -149.5t133 -55.5q32 0 69.5 14t64.5 36zM403 304v8q0 63 -34.5 106t-92.5 43q-61 0 -101.5 -40.5t-45.5 -116.5h274z
M203 593l189 173l56 -57l-213 -130z" />
    <glyph glyph-name="ecircumflex" unicode="&#xea;" horiz-adv-x="526" 
d="M441 95l28 -44q-69 -63 -177 -63q-93 0 -157 50q-92 74 -92 225q0 135 90 203q60 46 143 46q94 0 147 -61q55 -64 55 -174q0 -15 -1 -27h-351q2 -94 48 -149.5t133 -55.5q32 0 69.5 14t64.5 36zM403 304v8q0 63 -34.5 106t-92.5 43q-61 0 -101.5 -40.5t-45.5 -116.5h274z
M418 564h-46l-103 105l-102 -105h-45l119 172h58z" />
    <glyph glyph-name="edieresis" unicode="&#xeb;" horiz-adv-x="526" 
d="M441 95l28 -44q-69 -63 -177 -63q-93 0 -157 50q-92 74 -92 225q0 135 90 203q60 46 143 46q94 0 147 -61q55 -64 55 -174q0 -15 -1 -27h-351q2 -94 48 -149.5t133 -55.5q32 0 69.5 14t64.5 36zM403 304v8q0 63 -34.5 106t-92.5 43q-61 0 -101.5 -40.5t-45.5 -116.5h274z
M363 595q-20 0 -35 14.5t-15 34.5t15 34.5t36 14.5q19 0 33.5 -14.5t14.5 -34.5t-15 -34.5t-34 -14.5zM171 595q-20 0 -34.5 14.5t-14.5 34.5t14.5 34.5t35.5 14.5q20 0 34 -14.5t14 -34.5t-14.5 -34.5t-34.5 -14.5z" />
    <glyph glyph-name="igrave" unicode="&#xec;" horiz-adv-x="244" 
d="M189 594l-32 -15l-213 129l56 58zM162 0h-79v500h79v-500z" />
    <glyph glyph-name="iacute" unicode="&#xed;" horiz-adv-x="244" 
d="M54 593l189 173l56 -57l-213 -130zM162 0h-79v500h79v-500z" />
    <glyph glyph-name="icircumflex" unicode="&#xee;" horiz-adv-x="244" 
d="M162 0h-79v500h79v-500zM269 564h-46l-103 105l-102 -105h-45l119 172h58z" />
    <glyph glyph-name="idieresis" unicode="&#xef;" horiz-adv-x="244" 
d="M219 595q-20 0 -35 14.5t-15 34.5t15 34.5t36 14.5q19 0 33.5 -14.5t14.5 -34.5t-15 -34.5t-34 -14.5zM27 595q-20 0 -34.5 14.5t-14.5 34.5t14.5 34.5t35.5 14.5q20 0 34 -14.5t14 -34.5t-14.5 -34.5t-34.5 -14.5zM162 0h-79v500h79v-500z" />
    <glyph glyph-name="eth" unicode="&#xf0;" horiz-adv-x="578" 
d="M290 -12q-101 0 -174 73t-73 192q0 121 79 195q67 64 166 64q87 0 135 -54q-17 51 -52.5 99.5t-76.5 77.5l-121 -54l-19 40l95 44q-35 21 -86 40l24 49q73 -25 131 -59l97 45l18 -41l-74 -36q88 -71 132 -175.5t44 -202.5q0 -153 -86 -236q-64 -61 -159 -61zM289 41
q69 0 115.5 57t46.5 167q0 87 -41.5 140.5t-119.5 53.5q-70 0 -116.5 -55t-46.5 -152q0 -101 47.5 -156t114.5 -55z" />
    <glyph glyph-name="ntilde" unicode="&#xf1;" horiz-adv-x="572" 
d="M494 0h-78v275q0 87 -15 117q-30 61 -108 61q-79 0 -114 -75q-17 -39 -17 -120v-258h-79v500h79v-70q52 82 160 82q56 0 100.5 -29t59.5 -76q12 -33 12 -132v-275zM341 594q-25 0 -68 18q-50 21 -61 21q-34 0 -51 -39h-38q10 38 21 53q28 45 82 45q24 0 73 -20
q52 -19 57 -19q39 0 53 47h39q-6 -36 -15 -53q-31 -53 -92 -53z" />
    <glyph glyph-name="ograve" unicode="&#xf2;" horiz-adv-x="578" 
d="M290 -12q-98 0 -172.5 71t-74.5 194q0 116 71 187.5t175 71.5q105 0 175.5 -71t70.5 -188q0 -123 -74 -194t-171 -71zM289 41q67 0 114.5 55.5t47.5 156.5q0 97 -45.5 151.5t-115.5 54.5t-116.5 -55t-46.5 -151q0 -101 48 -156.5t114 -55.5zM356 594l-32 -15l-213 129
l56 58z" />
    <glyph glyph-name="oacute" unicode="&#xf3;" horiz-adv-x="578" 
d="M290 -12q-98 0 -172.5 71t-74.5 194q0 116 71 187.5t175 71.5q105 0 175.5 -71t70.5 -188q0 -123 -74 -194t-171 -71zM289 41q67 0 114.5 55.5t47.5 156.5q0 97 -45.5 151.5t-115.5 54.5t-116.5 -55t-46.5 -151q0 -101 48 -156.5t114 -55.5zM220 593l189 173l56 -57
l-213 -130z" />
    <glyph glyph-name="ocircumflex" unicode="&#xf4;" horiz-adv-x="578" 
d="M290 -12q-98 0 -172.5 71t-74.5 194q0 116 71 187.5t175 71.5q105 0 175.5 -71t70.5 -188q0 -123 -74 -194t-171 -71zM289 41q67 0 114.5 55.5t47.5 156.5q0 97 -45.5 151.5t-115.5 54.5t-116.5 -55t-46.5 -151q0 -101 48 -156.5t114 -55.5zM429 564h-46l-103 105
l-102 -105h-45l119 172h58z" />
    <glyph glyph-name="otilde" unicode="&#xf5;" horiz-adv-x="578" 
d="M290 -12q-98 0 -172.5 71t-74.5 194q0 116 71 187.5t175 71.5q105 0 175.5 -71t70.5 -188q0 -123 -74 -194t-171 -71zM289 41q67 0 114.5 55.5t47.5 156.5q0 97 -45.5 151.5t-115.5 54.5t-116.5 -55t-46.5 -151q0 -101 48 -156.5t114 -55.5zM342 594q-25 0 -68 18
q-50 21 -61 21q-35 0 -51 -39h-38q10 38 21 53q28 45 82 45q24 0 73 -20q52 -19 57 -19q39 0 53 47h39q-6 -36 -15 -53q-31 -53 -92 -53z" />
    <glyph glyph-name="odieresis" unicode="&#xf6;" horiz-adv-x="578" 
d="M290 -12q-98 0 -172.5 71t-74.5 194q0 116 71 187.5t175 71.5q105 0 175.5 -71t70.5 -188q0 -123 -74 -194t-171 -71zM289 41q67 0 114.5 55.5t47.5 156.5q0 97 -45.5 151.5t-115.5 54.5t-116.5 -55t-46.5 -151q0 -101 48 -156.5t114 -55.5zM386 595q-20 0 -35 14.5
t-15 34.5t15 34.5t36 14.5q19 0 33.5 -14.5t14.5 -34.5t-14.5 -34.5t-34.5 -14.5zM194 595q-20 0 -34.5 14.5t-14.5 34.5t14.5 34.5t35.5 14.5q20 0 34 -14.5t14 -34.5t-14.5 -34.5t-34.5 -14.5z" />
    <glyph glyph-name="divide" unicode="&#xf7;" 
d="M54 221v62h454v-62h-454zM228 86q0 23 15 38t38 15q22 0 37.5 -16t15.5 -37q0 -22 -15 -37.5t-38 -15.5t-38 15t-15 38zM228 419q0 23 15 37.5t38 14.5q22 0 37 -15t15 -37t-15 -38t-37 -16q-23 0 -38 15.5t-15 38.5z" />
    <glyph glyph-name="oslash" unicode="&#xf8;" horiz-adv-x="578" 
d="M290 -12q-104 0 -176 75l-78 -70l-35 41l81 70q-38 65 -38 149q0 116 70 187.5t175 71.5q106 0 176 -73l78 68l35 -40l-81 -71q38 -61 38 -143q0 -123 -74 -194t-171 -71zM290 460q-71 0 -117.5 -55t-46.5 -152q0 -55 17 -98l271 240q-45 65 -124 65zM289 40
q68 0 115.5 57t47.5 155q0 48 -15 93l-270 -239q47 -66 122 -66z" />
    <glyph glyph-name="ugrave" unicode="&#xf9;" horiz-adv-x="571" 
d="M489 0h-79v70q-54 -82 -161 -82q-56 0 -100 29t-60 75q-12 33 -12 133v275h79v-275q0 -89 14 -117q30 -61 108 -61q79 0 114 75q18 39 18 120v258h79v-500zM348 594l-32 -15l-213 129l56 58z" />
    <glyph glyph-name="uacute" unicode="&#xfa;" horiz-adv-x="571" 
d="M489 0h-79v70q-54 -82 -161 -82q-56 0 -100 29t-60 75q-12 33 -12 133v275h79v-275q0 -89 14 -117q30 -61 108 -61q79 0 114 75q18 39 18 120v258h79v-500zM214 593l189 173l56 -57l-213 -130z" />
    <glyph glyph-name="ucircumflex" unicode="&#xfb;" horiz-adv-x="571" 
d="M489 0h-79v70q-54 -82 -161 -82q-56 0 -100 29t-60 75q-12 33 -12 133v275h79v-275q0 -89 14 -117q30 -61 108 -61q79 0 114 75q18 39 18 120v258h79v-500zM430 564h-46l-103 105l-102 -105h-45l119 172h58z" />
    <glyph glyph-name="udieresis" unicode="&#xfc;" horiz-adv-x="571" 
d="M489 0h-79v70q-54 -82 -161 -82q-56 0 -100 29t-60 75q-12 33 -12 133v275h79v-275q0 -89 14 -117q30 -61 108 -61q79 0 114 75q18 39 18 120v258h79v-500zM369 595q-20 0 -35 14.5t-15 34.5t15 34.5t36 14.5q19 0 33.5 -14.5t14.5 -34.5t-15 -34.5t-34 -14.5zM177 595
q-20 0 -34.5 14.5t-14.5 34.5t14.5 34.5t35.5 14.5q20 0 34 -14.5t14 -34.5t-14.5 -34.5t-34.5 -14.5z" />
    <glyph glyph-name="yacute" unicode="&#xfd;" horiz-adv-x="495" 
d="M483 490l-253 -571q-44 -98 -85 -129q-51 -40 -128 -40h-21v58h21q48 0 74 17.5t51 60.5q20 35 70 151l-200 447l72 23l166 -394l166 394zM182 593l189 173l56 -57l-213 -130z" />
    <glyph glyph-name="thorn" unicode="&#xfe;" horiz-adv-x="608" 
d="M324 -12q-49 0 -94 25t-69 69v-332h-78v984h78v-323q61 101 177 101q97 0 161.5 -69.5t64.5 -181.5q0 -115 -67.5 -194t-172.5 -79zM318 44q74 0 118.5 56t44.5 157q0 93 -46.5 146t-107.5 53q-29 0 -56.5 -10.5t-53 -33.5t-41 -66.5t-15.5 -101.5q0 -88 41 -144t116 -56
z" />
    <glyph glyph-name="ydieresis" unicode="&#xff;" horiz-adv-x="495" 
d="M483 490l-253 -571q-44 -98 -85 -129q-51 -40 -128 -40h-21v58h21q48 0 74 17.5t51 60.5q20 35 70 151l-200 447l72 23l166 -394l166 394zM350 595q-20 0 -35 14.5t-15 34.5t15 34.5t36 14.5q19 0 33.5 -14.5t14.5 -34.5t-14.5 -34.5t-34.5 -14.5zM158 595
q-20 0 -34.5 14.5t-14.5 34.5t14.5 34.5t35.5 14.5q20 0 34 -14.5t14 -34.5t-14.5 -34.5t-34.5 -14.5z" />
    <glyph glyph-name="Amacron" unicode="&#x100;" horiz-adv-x="610" 
d="M611 0h-88l-74 215h-290l-82 -215h-78l283 700h71zM429 269l-119 348l-130 -348h249zM445 805h-262v60h262v-60z" />
    <glyph glyph-name="amacron" unicode="&#x101;" horiz-adv-x="480" 
d="M431 0h-80q-13 36 -14 86q-23 -42 -68 -70t-86 -28q-60 0 -100.5 40t-40.5 102q0 72 63 120q49 38 133 61l95 24q-4 28 -9 45.5t-16 37t-31 29t-50 9.5q-37 0 -64 -13t-58 -41l-33 44q75 66 163 66q100 0 144 -60q17 -24 23.5 -58.5t6.5 -101.5v-143q0 -90 22 -149z
M196 47q49 0 88 42q52 55 52 139v53q-37 -6 -82 -20q-59 -19 -97.5 -51.5t-38.5 -74.5q0 -40 21.5 -64t56.5 -24zM364 614h-262v60h262v-60z" />
    <glyph glyph-name="Abreve" unicode="&#x102;" horiz-adv-x="610" 
d="M611 0h-88l-74 215h-290l-82 -215h-78l283 700h71zM429 269l-119 348l-130 -348h249zM313 769q-46 0 -82 28.5t-53 74.5q-9 27 -11 56h42q29 -96 104 -96t104 96h43q-3 -40 -17 -69q-42 -90 -130 -90z" />
    <glyph glyph-name="abreve" unicode="&#x103;" horiz-adv-x="480" 
d="M431 0h-80q-13 36 -14 86q-23 -42 -68 -70t-86 -28q-60 0 -100.5 40t-40.5 102q0 72 63 120q49 38 133 61l95 24q-4 28 -9 45.5t-16 37t-31 29t-50 9.5q-37 0 -64 -13t-58 -41l-33 44q75 66 163 66q100 0 144 -60q17 -24 23.5 -58.5t6.5 -101.5v-143q0 -90 22 -149z
M196 47q49 0 88 42q52 55 52 139v53q-37 -6 -82 -20q-59 -19 -97.5 -51.5t-38.5 -74.5q0 -40 21.5 -64t56.5 -24zM234 570q-46 0 -82 28.5t-53 74.5q-9 27 -11 56h42q29 -96 104 -96t104 96h43q-3 -40 -17 -69q-42 -90 -130 -90z" />
    <glyph glyph-name="Aogonek" unicode="&#x104;" horiz-adv-x="610" 
d="M547 -210q-47 0 -76 23t-29 72q0 35 21 66.5t60 48.5l-74 215h-290l-82 -215h-78l283 700h71l258 -700h-17q-32 0 -60 -32t-28 -67q0 -30 20.5 -44.5t52.5 -14.5q26 0 49 8l16 -39q-51 -21 -97 -21zM429 269l-119 348l-130 -348h249z" />
    <glyph glyph-name="aogonek" unicode="&#x105;" horiz-adv-x="480" 
d="M380 -210q-47 0 -76 23t-29 72q0 78 86 115h-10q-13 36 -14 86q-23 -42 -68 -70t-86 -28q-60 0 -100.5 40t-40.5 102q0 72 63 120q49 38 133 61l95 24q-4 28 -9 45.5t-16 37t-31 29t-50 9.5q-37 0 -64 -13t-58 -41l-33 44q75 66 163 66q100 0 144 -60q17 -24 23.5 -58.5
t6.5 -101.5v-143q0 -90 22 -149h-6q-29 0 -57.5 -31t-28.5 -68q0 -30 20.5 -44.5t51.5 -14.5q28 0 49 8l17 -39q-51 -21 -97 -21zM196 47q49 0 88 42q52 55 52 139v53q-37 -6 -82 -20q-59 -19 -97.5 -51.5t-38.5 -74.5q0 -40 21.5 -64t56.5 -24z" />
    <glyph glyph-name="Cacute" unicode="&#x106;" horiz-adv-x="681" 
d="M604 102l31 -49q-52 -36 -104 -50.5t-125 -14.5q-156 0 -258.5 102t-102.5 257q0 158 105 261.5t264 103.5q149 0 232 -74l-30 -50q-85 65 -201 65q-121 0 -202.5 -84t-81.5 -216t82 -218.5t201 -86.5q113 0 190 54zM319 773l189 173l56 -57l-213 -130z" />
    <glyph glyph-name="cacute" unicode="&#x107;" horiz-adv-x="487" 
d="M433 78l25 -50q-58 -40 -161 -40t-178.5 71.5t-75.5 191.5q0 118 77 189.5t189 71.5q95 0 147 -40l-29 -50q-46 32 -107 32q-86 0 -139 -57.5t-53 -143.5q0 -92 55.5 -149.5t137.5 -57.5q59 0 112 32zM237 593l189 173l56 -57l-213 -130z" />
    <glyph glyph-name="Ccircumflex" unicode="&#x108;" horiz-adv-x="681" 
d="M604 102l31 -49q-52 -36 -104 -50.5t-125 -14.5q-156 0 -258.5 102t-102.5 257q0 158 105 261.5t264 103.5q149 0 232 -74l-30 -50q-85 65 -201 65q-121 0 -202.5 -84t-81.5 -216t82 -218.5t201 -86.5q113 0 190 54zM534 755h-46l-103 105l-102 -105h-45l119 172h58z" />
    <glyph glyph-name="ccircumflex" unicode="&#x109;" horiz-adv-x="487" 
d="M433 78l25 -50q-58 -40 -161 -40t-178.5 71.5t-75.5 191.5q0 118 77 189.5t189 71.5q95 0 147 -40l-29 -50q-46 32 -107 32q-86 0 -139 -57.5t-53 -143.5q0 -92 55.5 -149.5t137.5 -57.5q59 0 112 32zM455 564h-46l-103 105l-102 -105h-45l119 172h58z" />
    <glyph glyph-name="Cdotaccent" unicode="&#x10a;" horiz-adv-x="681" 
d="M604 102l31 -49q-52 -36 -104 -50.5t-125 -14.5q-156 0 -258.5 102t-102.5 257q0 158 105 261.5t264 103.5q149 0 232 -74l-30 -50q-85 65 -201 65q-121 0 -202.5 -84t-81.5 -216t82 -218.5t201 -86.5q113 0 190 54zM389 786q-21 0 -36.5 15t-15.5 35q0 22 15 36.5
t36 14.5q20 0 35 -15t15 -35q0 -21 -14.5 -36t-34.5 -15z" />
    <glyph glyph-name="cdotaccent" unicode="&#x10b;" horiz-adv-x="487" 
d="M433 78l25 -50q-58 -40 -161 -40t-178.5 71.5t-75.5 191.5q0 118 77 189.5t189 71.5q95 0 147 -40l-29 -50q-46 32 -107 32q-86 0 -139 -57.5t-53 -143.5q0 -92 55.5 -149.5t137.5 -57.5q59 0 112 32zM311 595q-21 0 -36.5 15t-15.5 35q0 22 15 36.5t36 14.5q20 0 35 -15
t15 -35q0 -21 -14.5 -36t-34.5 -15z" />
    <glyph glyph-name="Ccaron" unicode="&#x10c;" horiz-adv-x="681" 
d="M604 102l31 -49q-52 -36 -104 -50.5t-125 -14.5q-156 0 -258.5 102t-102.5 257q0 158 105 261.5t264 103.5q149 0 232 -74l-30 -50q-85 65 -201 65q-121 0 -202.5 -84t-81.5 -216t82 -218.5t201 -86.5q113 0 190 54zM534 927l-119 -172h-58l-119 172h45l102 -105l103 105
h46z" />
    <glyph glyph-name="ccaron" unicode="&#x10d;" horiz-adv-x="487" 
d="M433 78l25 -50q-58 -40 -161 -40t-178.5 71.5t-75.5 191.5q0 118 77 189.5t189 71.5q95 0 147 -40l-29 -50q-46 32 -107 32q-86 0 -139 -57.5t-53 -143.5q0 -92 55.5 -149.5t137.5 -57.5q59 0 112 32zM454 736l-119 -172h-58l-119 172h45l102 -105l103 105h46z" />
    <glyph glyph-name="Dcaron" unicode="&#x10e;" horiz-adv-x="725" 
d="M679 368q0 -204 -144 -302q-53 -36 -118 -51t-175 -15h-160v700h158q99 0 162 -8.5t115 -33.5q75 -35 118.5 -109t43.5 -181zM591 366q0 173 -114 233q-67 38 -229 38h-85v-574h78q96 0 153 11.5t97 44.5q100 78 100 247zM493 927l-119 -172h-58l-119 172h45l102 -105
l103 105h46z" />
    <glyph glyph-name="dcaron" unicode="&#x10f;" horiz-adv-x="608" 
d="M525 0h-78v86q-24 -44 -69.5 -71t-105.5 -27q-104 0 -166.5 77t-62.5 183q0 115 67 189.5t170 74.5q60 0 102.5 -29.5t64.5 -70.5v322h78v-734zM283 44q76 0 120 56t44 154q0 90 -44.5 146t-117.5 56q-71 0 -115 -54.5t-44 -147.5q0 -95 43.5 -152.5t113.5 -57.5z
M627 552l-34 5q7 49 7 109q0 45 -4 78l77 -8q-5 -83 -46 -184z" />
    <glyph glyph-name="Dcroat" unicode="&#x110;" horiz-adv-x="726" 
d="M82 0v340h-121v52h121v308h158q96 0 153.5 -7.5t108.5 -30.5q82 -33 129.5 -108t47.5 -186q0 -204 -144 -302q-53 -36 -118 -51t-175 -15h-160zM163 63h78q96 0 153 11.5t97 44.5q100 78 100 247q0 173 -114 233q-66 37 -229 37h-85v-244h157v-52h-157v-277z" />
    <glyph glyph-name="dcroat" unicode="&#x111;" horiz-adv-x="608" 
d="M525 0h-78v86q-24 -44 -69.5 -71t-105.5 -27q-104 0 -166.5 77t-62.5 183q0 115 67 189.5t170 74.5q60 0 102.5 -29.5t64.5 -70.5v183h-162v52h162v87h78v-87h58v-52h-58v-595zM283 44q76 0 120 56t44 154q0 90 -44.5 146t-117.5 56q-71 0 -115 -54.5t-44 -147.5
q0 -95 43.5 -152.5t113.5 -57.5z" />
    <glyph glyph-name="Emacron" unicode="&#x112;" horiz-adv-x="513" 
d="M475 0h-393v700h350v-63h-269v-239h264v-64h-264v-271h312v-63zM381 805h-262v60h262v-60z" />
    <glyph glyph-name="emacron" unicode="&#x113;" horiz-adv-x="526" 
d="M441 95l28 -44q-69 -63 -177 -63q-93 0 -157 50q-92 74 -92 225q0 135 90 203q60 46 143 46q94 0 147 -61q55 -64 55 -174q0 -15 -1 -27h-351q2 -94 48 -149.5t133 -55.5q32 0 69.5 14t64.5 36zM403 304v8q0 63 -34.5 106t-92.5 43q-61 0 -101.5 -40.5t-45.5 -116.5h274z
M397 614h-262v60h262v-60z" />
    <glyph glyph-name="Ebreve" unicode="&#x114;" horiz-adv-x="513" 
d="M475 0h-393v700h350v-63h-269v-239h264v-64h-264v-271h312v-63zM251 761q-46 0 -82 28.5t-53 74.5q-9 27 -11 56h42q29 -96 104 -96t104 96h43q-3 -40 -17 -69q-42 -90 -130 -90z" />
    <glyph glyph-name="ebreve" unicode="&#x115;" horiz-adv-x="526" 
d="M441 95l28 -44q-69 -63 -177 -63q-93 0 -157 50q-92 74 -92 225q0 135 90 203q60 46 143 46q94 0 147 -61q55 -64 55 -174q0 -15 -1 -27h-351q2 -94 48 -149.5t133 -55.5q32 0 69.5 14t64.5 36zM403 304v8q0 63 -34.5 106t-92.5 43q-61 0 -101.5 -40.5t-45.5 -116.5h274z
M269 570q-46 0 -82 28.5t-53 74.5q-9 27 -11 56h42q29 -96 104 -96t104 96h43q-3 -40 -17 -69q-42 -90 -130 -90z" />
    <glyph glyph-name="Edotaccent" unicode="&#x116;" horiz-adv-x="513" 
d="M475 0h-393v700h350v-63h-269v-239h264v-64h-264v-271h312v-63zM254 786q-21 0 -36.5 15t-15.5 35q0 22 15 36.5t36 14.5q20 0 35 -15t15 -35q0 -21 -14.5 -36t-34.5 -15z" />
    <glyph glyph-name="edotaccent" unicode="&#x117;" horiz-adv-x="526" 
d="M441 95l28 -44q-69 -63 -177 -63q-93 0 -157 50q-92 74 -92 225q0 135 90 203q60 46 143 46q94 0 147 -61q55 -64 55 -174q0 -15 -1 -27h-351q2 -94 48 -149.5t133 -55.5q32 0 69.5 14t64.5 36zM403 304v8q0 63 -34.5 106t-92.5 43q-61 0 -101.5 -40.5t-45.5 -116.5h274z
M273 595q-21 0 -36.5 15t-15.5 35q0 22 15 36.5t36 14.5q20 0 35 -15t15 -35q0 -21 -14.5 -36t-34.5 -15z" />
    <glyph glyph-name="Eogonek" unicode="&#x118;" horiz-adv-x="513" 
d="M475 0h-76q-32 -18 -50.5 -44.5t-18.5 -54.5q0 -30 20.5 -44.5t51.5 -14.5q27 0 50 8l16 -39q-51 -21 -97 -21q-47 0 -76 23t-29 72q0 35 21 66.5t60 48.5h-265v700h350v-63h-269v-239h264v-64h-264v-271h312v-63z" />
    <glyph glyph-name="eogonek" unicode="&#x119;" horiz-adv-x="526" 
d="M336 -210q-46 0 -75.5 23t-29.5 72q0 30 16.5 58.5t47.5 44.5q-99 0 -160 50q-92 74 -92 225q0 135 90 203q60 46 143 46q94 0 147 -61q55 -64 55 -174q0 -15 -1 -27h-351q2 -94 48 -149.5t133 -55.5q32 0 69.5 14t64.5 36l28 -44q-32 -30 -109 -61q-30 -11 -47 -36.5
t-17 -52.5q0 -30 20.5 -44.5t51.5 -14.5q28 0 49 8l17 -39q-51 -21 -98 -21zM403 304v8q0 63 -34.5 106t-92.5 43q-61 0 -101.5 -40.5t-45.5 -116.5h274z" />
    <glyph glyph-name="Ecaron" unicode="&#x11a;" horiz-adv-x="513" 
d="M475 0h-393v700h350v-63h-269v-239h264v-64h-264v-271h312v-63zM401 927l-119 -172h-58l-119 172h45l102 -105l103 105h46z" />
    <glyph glyph-name="ecaron" unicode="&#x11b;" horiz-adv-x="526" 
d="M441 95l28 -44q-69 -63 -177 -63q-93 0 -157 50q-92 74 -92 225q0 135 90 203q60 46 143 46q94 0 147 -61q55 -64 55 -174q0 -15 -1 -27h-351q2 -94 48 -149.5t133 -55.5q32 0 69.5 14t64.5 36zM403 304v8q0 63 -34.5 106t-92.5 43q-61 0 -101.5 -40.5t-45.5 -116.5h274z
M417 736l-119 -172h-58l-119 172h45l102 -105l103 105h46z" />
    <glyph glyph-name="Gcircumflex" unicode="&#x11c;" horiz-adv-x="740" 
d="M671 320v-283q-102 -49 -233 -49q-176 0 -283.5 101t-107.5 258q0 159 111 262t284 103q136 0 220 -60l-29 -52q-79 53 -185 53q-137 0 -226.5 -81.5t-89.5 -214.5q0 -132 81.5 -219.5t228.5 -87.5q75 0 149 33v237h80zM582 755h-46l-103 105l-102 -105h-45l119 172h58z
" />
    <glyph glyph-name="gcircumflex" unicode="&#x11d;" horiz-adv-x="599" 
d="M524 500v-462q0 -70 -17 -127q-25 -81 -90 -121.5t-154 -40.5q-100 0 -187 51l24 58q76 -48 161 -48q76 0 130 48q33 31 43.5 73t10.5 108v42q-65 -93 -176 -93q-72 0 -125 39t-77 96.5t-24 124.5q0 114 65.5 189t166.5 75q115 0 170 -85v73h79zM279 44q82 0 124 58.5
t42 155.5q0 90 -44.5 144t-115.5 54q-72 0 -115.5 -60t-43.5 -144q0 -90 45 -149t108 -59zM445 564h-46l-103 105l-102 -105h-45l119 172h58z" />
    <glyph glyph-name="Gbreve" unicode="&#x11e;" horiz-adv-x="740" 
d="M671 320v-283q-102 -49 -233 -49q-176 0 -283.5 101t-107.5 258q0 159 111 262t284 103q136 0 220 -60l-29 -52q-79 53 -185 53q-137 0 -226.5 -81.5t-89.5 -214.5q0 -132 81.5 -219.5t228.5 -87.5q75 0 149 33v237h80zM432 761q-46 0 -82 28.5t-53 74.5q-9 27 -11 56h42
q29 -96 104 -96t104 96h43q-3 -40 -17 -69q-42 -90 -130 -90z" />
    <glyph glyph-name="gbreve" unicode="&#x11f;" horiz-adv-x="599" 
d="M524 500v-462q0 -70 -17 -127q-25 -81 -90 -121.5t-154 -40.5q-100 0 -187 51l24 58q76 -48 161 -48q76 0 130 48q33 31 43.5 73t10.5 108v42q-65 -93 -176 -93q-72 0 -125 39t-77 96.5t-24 124.5q0 114 65.5 189t166.5 75q115 0 170 -85v73h79zM279 44q82 0 124 58.5
t42 155.5q0 90 -44.5 144t-115.5 54q-72 0 -115.5 -60t-43.5 -144q0 -90 45 -149t108 -59zM295 570q-46 0 -82 28.5t-53 74.5q-9 27 -11 56h42q29 -96 104 -96t104 96h43q-3 -40 -17 -69q-42 -90 -130 -90z" />
    <glyph glyph-name="Gdotaccent" unicode="&#x120;" horiz-adv-x="740" 
d="M671 320v-283q-102 -49 -233 -49q-176 0 -283.5 101t-107.5 258q0 159 111 262t284 103q136 0 220 -60l-29 -52q-79 53 -185 53q-137 0 -226.5 -81.5t-89.5 -214.5q0 -132 81.5 -219.5t228.5 -87.5q75 0 149 33v237h80zM439 786q-21 0 -36.5 15t-15.5 35q0 22 15 36.5
t36 14.5q20 0 35 -15t15 -35q0 -21 -14.5 -36t-34.5 -15z" />
    <glyph glyph-name="gdotaccent" unicode="&#x121;" horiz-adv-x="599" 
d="M524 500v-462q0 -70 -17 -127q-25 -81 -90 -121.5t-154 -40.5q-100 0 -187 51l24 58q76 -48 161 -48q76 0 130 48q33 31 43.5 73t10.5 108v42q-65 -93 -176 -93q-72 0 -125 39t-77 96.5t-24 124.5q0 114 65.5 189t166.5 75q115 0 170 -85v73h79zM279 44q82 0 124 58.5
t42 155.5q0 90 -44.5 144t-115.5 54q-72 0 -115.5 -60t-43.5 -144q0 -90 45 -149t108 -59zM299 595q-21 0 -36.5 15t-15.5 35q0 22 15 36.5t36 14.5q20 0 35 -15t15 -35q0 -21 -14.5 -36t-34.5 -15z" />
    <glyph glyph-name="Gcommaaccent" unicode="&#x122;" horiz-adv-x="740" 
d="M671 320v-283q-102 -49 -233 -49q-176 0 -283.5 101t-107.5 258q0 159 111 262t284 103q136 0 220 -60l-29 -52q-79 53 -185 53q-137 0 -226.5 -81.5t-89.5 -214.5q0 -132 81.5 -219.5t228.5 -87.5q75 0 149 33v237h80zM402 -250l-33 20l37 87q0 4 -9 18t-9 29
q0 20 14 34.5t35 14.5q22 0 36 -14.5t14 -34.5q0 -34 -25 -67z" />
    <glyph glyph-name="gcommaaccent" unicode="&#x123;" horiz-adv-x="599" 
d="M524 500v-462q0 -70 -17 -127q-25 -81 -90 -121.5t-154 -40.5q-100 0 -187 51l24 58q76 -48 161 -48q76 0 130 48q33 31 43.5 73t10.5 108v42q-65 -93 -176 -93q-72 0 -125 39t-77 96.5t-24 124.5q0 114 65.5 189t166.5 75q115 0 170 -85v73h79zM279 44q82 0 124 58.5
t42 155.5q0 90 -44.5 144t-115.5 54q-72 0 -115.5 -60t-43.5 -144q0 -90 45 -149t108 -59zM337 807l32 -19l-41 -93q0 -4 9 -18t9 -29q0 -20 -14 -34.5t-35 -14.5q-22 0 -36 14t-14 35q0 32 25 67z" />
    <glyph glyph-name="Hcircumflex" unicode="&#x124;" horiz-adv-x="711" 
d="M629 0h-81v354h-385v-354h-81v700h81v-283h385v283h81v-700zM503 755h-46l-103 105l-102 -105h-45l119 172h58z" />
    <glyph glyph-name="hcircumflex" unicode="&#x125;" horiz-adv-x="572" 
d="M494 0h-78v275q0 87 -15 117q-30 61 -108 61q-79 0 -114 -75q-17 -39 -17 -120v-258h-79v734h79v-304q52 82 160 82q56 0 100 -29t60 -76q12 -33 12 -133v-274zM269 768h-46l-103 105l-102 -105h-45l119 172h58z" />
    <glyph glyph-name="Hbar" unicode="&#x126;" horiz-adv-x="711" 
d="M629 0h-81v354h-385v-354h-81v533h-65v59h65v108h81v-108h385v108h81v-108h65v-59h-65v-533zM163 417h385v116h-385v-116z" />
    <glyph glyph-name="hbar" unicode="&#x127;" horiz-adv-x="572" 
d="M494 0h-78v275q0 87 -15 117q-30 61 -108 61q-79 0 -114 -75q-17 -39 -17 -120v-258h-79v595h-59v52h59v87h79v-87h161v-52h-161v-165q52 82 160 82q56 0 100 -29t60 -76q12 -33 12 -133v-274z" />
    <glyph glyph-name="Itilde" unicode="&#x128;" horiz-adv-x="245" 
d="M163 0h-81v700h81v-700zM178 785q-25 0 -68 18q-50 21 -61 21q-34 0 -51 -39h-38q10 38 21 53q28 45 82 45q24 0 73 -20q52 -19 57 -19q39 0 53 47h39q-6 -36 -15 -53q-31 -53 -92 -53z" />
    <glyph glyph-name="itilde" unicode="&#x129;" horiz-adv-x="244" 
d="M178 594q-25 0 -68 18q-50 21 -61 21q-34 0 -51 -39h-38q10 38 21 53q28 45 82 45q24 0 73 -20q52 -19 57 -19q39 0 53 47h39q-6 -36 -15 -53q-31 -53 -92 -53zM162 0h-79v500h79v-500z" />
    <glyph glyph-name="Imacron" unicode="&#x12a;" horiz-adv-x="245" 
d="M163 0h-81v700h81v-700zM252 805h-262v60h262v-60z" />
    <glyph glyph-name="imacron" unicode="&#x12b;" horiz-adv-x="244" 
d="M252 614h-262v60h262v-60zM162 0h-79v500h79v-500z" />
    <glyph glyph-name="Ibreve" unicode="&#x12c;" horiz-adv-x="245" 
d="M163 0h-81v700h81v-700zM122 761q-46 0 -82 28.5t-53 74.5q-9 27 -11 56h42q29 -96 104 -96t104 96h43q-3 -40 -17 -69q-42 -90 -130 -90z" />
    <glyph glyph-name="ibreve" unicode="&#x12d;" horiz-adv-x="244" 
d="M121 570q-46 0 -82 28.5t-53 74.5q-9 27 -11 56h42q29 -96 104 -96t104 96h43q-3 -40 -17 -69q-42 -90 -130 -90zM162 0h-79v500h79v-500z" />
    <glyph glyph-name="Iogonek" unicode="&#x12e;" horiz-adv-x="245" 
d="M130 -210q-47 0 -76 23t-29 72q0 35 21 66.5t60 48.5h-24v700h81v-700q-34 -15 -54 -42.5t-20 -56.5q0 -30 20.5 -44.5t52.5 -14.5q26 0 49 8l16 -39q-51 -21 -97 -21z" />
    <glyph glyph-name="iogonek" unicode="&#x12f;" horiz-adv-x="244" 
d="M130 -210q-47 0 -76 23t-29 72q0 35 21 66.5t60 48.5h-23v500h79v-500q-33 -15 -53 -42.5t-20 -56.5q0 -30 20.5 -44.5t51.5 -14.5q28 0 49 8l17 -39q-51 -21 -97 -21zM122 609q-21 0 -35.5 14.5t-14.5 35.5t14.5 36t36.5 15q20 0 35 -15t15 -36t-15 -35.5t-36 -14.5z
" />
    <glyph glyph-name="Idotaccent" unicode="&#x130;" horiz-adv-x="245" 
d="M163 0h-81v700h81v-700zM124 786q-21 0 -36.5 15t-15.5 35q0 22 15 36.5t36 14.5q20 0 35 -15t15 -35q0 -21 -14.5 -36t-34.5 -15z" />
    <glyph glyph-name="dotlessi" unicode="&#x131;" horiz-adv-x="244" 
d="M162 0h-79v500h79v-500z" />
    <glyph glyph-name="Jcircumflex" unicode="&#x134;" horiz-adv-x="254" 
d="M171 700v-669q0 -99 -13 -138q-15 -42 -52.5 -63.5t-89.5 -21.5v50q35 9 50 26.5t20 51t5 108.5v656h80zM279 763h-46l-103 105l-102 -105h-45l119 172h58z" />
    <glyph glyph-name="jcircumflex" unicode="&#x135;" horiz-adv-x="244" 
d="M162 500v-525q0 -120 -37.5 -172.5t-109.5 -52.5v41q20 4 35.5 19.5t21.5 33.5q11 33 11 142v514h79zM271 564h-46l-103 105l-102 -105h-45l119 172h58z" />
    <glyph glyph-name="Kcommaaccent" unicode="&#x136;" horiz-adv-x="572" 
d="M567 26l-79 -37l-325 379v-368h-81v700h81v-317l320 326l53 -46l-286 -285zM273 -250l-33 20l37 87q0 4 -9 18t-9 29q0 20 14 34.5t35 14.5q22 0 36 -14.5t14 -34.5q0 -34 -25 -67z" />
    <glyph glyph-name="kcommaaccent" unicode="&#x137;" horiz-adv-x="465" 
d="M458 24l-75 -34l-221 285v-275h-79v734h79v-449h2l208 223l60 -34l-191 -193zM220 -250l-33 20l37 87q0 4 -9 18t-9 29q0 20 14 34.5t35 14.5q22 0 36 -14.5t14 -34.5q0 -34 -25 -67z" />
    <glyph glyph-name="kgreenlandic" unicode="&#x138;" horiz-adv-x="465" 
d="M458 24l-75 -34l-221 285v-275h-79v500h79v-215h2l208 223l60 -34l-191 -193z" />
    <glyph glyph-name="Lacute" unicode="&#x139;" horiz-adv-x="478" 
d="M470 0h-388v700h81v-637h307v-63zM57 773l189 173l56 -57l-213 -130z" />
    <glyph glyph-name="lacute" unicode="&#x13a;" horiz-adv-x="244" 
d="M162 0h-79v734h79v-734zM54 796l189 173l56 -57l-213 -130z" />
    <glyph glyph-name="Lcommaaccent" unicode="&#x13b;" horiz-adv-x="478" 
d="M470 0h-388v700h81v-637h307v-63zM239 -250l-33 20l37 87q0 4 -9 18t-9 29q0 20 14 34.5t35 14.5q22 0 36 -14.5t14 -34.5q0 -34 -25 -67z" />
    <glyph glyph-name="lcommaaccent" unicode="&#x13c;" horiz-adv-x="244" 
d="M162 0h-79v734h79v-734zM88 -250l-33 20l37 87q0 4 -9 18t-9 29q0 20 14 34.5t35 14.5q22 0 36 -14.5t14 -34.5q0 -34 -25 -67z" />
    <glyph glyph-name="Lcaron" unicode="&#x13d;" horiz-adv-x="478" 
d="M470 0h-388v700h81v-637h307v-63zM263 552l-34 5q7 49 7 109q0 45 -4 78l77 -8q-5 -83 -46 -184z" />
    <glyph glyph-name="lcaron" unicode="&#x13e;" horiz-adv-x="244" 
d="M162 0h-79v734h79v-734zM266 552l-34 5q7 49 7 109q0 45 -4 78l77 -8q-5 -83 -46 -184z" />
    <glyph glyph-name="Ldot" unicode="&#x13f;" horiz-adv-x="478" 
d="M470 0h-388v700h81v-637h307v-63zM357 318q-21 0 -36.5 15t-15.5 35q0 22 15 36.5t36 14.5q20 0 35 -15t15 -35q0 -21 -14.5 -36t-34.5 -15z" />
    <glyph glyph-name="ldot" unicode="&#x140;" horiz-adv-x="341" 
d="M162 0h-79v734h79v-734zM294 326q-21 0 -36.5 15t-15.5 35q0 22 15 36.5t36 14.5q20 0 35 -15t15 -35q0 -21 -14.5 -36t-34.5 -15z" />
    <glyph glyph-name="Lslash" unicode="&#x141;" horiz-adv-x="478" 
d="M470 0h-388v302l-99 -59l-26 47l125 74v336h81v-291l118 70l27 -47l-145 -85v-284h307v-63z" />
    <glyph glyph-name="lslash" unicode="&#x142;" horiz-adv-x="248" 
d="M268 455l-104 -78v-377h-79v321l-73 -54l-31 41l104 78v348h79v-294l73 56z" />
    <glyph glyph-name="Nacute" unicode="&#x143;" horiz-adv-x="735" 
d="M652 0h-78l-347 483l-75 105v-588h-70v700h76l354 -494l70 -100v594h70v-700zM302 773l189 173l56 -57l-213 -130z" />
    <glyph glyph-name="nacute" unicode="&#x144;" horiz-adv-x="572" 
d="M494 0h-78v275q0 87 -15 117q-30 61 -108 61q-79 0 -114 -75q-17 -39 -17 -120v-258h-79v500h79v-70q52 82 160 82q56 0 100.5 -29t59.5 -76q12 -33 12 -132v-275zM227 593l189 173l56 -57l-213 -130z" />
    <glyph glyph-name="Ncommaaccent" unicode="&#x145;" horiz-adv-x="735" 
d="M652 0h-78l-347 483l-75 105v-588h-70v700h76l354 -494l70 -100v594h70v-700zM334 -250l-33 20l37 87q0 4 -9 18t-9 29q0 20 14 34.5t35 14.5q22 0 36 -14.5t14 -34.5q0 -34 -25 -67z" />
    <glyph glyph-name="ncommaaccent" unicode="&#x146;" horiz-adv-x="572" 
d="M494 0h-78v275q0 87 -15 117q-30 61 -108 61q-79 0 -114 -75q-17 -39 -17 -120v-258h-79v500h79v-70q52 82 160 82q56 0 100.5 -29t59.5 -76q12 -33 12 -132v-275zM258 -250l-33 20l37 87q0 4 -9 18t-9 29q0 20 14 34.5t35 14.5q22 0 36 -14.5t14 -34.5q0 -34 -25 -67z
" />
    <glyph glyph-name="Ncaron" unicode="&#x147;" horiz-adv-x="735" 
d="M652 0h-78l-347 483l-75 105v-588h-70v700h76l354 -494l70 -100v594h70v-700zM519 927l-119 -172h-58l-119 172h45l102 -105l103 105h46z" />
    <glyph glyph-name="ncaron" unicode="&#x148;" horiz-adv-x="572" 
d="M494 0h-78v275q0 87 -15 117q-30 61 -108 61q-79 0 -114 -75q-17 -39 -17 -120v-258h-79v500h79v-70q52 82 160 82q56 0 100.5 -29t59.5 -76q12 -33 12 -132v-275zM444 736l-119 -172h-58l-119 172h45l102 -105l103 105h46z" />
    <glyph glyph-name="Eng" unicode="&#x14a;" horiz-adv-x="735" 
d="M652 700v-726q0 -224 -144 -224v39q47 12 60.5 56.5t13.5 123.5v19l-355 495l-75 105v-588h-70v700h76l354 -494l70 -100v594h70z" />
    <glyph glyph-name="eng" unicode="&#x14b;" horiz-adv-x="572" 
d="M348 -250v41q20 4 35.5 19.5t20.5 33.5q12 36 12 142v289q0 87 -15 117q-30 61 -108 61q-79 0 -114 -75q-17 -39 -17 -120v-258h-79v500h79v-70q52 82 160 82q56 0 100.5 -29t59.5 -76q12 -33 12 -132v-300q0 -120 -37 -172.5t-109 -52.5z" />
    <glyph glyph-name="Omacron" unicode="&#x14c;" horiz-adv-x="794" 
d="M747 358q0 -159 -96.5 -264.5t-253.5 -105.5t-253.5 105.5t-96.5 263.5q0 154 99.5 254.5t251.5 100.5q151 0 250 -100.5t99 -253.5zM661 348q0 128 -69.5 216.5t-194.5 88.5q-86 0 -148 -46.5t-89.5 -113.5t-27.5 -143q0 -123 69 -213t196 -90q117 0 190.5 83.5
t73.5 217.5zM526 805h-262v60h262v-60z" />
    <glyph glyph-name="omacron" unicode="&#x14d;" horiz-adv-x="578" 
d="M290 -12q-98 0 -172.5 71t-74.5 194q0 116 71 187.5t175 71.5q105 0 175.5 -71t70.5 -188q0 -123 -74 -194t-171 -71zM289 41q67 0 114.5 55.5t47.5 156.5q0 97 -45.5 151.5t-115.5 54.5t-116.5 -55t-46.5 -151q0 -101 48 -156.5t114 -55.5zM418 614h-262v60h262v-60z
" />
    <glyph glyph-name="Obreve" unicode="&#x14e;" horiz-adv-x="794" 
d="M747 358q0 -159 -96.5 -264.5t-253.5 -105.5t-253.5 105.5t-96.5 263.5q0 154 99.5 254.5t251.5 100.5q151 0 250 -100.5t99 -253.5zM661 348q0 128 -69.5 216.5t-194.5 88.5q-86 0 -148 -46.5t-89.5 -113.5t-27.5 -143q0 -123 69 -213t196 -90q117 0 190.5 83.5
t73.5 217.5zM396 761q-46 0 -82 28.5t-53 74.5q-9 27 -11 56h42q29 -96 104 -96t104 96h43q-3 -40 -17 -69q-42 -90 -130 -90z" />
    <glyph glyph-name="obreve" unicode="&#x14f;" horiz-adv-x="578" 
d="M290 -12q-98 0 -172.5 71t-74.5 194q0 116 71 187.5t175 71.5q105 0 175.5 -71t70.5 -188q0 -123 -74 -194t-171 -71zM289 41q67 0 114.5 55.5t47.5 156.5q0 97 -45.5 151.5t-115.5 54.5t-116.5 -55t-46.5 -151q0 -101 48 -156.5t114 -55.5zM281 570q-46 0 -82 28.5
t-53 74.5q-9 27 -11 56h42q29 -96 104 -96t104 96h43q-3 -40 -17 -69q-42 -90 -130 -90z" />
    <glyph glyph-name="Ohungarumlaut" unicode="&#x150;" horiz-adv-x="794" 
d="M747 358q0 -159 -96.5 -264.5t-253.5 -105.5t-253.5 105.5t-96.5 263.5q0 154 99.5 254.5t251.5 100.5q151 0 250 -100.5t99 -253.5zM661 348q0 128 -69.5 216.5t-194.5 88.5q-86 0 -148 -46.5t-89.5 -113.5t-27.5 -143q0 -123 69 -213t196 -90q117 0 190.5 83.5
t73.5 217.5zM620 889l-157 -130h-60l163 175zM449 889l-156 -130h-60l163 175z" />
    <glyph glyph-name="ohungarumlaut" unicode="&#x151;" horiz-adv-x="578" 
d="M290 -12q-98 0 -172.5 71t-74.5 194q0 116 71 187.5t175 71.5q105 0 175.5 -71t70.5 -188q0 -123 -74 -194t-171 -71zM289 41q67 0 114.5 55.5t47.5 156.5q0 97 -45.5 151.5t-115.5 54.5t-116.5 -55t-46.5 -151q0 -101 48 -156.5t114 -55.5zM503 698l-157 -130h-60
l163 175zM332 698l-156 -130h-60l163 175z" />
    <glyph glyph-name="OE" unicode="&#x152;" horiz-adv-x="943" 
d="M917 0h-377q-94 -12 -142 -12q-157 0 -253.5 105t-96.5 263q0 155 99.5 255.5t251.5 100.5q51 0 140 -12h336v-64h-251v-239h245v-63h-245v-271h293v-63zM543 70v562q-52 21 -140 21q-87 0 -150 -44t-91.5 -110t-28.5 -144q0 -131 70 -219.5t199 -88.5q86 0 141 23z" />
    <glyph glyph-name="oe" unicode="&#x153;" horiz-adv-x="906" 
d="M821 95l29 -44q-67 -63 -172 -63q-85 0 -144 46q-34 26 -58 71q-33 -57 -85.5 -87t-110.5 -30q-94 0 -165.5 70.5t-71.5 194.5q0 117 69 188t169 71q125 0 194 -108q19 37 56 67q55 41 131 41q86 0 138 -57q59 -65 59 -177q0 -14 -2 -28h-338q2 -95 46 -150t128 -55
q31 0 66.5 14t61.5 36zM281 41q64 0 109 55t45 156q0 98 -43.5 152.5t-109.5 54.5t-110 -55t-44 -151q0 -101 45 -156.5t108 -55.5zM783 304l-1 18q-3 61 -37 99.5t-83 38.5q-59 0 -97.5 -40.5t-42.5 -115.5h261z" />
    <glyph glyph-name="Racute" unicode="&#x154;" horiz-adv-x="547" 
d="M530 15l-78 -27l-163 310h-126v-298h-81v700h138q124 0 186 -43q34 -24 54 -62.5t20 -84.5q0 -63 -35.5 -114.5t-86.5 -78.5zM398 504q0 61 -40 98q-46 40 -138 40h-57v-287h83q47 0 72.5 12t45.5 37q34 43 34 100zM191 773l189 173l56 -57l-213 -130z" />
    <glyph glyph-name="racute" unicode="&#x155;" horiz-adv-x="346" 
d="M360 468l-32 -53q-33 25 -68 25q-62 0 -85 -88q-13 -45 -13 -123v-229h-79v500h79v-82q2 7 7 20q29 74 101 74q46 0 90 -44zM150 593l189 173l56 -57l-213 -130z" />
    <glyph glyph-name="Rcommaaccent" unicode="&#x156;" horiz-adv-x="547" 
d="M530 15l-78 -27l-163 310h-126v-298h-81v700h138q124 0 186 -43q34 -24 54 -62.5t20 -84.5q0 -63 -35.5 -114.5t-86.5 -78.5zM398 504q0 61 -40 98q-46 40 -138 40h-57v-287h83q47 0 72.5 12t45.5 37q34 43 34 100zM250 -250l-33 20l37 87q0 4 -9 18t-9 29q0 20 14 34.5
t35 14.5q22 0 36 -14.5t14 -34.5q0 -34 -25 -67z" />
    <glyph glyph-name="rcommaaccent" unicode="&#x157;" horiz-adv-x="346" 
d="M360 468l-32 -53q-33 25 -68 25q-62 0 -85 -88q-13 -45 -13 -123v-229h-79v500h79v-82q2 7 7 20q29 74 101 74q46 0 90 -44zM87 -250l-33 20l37 87q0 4 -9 18t-9 29q0 20 14 34.5t35 14.5q22 0 36 -14.5t14 -34.5q0 -34 -25 -67z" />
    <glyph glyph-name="Rcaron" unicode="&#x158;" horiz-adv-x="547" 
d="M530 15l-78 -27l-163 310h-126v-298h-81v700h138q124 0 186 -43q34 -24 54 -62.5t20 -84.5q0 -63 -35.5 -114.5t-86.5 -78.5zM398 504q0 61 -40 98q-46 40 -138 40h-57v-287h83q47 0 72.5 12t45.5 37q34 43 34 100zM408 927l-119 -172h-58l-119 172h45l102 -105l103 105
h46z" />
    <glyph glyph-name="rcaron" unicode="&#x159;" horiz-adv-x="346" 
d="M360 468l-32 -53q-33 25 -68 25q-62 0 -85 -88q-13 -45 -13 -123v-229h-79v500h79v-82q2 7 7 20q29 74 101 74q46 0 90 -44zM367 736l-119 -172h-58l-119 172h45l102 -105l103 105h46z" />
    <glyph glyph-name="Sacute" unicode="&#x15a;" horiz-adv-x="504" 
d="M451 180q0 -83 -62.5 -137.5t-153.5 -54.5q-105 0 -184 62l36 54q70 -57 145 -57q58 0 98 38.5t40 85.5q0 49 -38 89q-26 27 -96 79.5t-99 81.5q-55 55 -55 122q0 74 56.5 121.5t143.5 47.5q91 0 157 -59l-35 -45q-55 45 -120 45q-58 0 -89.5 -32t-31.5 -74q0 -39 43 -82
q23 -24 95 -78.5t89 -69.5q61 -58 61 -137zM193 773l189 173l56 -57l-213 -130z" />
    <glyph glyph-name="sacute" unicode="&#x15b;" horiz-adv-x="397" 
d="M191 -12q-88 0 -151 60l34 48q20 -24 50.5 -39.5t58.5 -15.5q46 0 69 21.5t23 59.5q0 30 -18 54t-65 58q-40 28 -61.5 46.5t-40.5 48t-19 59.5q0 55 41 89.5t108 34.5q77 0 130 -45l-31 -42q-38 35 -87 35q-42 0 -63 -21t-21 -45q0 -42 62 -88q89 -64 116 -99t27 -84
q0 -61 -46 -98t-116 -37zM132 593l189 173l56 -57l-213 -130z" />
    <glyph glyph-name="Scircumflex" unicode="&#x15c;" horiz-adv-x="504" 
d="M451 180q0 -83 -62.5 -137.5t-153.5 -54.5q-105 0 -184 62l36 54q70 -57 145 -57q58 0 98 38.5t40 85.5q0 49 -38 89q-26 27 -96 79.5t-99 81.5q-55 55 -55 122q0 74 56.5 121.5t143.5 47.5q91 0 157 -59l-35 -45q-55 45 -120 45q-58 0 -89.5 -32t-31.5 -74q0 -39 43 -82
q23 -24 95 -78.5t89 -69.5q61 -58 61 -137zM410 755h-46l-103 105l-102 -105h-45l119 172h58z" />
    <glyph glyph-name="scircumflex" unicode="&#x15d;" horiz-adv-x="397" 
d="M191 -12q-88 0 -151 60l34 48q20 -24 50.5 -39.5t58.5 -15.5q46 0 69 21.5t23 59.5q0 30 -18 54t-65 58q-40 28 -61.5 46.5t-40.5 48t-19 59.5q0 55 41 89.5t108 34.5q77 0 130 -45l-31 -42q-38 35 -87 35q-42 0 -63 -21t-21 -45q0 -42 62 -88q89 -64 116 -99t27 -84
q0 -61 -46 -98t-116 -37zM351 564h-46l-103 105l-102 -105h-45l119 172h58z" />
    <glyph glyph-name="Scedilla" unicode="&#x15e;" horiz-adv-x="504" 
d="M220 -224q-34 0 -82 16l17 38q30 -12 66 -12q53 0 53 41q0 35 -49 35q-20 0 -35 -4l-9 6l39 92q-98 4 -169 62l36 54q70 -57 145 -57q58 0 98 38.5t40 85.5q0 49 -38 89q-27 28 -96.5 81t-98.5 81q-54 56 -54 123q0 70 58 118.5t141 48.5q93 0 157 -57l-36 -48
q-55 46 -121 46q-58 0 -88.5 -31t-30.5 -74q0 -40 36 -76q23 -24 99 -82t92 -73q61 -58 61 -137q0 -76 -54 -129.5t-136 -61.5l-22 -56q11 1 24 1q36 0 57.5 -18.5t21.5 -49.5q0 -39 -35 -64.5t-87 -25.5z" />
    <glyph glyph-name="scedilla" unicode="&#x15f;" horiz-adv-x="396" 
d="M169 -224q-35 0 -83 16l17 38q30 -12 66 -12q53 0 53 41q0 35 -49 35q-20 0 -35 -4l-9 6l39 93q-77 9 -128 59l34 48q20 -24 50 -39.5t58 -15.5q93 0 93 81q0 30 -18 54t-66 58q-40 29 -61 46.5t-40.5 47.5t-19.5 60q0 55 41 89.5t108 34.5q79 0 130 -45l-31 -42
q-38 35 -87 35q-41 0 -62 -21t-21 -45q0 -43 61 -88q89 -64 116 -99t27 -84q0 -57 -39.5 -93t-103.5 -41l-22 -56q11 1 24 1q36 0 57.5 -18.5t21.5 -49.5q0 -39 -34.5 -64.5t-86.5 -25.5z" />
    <glyph glyph-name="Scaron" unicode="&#x160;" horiz-adv-x="504" 
d="M451 180q0 -83 -62.5 -137.5t-153.5 -54.5q-105 0 -184 62l36 54q70 -57 145 -57q58 0 98 38.5t40 85.5q0 49 -38 89q-26 27 -96 79.5t-99 81.5q-55 55 -55 122q0 74 56.5 121.5t143.5 47.5q91 0 157 -59l-35 -45q-55 45 -120 45q-58 0 -89.5 -32t-31.5 -74q0 -39 43 -82
q23 -24 95 -78.5t89 -69.5q61 -58 61 -137zM411 927l-119 -172h-58l-119 172h45l102 -105l103 105h46z" />
    <glyph glyph-name="scaron" unicode="&#x161;" horiz-adv-x="397" 
d="M191 -12q-88 0 -151 60l34 48q20 -24 50.5 -39.5t58.5 -15.5q46 0 69 21.5t23 59.5q0 30 -18 54t-65 58q-40 28 -61.5 46.5t-40.5 48t-19 59.5q0 55 41 89.5t108 34.5q77 0 130 -45l-31 -42q-38 35 -87 35q-42 0 -63 -21t-21 -45q0 -42 62 -88q89 -64 116 -99t27 -84
q0 -61 -46 -98t-116 -37zM354 736l-119 -172h-58l-119 172h45l102 -105l103 105h46z" />
    <glyph glyph-name="uni0162" unicode="&#x162;" horiz-adv-x="549" 
d="M546 637h-231v-637h-81v637h-231v63h543v-63zM238 -250l-33 20l37 87q0 4 -9 18t-9 29q0 20 14 34.5t35 14.5q22 0 36 -14.5t14 -34.5q0 -34 -25 -67z" />
    <glyph glyph-name="uni0163" unicode="&#x163;" horiz-adv-x="339" 
d="M309 61l19 -41q-51 -32 -99 -32q-83 0 -114 59q-21 38 -21 124v278h-70v51h70v121l79 29v-150h129v-51h-129v-270q0 -70 14.5 -104t56.5 -34q30 0 65 20zM168 -250l-33 20l37 87q0 4 -9 18t-9 29q0 20 14 34.5t35 14.5q22 0 36 -14.5t14 -34.5q0 -34 -25 -67z" />
    <glyph glyph-name="Tcaron" unicode="&#x164;" horiz-adv-x="549" 
d="M546 637h-231v-637h-81v637h-231v63h543v-63zM423 927l-119 -172h-58l-119 172h45l102 -105l103 105h46z" />
    <glyph glyph-name="tcaron" unicode="&#x165;" horiz-adv-x="339" 
d="M309 61l19 -41q-51 -32 -99 -32q-83 0 -114 59q-21 38 -21 124v278h-70v51h70v121l79 29v-150h129v-51h-129v-270q0 -70 14.5 -104t56.5 -34q30 0 65 20zM264 541l-34 5q7 49 7 109q0 45 -4 78l77 -8q-5 -83 -46 -184z" />
    <glyph glyph-name="Tbar" unicode="&#x166;" horiz-adv-x="549" 
d="M546 637h-231v-273h137v-59h-137v-305h-81v305h-138v59h138v273h-231v63h543v-63z" />
    <glyph glyph-name="tbar" unicode="&#x167;" horiz-adv-x="339" 
d="M309 61l19 -41q-51 -32 -99 -32q-73 0 -104 42t-31 141v61h-55v51h55v166h-70v51h70v121l79 29v-150h129v-51h-129v-166h114v-51h-114v-12q0 -33 0.5 -49.5t2 -41.5t6 -37.5t12 -26t20.5 -19t30 -5.5q30 0 65 20z" />
    <glyph glyph-name="Utilde" unicode="&#x168;" horiz-adv-x="688" 
d="M616 700v-395q0 -91 -10 -134.5t-41 -82.5q-73 -100 -224 -100q-170 0 -236 119q-20 35 -26.5 76t-6.5 130v387h80v-384q0 -83 7.5 -124t28.5 -70q25 -34 67 -53t87 -19q106 0 160 70q27 34 33.5 73t6.5 125v382h74zM404 785q-25 0 -68 18q-50 21 -61 21q-35 0 -51 -39
h-38q10 38 21 53q28 45 82 45q24 0 73 -20q52 -19 57 -19q39 0 53 47h39q-6 -36 -15 -53q-31 -53 -92 -53z" />
    <glyph glyph-name="utilde" unicode="&#x169;" horiz-adv-x="571" 
d="M489 0h-79v70q-54 -82 -161 -82q-56 0 -100 29t-60 75q-12 33 -12 133v275h79v-275q0 -89 14 -117q30 -61 108 -61q79 0 114 75q18 39 18 120v258h79v-500zM331 594q-25 0 -68 18q-50 21 -61 21q-34 0 -51 -39h-38q10 38 21 53q28 45 82 45q24 0 73 -20q52 -19 57 -19
q39 0 53 47h39q-6 -36 -15 -53q-31 -53 -92 -53z" />
    <glyph glyph-name="Umacron" unicode="&#x16a;" horiz-adv-x="688" 
d="M616 700v-395q0 -91 -10 -134.5t-41 -82.5q-73 -100 -224 -100q-170 0 -236 119q-20 35 -26.5 76t-6.5 130v387h80v-384q0 -83 7.5 -124t28.5 -70q25 -34 67 -53t87 -19q106 0 160 70q27 34 33.5 73t6.5 125v382h74zM476 805h-262v60h262v-60z" />
    <glyph glyph-name="umacron" unicode="&#x16b;" horiz-adv-x="571" 
d="M489 0h-79v70q-54 -82 -161 -82q-56 0 -100 29t-60 75q-12 33 -12 133v275h79v-275q0 -89 14 -117q30 -61 108 -61q79 0 114 75q18 39 18 120v258h79v-500zM405 614h-262v60h262v-60z" />
    <glyph glyph-name="Ubreve" unicode="&#x16c;" horiz-adv-x="688" 
d="M616 700v-395q0 -91 -10 -134.5t-41 -82.5q-73 -100 -224 -100q-170 0 -236 119q-20 35 -26.5 76t-6.5 130v387h80v-384q0 -83 7.5 -124t28.5 -70q25 -34 67 -53t87 -19q106 0 160 70q27 34 33.5 73t6.5 125v382h74zM339 761q-46 0 -82 28.5t-53 74.5q-9 27 -11 56h42
q29 -96 104 -96t104 96h43q-3 -40 -17 -69q-42 -90 -130 -90z" />
    <glyph glyph-name="ubreve" unicode="&#x16d;" horiz-adv-x="571" 
d="M489 0h-79v70q-54 -82 -161 -82q-56 0 -100 29t-60 75q-12 33 -12 133v275h79v-275q0 -89 14 -117q30 -61 108 -61q79 0 114 75q18 39 18 120v258h79v-500zM276 570q-46 0 -82 28.5t-53 74.5q-9 27 -11 56h42q29 -96 104 -96t104 96h43q-3 -40 -17 -69q-42 -90 -130 -90z
" />
    <glyph glyph-name="Uring" unicode="&#x16e;" horiz-adv-x="688" 
d="M616 700v-395q0 -91 -10 -134.5t-41 -82.5q-73 -100 -224 -100q-170 0 -236 119q-20 35 -26.5 76t-6.5 130v387h80v-384q0 -83 7.5 -124t28.5 -70q25 -34 67 -53t87 -19q106 0 160 70q27 34 33.5 73t6.5 125v382h74zM448 855q0 -42 -29 -70.5t-71 -28.5q-40 0 -69.5 29
t-29.5 70q0 42 29 71t71 29q40 0 69.5 -29.5t29.5 -70.5zM400 855q0 22 -15 37.5t-37 15.5q-21 0 -36 -15.5t-15 -37.5t15 -37.5t37 -15.5q21 0 36 15.5t15 37.5z" />
    <glyph glyph-name="uring" unicode="&#x16f;" horiz-adv-x="571" 
d="M489 0h-79v70q-54 -82 -161 -82q-56 0 -100 29t-60 75q-12 33 -12 133v275h79v-275q0 -89 14 -117q30 -61 108 -61q79 0 114 75q18 39 18 120v258h79v-500zM376 664q0 -42 -29 -70.5t-71 -28.5q-40 0 -69.5 29.5t-29.5 69.5q0 42 29 71t71 29q40 0 69.5 -29.5t29.5 -70.5
zM328 664q0 22 -15 37.5t-37 15.5q-21 0 -36 -15.5t-15 -37.5t15 -37.5t37 -15.5q21 0 36 15.5t15 37.5z" />
    <glyph glyph-name="Uhungarumlaut" unicode="&#x170;" horiz-adv-x="688" 
d="M616 700v-395q0 -91 -10 -134.5t-41 -82.5q-73 -100 -224 -100q-170 0 -236 119q-20 35 -26.5 76t-6.5 130v387h80v-384q0 -83 7.5 -124t28.5 -70q25 -34 67 -53t87 -19q106 0 160 70q27 34 33.5 73t6.5 125v382h74zM554 889l-157 -130h-60l163 175zM383 889l-156 -130
h-60l163 175z" />
    <glyph glyph-name="uhungarumlaut" unicode="&#x171;" horiz-adv-x="571" 
d="M489 0h-79v70q-54 -82 -161 -82q-56 0 -100 29t-60 75q-12 33 -12 133v275h79v-275q0 -89 14 -117q30 -61 108 -61q79 0 114 75q18 39 18 120v258h79v-500zM498 698l-157 -130h-60l163 175zM327 698l-156 -130h-60l163 175z" />
    <glyph glyph-name="Uogonek" unicode="&#x172;" horiz-adv-x="688" 
d="M412 -210q-46 0 -75.5 23t-29.5 72q0 64 60 104q-16 -1 -26 -1q-170 0 -236 119q-20 35 -26.5 76t-6.5 130v387h80v-384q0 -83 7.5 -124t28.5 -70q25 -34 67 -53t87 -19q106 0 160 70q27 34 33.5 73t6.5 125v382h74v-395q0 -91 -10 -134.5t-41 -82.5q-42 -58 -120 -89
q-34 -15 -54 -42.5t-20 -55.5q0 -30 21 -44.5t52 -14.5q26 0 49 8l16 -39q-51 -21 -97 -21z" />
    <glyph glyph-name="uogonek" unicode="&#x173;" horiz-adv-x="571" 
d="M441 -210q-46 0 -75.5 23t-29.5 72q0 35 21.5 66.5t61.5 48.5h-9v70q-54 -82 -161 -82q-56 0 -100 29t-60 75q-12 33 -12 133v275h79v-275q0 -89 14 -117q30 -61 108 -61q79 0 114 75q18 39 18 120v258h79v-500h-8q-24 0 -52.5 -31.5t-28.5 -67.5q0 -30 21 -44.5
t52 -14.5q26 0 49 8l16 -39q-51 -21 -97 -21z" />
    <glyph glyph-name="Wcircumflex" unicode="&#x174;" horiz-adv-x="903" 
d="M913 696l-218 -696h-74l-172 577l-173 -577h-69l-214 695l83 14l172 -595l173 586h70l170 -592l178 601zM603 755h-46l-103 105l-102 -105h-45l119 172h58z" />
    <glyph glyph-name="wcircumflex" unicode="&#x175;" horiz-adv-x="787" 
d="M775 495l-183 -495h-55l-149 387l-150 -387h-53l-173 488l78 22l131 -401l150 391h54l147 -391l131 401zM544 564h-46l-103 105l-102 -105h-45l119 172h58z" />
    <glyph glyph-name="Ycircumflex" unicode="&#x176;" horiz-adv-x="525" 
d="M530 696l-241 -389v-307h-80v306l-213 384l83 19l175 -342l203 342zM415 755h-46l-103 105l-102 -105h-45l119 172h58z" />
    <glyph glyph-name="ycircumflex" unicode="&#x177;" horiz-adv-x="495" 
d="M483 490l-253 -571q-44 -98 -85 -129q-51 -40 -128 -40h-21v58h21q48 0 74 17.5t51 60.5q20 35 70 151l-200 447l72 23l166 -394l166 394zM397 564h-46l-103 105l-102 -105h-45l119 172h58z" />
    <glyph glyph-name="Ydieresis" unicode="&#x178;" horiz-adv-x="525" 
d="M530 696l-241 -389v-307h-80v306l-213 384l83 19l175 -342l203 342zM363 786q-20 0 -35 14.5t-15 34.5t15 34.5t36 14.5q19 0 33.5 -14.5t14.5 -34.5q0 -19 -15 -34t-34 -15zM171 786q-20 0 -34.5 14.5t-14.5 34.5t14.5 34.5t35.5 14.5q20 0 34 -14.5t14 -34.5
t-14.5 -34.5t-34.5 -14.5z" />
    <glyph glyph-name="Zacute" unicode="&#x179;" horiz-adv-x="573" 
d="M553 0h-527v41l415 599h-357v60h462v-34l-414 -606h421v-60zM222 773l189 173l56 -57l-213 -130z" />
    <glyph glyph-name="zacute" unicode="&#x17a;" horiz-adv-x="459" 
d="M429 0h-409v39l313 407h-255v54h353v-40l-309 -406h307v-54zM184 593l189 173l56 -57l-213 -130z" />
    <glyph glyph-name="Zdotaccent" unicode="&#x17b;" horiz-adv-x="573" 
d="M553 0h-527v41l415 599h-357v60h462v-34l-414 -606h421v-60zM311 786q-21 0 -36.5 15t-15.5 35q0 22 15 36.5t36 14.5q20 0 35 -15t15 -35q0 -21 -14.5 -36t-34.5 -15z" />
    <glyph glyph-name="zdotaccent" unicode="&#x17c;" horiz-adv-x="459" 
d="M429 0h-409v39l313 407h-255v54h353v-40l-309 -406h307v-54zM235 595q-21 0 -36.5 15t-15.5 35q0 22 15 36.5t36 14.5q20 0 35 -15t15 -35q0 -21 -14.5 -36t-34.5 -15z" />
    <glyph glyph-name="Zcaron" unicode="&#x17d;" horiz-adv-x="573" 
d="M553 0h-527v41l415 599h-357v60h462v-34l-414 -606h421v-60zM458 927l-119 -172h-58l-119 172h45l102 -105l103 105h46z" />
    <glyph glyph-name="zcaron" unicode="&#x17e;" horiz-adv-x="459" 
d="M429 0h-409v39l313 407h-255v54h353v-40l-309 -406h307v-54zM403 736l-119 -172h-58l-119 172h45l102 -105l103 105h46z" />
    <glyph glyph-name="florin" unicode="&#x192;" 
d="M511 714l-25 -45q-24 11 -44 11q-41 0 -60 -25q-19 -22 -32 -89l-21 -97h118l-10 -51h-119l-91 -444q-19 -89 -50 -128q-44 -56 -120 -56q-44 0 -75 19l26 46q21 -12 44 -12q46 0 69 42q13 23 26 86l92 447h-80l10 51h81l22 102q35 163 167 163q39 0 72 -20z" />
    <glyph glyph-name="AEacute" unicode="&#x1fc;" horiz-adv-x="789" 
d="M764 0h-375v215h-213l-119 -215h-77l406 700h335v-63h-251v-239h247v-64h-247v-271h294v-63zM389 269v330l-182 -330h182zM369 773l189 173l56 -57l-213 -130z" />
    <glyph glyph-name="aeacute" unicode="&#x1fd;" horiz-adv-x="806" 
d="M720 95l29 -44q-67 -63 -172 -63q-89 0 -147 47q-45 35 -67 89q-24 -56 -76.5 -96t-103.5 -40q-60 0 -100.5 40t-40.5 102q0 72 63 120q47 37 133 61l95 24q-4 28 -9 45.5t-16 37t-31 29t-50 9.5q-37 0 -64 -13t-58 -41l-33 44q72 66 163 66t134 -52q14 -18 19 -34
q14 25 43 45q55 41 129 41q113 0 165 -95q33 -59 33 -140q0 -15 -2 -27h-340q2 -93 47 -149t128 -56q67 0 129 50zM682 304l-1 18q-3 61 -37.5 100t-82.5 39q-58 0 -98 -40.5t-45 -116.5h264zM196 47q49 0 88 42q52 55 52 139v53q-46 -9 -82 -20q-59 -19 -97.5 -51.5
t-38.5 -74.5q0 -40 21.5 -64t56.5 -24zM317 593l189 173l56 -57l-213 -130z" />
    <glyph glyph-name="Oslashacute" unicode="&#x1fe;" horiz-adv-x="794" 
d="M327 774l189 173l56 -57l-213 -130zM397 -12q-143 0 -240 92l-92 -89l-39 42l93 91q-72 98 -72 233q0 154 99.5 254.5t251.5 100.5q137 0 236 -88l93 91l40 -42l-94 -91q73 -95 73 -224q0 -158 -96 -264t-253 -106zM397 47q118 0 191 85t73 216q0 104 -48 178l-405 -398
q71 -81 189 -81zM397 653q-127 0 -196 -91.5t-69 -212.5q0 -96 45 -172l405 399q-72 77 -185 77z" />
    <glyph glyph-name="oslashacute" unicode="&#x1ff;" horiz-adv-x="578" 
d="M220 593l189 173l56 -57l-213 -130zM290 -12q-104 0 -176 75l-78 -70l-35 41l81 70q-38 65 -38 149q0 116 70 187.5t175 71.5q106 0 176 -73l78 68l35 -40l-81 -71q38 -61 38 -143q0 -123 -74 -194t-171 -71zM290 460q-71 0 -117.5 -55t-46.5 -152q0 -55 17 -98l271 240
q-45 65 -124 65zM289 40q68 0 115.5 57t47.5 155q0 48 -15 93l-270 -239q47 -66 122 -66z" />
    <glyph glyph-name="Scommaaccent" unicode="&#x218;" horiz-adv-x="504" 
d="M451 180q0 -83 -62.5 -137.5t-153.5 -54.5q-105 0 -184 62l36 54q70 -57 145 -57q58 0 98 38.5t40 85.5q0 49 -38 89q-26 27 -96 79.5t-99 81.5q-55 55 -55 122q0 74 56.5 121.5t143.5 47.5q91 0 157 -59l-35 -45q-55 45 -120 45q-58 0 -89.5 -32t-31.5 -74q0 -39 43 -82
q23 -24 95 -78.5t89 -69.5q61 -58 61 -137zM203 -250l-33 20l37 87q0 4 -9 18t-9 29q0 20 14 34.5t35 14.5q22 0 36 -14.5t14 -34.5q0 -34 -25 -67z" />
    <glyph glyph-name="scommaaccent" unicode="&#x219;" horiz-adv-x="397" 
d="M191 -12q-88 0 -151 60l34 48q20 -24 50.5 -39.5t58.5 -15.5q46 0 69 21.5t23 59.5q0 30 -18 54t-65 58q-40 28 -61.5 46.5t-40.5 48t-19 59.5q0 55 41 89.5t108 34.5q77 0 130 -45l-31 -42q-38 35 -87 35q-42 0 -63 -21t-21 -45q0 -42 62 -88q89 -64 116 -99t27 -84
q0 -61 -46 -98t-116 -37zM164 -250l-33 20l37 87q0 4 -9 18t-9 29q0 20 14 34.5t35 14.5q22 0 36 -14.5t14 -34.5q0 -34 -25 -67z" />
    <glyph glyph-name="uni021A" unicode="&#x21a;" horiz-adv-x="549" 
d="M546 637h-231v-637h-81v637h-231v63h543v-63zM238 -250l-33 20l37 87q0 4 -9 18t-9 29q0 20 14 34.5t35 14.5q22 0 36 -14.5t14 -34.5q0 -34 -25 -67z" />
    <glyph glyph-name="uni021B" unicode="&#x21b;" horiz-adv-x="339" 
d="M309 61l19 -41q-51 -32 -99 -32q-83 0 -114 59q-21 38 -21 124v278h-70v51h70v121l79 29v-150h129v-51h-129v-270q0 -70 14.5 -104t56.5 -34q30 0 65 20zM168 -250l-33 20l37 87q0 4 -9 18t-9 29q0 20 14 34.5t35 14.5q22 0 36 -14.5t14 -34.5q0 -34 -25 -67z" />
    <glyph glyph-name="dotlessj" unicode="&#x237;" horiz-adv-x="244" 
d="M162 500v-525q0 -120 -37.5 -172.5t-109.5 -52.5v41q20 4 35.5 19.5t21.5 33.5q11 33 11 142v514h79z" />
    <glyph glyph-name="circumflex" unicode="&#x2c6;" horiz-adv-x="522" 
d="M411 564h-46l-103 105l-102 -105h-45l119 172h58z" />
    <glyph glyph-name="caron" unicode="&#x2c7;" horiz-adv-x="522" 
d="M411 736l-119 -172h-58l-119 172h45l102 -105l103 105h46z" />
    <glyph glyph-name="uni02C9" unicode="&#x2c9;" horiz-adv-x="522" 
d="M400 614h-278v60h278v-60z" />
    <glyph glyph-name="breve" unicode="&#x2d8;" horiz-adv-x="522" 
d="M262 570q-46 0 -82 28.5t-53 74.5q-9 27 -11 56h42q29 -96 104 -96t104 96h43q-3 -40 -17 -69q-42 -90 -130 -90z" />
    <glyph glyph-name="dotaccent" unicode="&#x2d9;" horiz-adv-x="522" 
d="M264 595q-21 0 -36.5 15t-15.5 35q0 22 15 36.5t36 14.5q20 0 35 -15t15 -35q0 -21 -14.5 -36t-34.5 -15z" />
    <glyph glyph-name="ring" unicode="&#x2da;" horiz-adv-x="522" 
d="M362 664q0 -42 -29 -70.5t-71 -28.5q-40 0 -69.5 29.5t-29.5 69.5q0 42 29 71t71 29q40 0 69.5 -29.5t29.5 -70.5zM314 664q0 22 -15 37.5t-37 15.5q-21 0 -36 -15.5t-15 -37.5t15 -37.5t37 -15.5q21 0 36 15.5t15 37.5z" />
    <glyph glyph-name="ogonek" unicode="&#x2db;" horiz-adv-x="522" 
d="M433 -150l17 -39q-51 -21 -97 -21q-47 0 -76 23t-29 72q0 35 21 66.5t60 48.5h52q-33 -18 -51 -44.5t-18 -54.5q0 -30 20.5 -44.5t51.5 -14.5q28 0 49 8z" />
    <glyph glyph-name="tilde" unicode="&#x2dc;" horiz-adv-x="522" 
d="M317 594q-25 0 -68 18q-50 21 -61 21q-34 0 -51 -39h-38q10 38 21 53q28 45 82 45q24 0 73 -20q52 -19 57 -19q39 0 53 47h39q-6 -36 -15 -53q-31 -53 -92 -53z" />
    <glyph glyph-name="hungarumlaut" unicode="&#x2dd;" horiz-adv-x="522" 
d="M489 698l-157 -130h-60l163 175zM318 698l-156 -130h-60l163 175z" />
    <glyph glyph-name="uni0394" unicode="&#x394;" horiz-adv-x="648" 
d="M634 0h-617v42l264 658h90l263 -658v-42zM545 67l-202 516q-7 18 -17 54h-3q-4 -22 -17 -54l-202 -516h441z" />
    <glyph glyph-name="uni03A9" unicode="&#x3a9;" horiz-adv-x="754" 
d="M700 0h-247v60q30 25 52 47t50.5 61.5t44 92t15.5 114.5q0 124 -62 199t-178 75q-109 0 -176 -74t-67 -199q0 -201 164 -316v-60h-250v67h167q-65 44 -116.5 126.5t-51.5 196.5q0 140 93 231t239 91q153 0 238.5 -89t85.5 -232q0 -107 -50.5 -193t-119.5 -131h169v-67z
" />
    <glyph glyph-name="uni03BC" unicode="&#x3bc;" horiz-adv-x="540" 
d="M490 0h-79v68q-19 -38 -53.5 -59t-74.5 -21q-39 0 -73 21t-53 59v-245h-79v677h79v-261q0 -80 18 -117q16 -37 46 -55t63 -18q75 0 109 73q18 41 18 117v261h79v-500z" />
    <glyph glyph-name="pi" unicode="&#x3c0;" horiz-adv-x="724" 
d="M649 58l15 -53q-31 -17 -74 -17q-124 0 -124 143v304h-201v-297q0 -90 -16 -138h-80q16 58 16 144v291q-62 -2 -112 -25l-25 57q55 33 153 33h462v-65h-117v-293q0 -93 67 -93q18 0 36 9z" />
    <glyph glyph-name="Wgrave" unicode="&#x1e80;" horiz-adv-x="903" 
d="M913 696l-218 -696h-74l-172 577l-173 -577h-69l-214 695l83 14l172 -595l173 586h70l170 -592l178 601zM523 774l-32 -15l-213 129l56 58z" />
    <glyph glyph-name="wgrave" unicode="&#x1e81;" horiz-adv-x="787" 
d="M775 495l-183 -495h-55l-149 387l-150 -387h-53l-173 488l78 22l131 -401l150 391h54l147 -391l131 401zM463 594l-32 -15l-213 129l56 58z" />
    <glyph glyph-name="Wacute" unicode="&#x1e82;" horiz-adv-x="903" 
d="M913 696l-218 -696h-74l-172 577l-173 -577h-69l-214 695l83 14l172 -595l173 586h70l170 -592l178 601zM387 773l189 173l56 -57l-213 -130z" />
    <glyph glyph-name="wacute" unicode="&#x1e83;" horiz-adv-x="787" 
d="M775 495l-183 -495h-55l-149 387l-150 -387h-53l-173 488l78 22l131 -401l150 391h54l147 -391l131 401zM328 593l189 173l56 -57l-213 -130z" />
    <glyph glyph-name="Wdieresis" unicode="&#x1e84;" horiz-adv-x="903" 
d="M913 696l-218 -696h-74l-172 577l-173 -577h-69l-214 695l83 14l172 -595l173 586h70l170 -592l178 601zM549 786q-20 0 -35 14.5t-15 34.5t15 34.5t36 14.5q19 0 33.5 -14.5t14.5 -34.5q0 -19 -15 -34t-34 -15zM357 786q-20 0 -34.5 14.5t-14.5 34.5t14.5 34.5
t35.5 14.5q20 0 34 -14.5t14 -34.5t-14.5 -34.5t-34.5 -14.5z" />
    <glyph glyph-name="wdieresis" unicode="&#x1e85;" horiz-adv-x="787" 
d="M775 495l-183 -495h-55l-149 387l-150 -387h-53l-173 488l78 22l131 -401l150 391h54l147 -391l131 401zM492 595q-20 0 -35 14.5t-15 34.5t15 34.5t36 14.5q19 0 33.5 -14.5t14.5 -34.5t-14.5 -34.5t-34.5 -14.5zM300 595q-20 0 -34.5 14.5t-14.5 34.5t14.5 34.5
t35.5 14.5q20 0 34 -14.5t14 -34.5t-14.5 -34.5t-34.5 -14.5z" />
    <glyph glyph-name="Ygrave" unicode="&#x1ef2;" horiz-adv-x="525" 
d="M530 696l-241 -389v-307h-80v306l-213 384l83 19l175 -342l203 342zM320 775l-32 -15l-213 129l56 58z" />
    <glyph glyph-name="ygrave" unicode="&#x1ef3;" horiz-adv-x="495" 
d="M483 490l-253 -571q-44 -98 -85 -129q-51 -40 -128 -40h-21v58h21q48 0 74 17.5t51 60.5q20 35 70 151l-200 447l72 23l166 -394l166 394zM316 594l-32 -15l-213 129l56 58z" />
    <glyph glyph-name="endash" unicode="&#x2013;" horiz-adv-x="565" 
d="M551 206h-551v61h551v-61z" />
    <glyph glyph-name="emdash" unicode="&#x2014;" horiz-adv-x="802" 
d="M748 206h-708v61h708v-61z" />
    <glyph glyph-name="quoteleft" unicode="&#x2018;" horiz-adv-x="288" 
d="M226 720l-71 -154q0 -5 12 -22t12 -37q0 -26 -17.5 -43t-43.5 -17q-28 0 -44.5 17.5t-16.5 42.5q0 34 33 81l103 152z" />
    <glyph glyph-name="quoteright" unicode="&#x2019;" horiz-adv-x="288" 
d="M115 447l-33 19l72 154q0 5 -12.5 22t-12.5 37q0 26 17.5 43t43.5 17q28 0 44.5 -17.5t16.5 -42.5q0 -35 -32 -81z" />
    <glyph glyph-name="quotesinglbase" unicode="&#x201a;" horiz-adv-x="288" 
d="M76 -185l-33 19l71 154q0 5 -12 22t-12 37q0 26 17.5 43t43.5 17q28 0 44.5 -17.5t16.5 -42.5q0 -32 -33 -81z" />
    <glyph glyph-name="quotedblleft" unicode="&#x201c;" horiz-adv-x="477" 
d="M222 720l-71 -154q0 -5 12 -22t12 -37q0 -26 -17.5 -43t-43.5 -17q-28 0 -44.5 17.5t-16.5 42.5q0 34 33 81l103 151zM422 720l-71 -154q0 -5 12 -22t12 -37q0 -26 -17.5 -43t-43.5 -17q-28 0 -44.5 17.5t-16.5 42.5q0 34 33 81l103 151z" />
    <glyph glyph-name="quotedblright" unicode="&#x201d;" horiz-adv-x="478" 
d="M90 447l-32 19l71 154q0 5 -12.5 22t-12.5 37q0 26 17.5 43t43.5 17q28 0 45 -17.5t17 -42.5q0 -34 -33 -81zM291 447l-33 19l72 154q0 5 -12.5 22t-12.5 37q0 26 17.5 43t43.5 17q28 0 44.5 -17.5t16.5 -42.5q0 -35 -32 -81z" />
    <glyph glyph-name="quotedblbase" unicode="&#x201e;" horiz-adv-x="481" 
d="M74 -185l-33 19l71 155q0 4 -12 21t-12 38q0 25 17.5 42t43.5 17q28 0 44.5 -17.5t16.5 -42.5q0 -32 -33 -81zM278 -185l-32 19l71 155q0 4 -12.5 21t-12.5 38q0 25 17.5 42t43.5 17q28 0 45 -17.5t17 -42.5q0 -32 -33 -81z" />
    <glyph glyph-name="dagger" unicode="&#x2020;" horiz-adv-x="548" 
d="M484 429h-83l-112 19l24 -179l-24 -439h-29l-25 439l24 179l-110 -19h-82v71h82l110 -19l-22 126v105h76v-105l-24 -126l112 19h83v-71z" />
    <glyph glyph-name="daggerdbl" unicode="&#x2021;" horiz-adv-x="548" 
d="M484 42h-83l-112 19l24 -126v-105h-76v105l22 126l-110 -19h-82v70h82l110 -19l-24 177l24 178l-110 -19h-82v71h82l110 -19l-22 126v105h76v-105l-24 -126l112 19h83v-71h-83l-112 19l24 -178l-24 -177l112 19h83v-70z" />
    <glyph glyph-name="bullet" unicode="&#x2022;" horiz-adv-x="500" 
d="M251 209q-60 0 -103.5 43t-43.5 103q0 61 43 103t105 42q59 0 101.5 -43t42.5 -102q0 -60 -42.5 -103t-102.5 -43z" />
    <glyph glyph-name="ellipsis" unicode="&#x2026;" horiz-adv-x="827" 
d="M137 -8q-26 0 -43 17t-17 43q0 27 17.5 45t45.5 18q25 0 42 -18t17 -44q0 -25 -18 -43t-44 -18zM414 -8q-26 0 -43.5 17.5t-17.5 42.5q0 27 18 45t46 18q25 0 42 -18t17 -44q0 -25 -18.5 -43t-43.5 -18zM690 -8q-26 0 -43 17t-17 43q0 27 17.5 45t45.5 18q25 0 42 -18
t17 -44q0 -25 -18 -43t-44 -18z" />
    <glyph glyph-name="perthousand" unicode="&#x2030;" horiz-adv-x="1279" 
d="M208 272q-75 0 -121 60t-46 156q0 99 46 158t124 59q73 0 118 -59.5t45 -156.5t-45.5 -157t-120.5 -60zM210 323q40 0 63.5 44t23.5 122t-24 122t-65 44t-65 -44t-24 -122t24.5 -122t66.5 -44zM712 700l-464 -700h-64l464 700h64zM685 -7q-75 0 -120.5 59.5t-45.5 156.5
q0 98 46 157.5t123 59.5q74 0 119 -59.5t45 -156.5q0 -98 -45.5 -157.5t-121.5 -59.5zM687 44q40 0 63.5 44t23.5 122t-24 122t-65 44q-40 0 -64.5 -44t-24.5 -122t24.5 -122t66.5 -44zM1073 -7q-75 0 -120.5 59.5t-45.5 156.5q0 98 46 157.5t123 59.5q74 0 119 -59.5
t45 -156.5q0 -98 -45.5 -157.5t-121.5 -59.5zM1075 44q40 0 64 44t24 122t-24.5 122t-65.5 44q-40 0 -64.5 -44t-24.5 -122t24.5 -122t66.5 -44z" />
    <glyph glyph-name="guilsinglleft" unicode="&#x2039;" horiz-adv-x="296" 
d="M250 87l-34 -36l-201 180l185 187l35 -35l-125 -152z" />
    <glyph glyph-name="guilsinglright" unicode="&#x203a;" horiz-adv-x="296" 
d="M283 237l-185 -187l-34 35l125 152l-141 144l34 37z" />
    <glyph glyph-name="fraction" unicode="&#x2044;" horiz-adv-x="153" 
d="M253 760l-320 -823h-55l318 823h57z" />
    <glyph glyph-name="zero.superior" unicode="&#x2070;" horiz-adv-x="391" 
d="M195 442q-75 0 -121 62t-46 154q0 94 46 155.5t124 61.5q73 0 118.5 -61.5t45.5 -154.5t-46 -155t-121 -62zM196 493q41 0 65 45t24 119q0 78 -24 123t-67 45q-42 0 -66 -44.5t-24 -121.5q0 -76 24 -121t68 -45z" />
    <glyph glyph-name="four.superior" unicode="&#x2074;" horiz-adv-x="368" 
d="M336 571h-59v-121h-67v121h-196v29l219 270h44v-252h59v-47zM210 618v155q-4 -6 -122 -155h122z" />
    <glyph glyph-name="five.superior" unicode="&#x2075;" horiz-adv-x="351" 
d="M299 870l-15 -51h-131l-26 -84q63 -3 105 -29q80 -45 80 -122q0 -62 -47.5 -102t-116.5 -40q-79 0 -136 43l29 45q51 -40 103 -40q38 0 64 25t26 64q0 68 -78 96q-45 15 -97 15h-7l61 180h186z" />
    <glyph glyph-name="six.superior" unicode="&#x2076;" horiz-adv-x="360" 
d="M173 442q-71 0 -110.5 43t-39.5 106q0 109 78.5 191t198.5 95v-46q-61 -8 -112.5 -47.5t-74.5 -92.5q31 22 79 22q55 0 95 -37t40 -93q0 -60 -43.5 -100.5t-110.5 -40.5zM175 489q34 0 56.5 25t22.5 66q0 40 -21.5 64t-56.5 24q-34 0 -57 -24t-23 -63q0 -40 22.5 -66
t56.5 -26z" />
    <glyph glyph-name="seven.superior" unicode="&#x2077;" horiz-adv-x="319" 
d="M309 820l-221 -378l-64 14l216 363h-208v51h277v-50z" />
    <glyph glyph-name="eight.superior" unicode="&#x2078;" horiz-adv-x="360" 
d="M178 442q-67 0 -110 33.5t-43 84.5q0 38 23.5 64t66.5 49q-73 40 -73 100q0 47 41 74.5t95 27.5q64 0 100 -28t36 -70q0 -59 -80 -100q48 -22 74 -47.5t26 -66.5q0 -53 -44 -87t-112 -34zM178 489q33 0 57 21.5t24 50.5q0 31 -23 51t-65 38q-34 -18 -52 -37.5t-18 -51.5
t21.5 -52t55.5 -20zM116 774q0 -50 61 -75q27 11 45.5 32t18.5 46q0 17 -16 35t-47 18q-27 0 -44.5 -17.5t-17.5 -38.5z" />
    <glyph glyph-name="nine.superior" unicode="&#x2079;" horiz-adv-x="353" 
d="M169 603q-67 0 -106.5 40t-39.5 96q0 59 44.5 97.5t108.5 38.5q70 0 111 -40.5t41 -105.5q0 -66 -25 -120t-66 -88.5t-89 -55t-100 -25.5v48q60 8 114 46.5t78 94.5q-34 -26 -71 -26zM175 652q33 0 55.5 24t22.5 60q0 43 -21 67t-57 24q-33 0 -56 -24t-23 -63t22.5 -63.5
t56.5 -24.5z" />
    <glyph glyph-name="zero.inferior" unicode="&#x2080;" horiz-adv-x="391" 
d="M195 -180q-75 0 -121 62t-46 154q0 94 46 155.5t124 61.5q73 0 118.5 -61.5t45.5 -154.5t-46 -155t-121 -62zM196 -129q41 0 65 45t24 119q0 78 -24 123t-67 45q-42 0 -66 -44.5t-24 -121.5q0 -76 24 -121t68 -45z" />
    <glyph glyph-name="one.inferior" unicode="&#x2081;" horiz-adv-x="279" 
d="M193 -172h-73v358l-80 -30l-23 45l128 47h48v-420z" />
    <glyph glyph-name="two.inferior" unicode="&#x2082;" horiz-adv-x="355" 
d="M316 -172h-309v35q129 125 160 158q38 41 53.5 66.5t15.5 51.5q0 29 -19.5 46.5t-46.5 17.5q-42 0 -90 -49l-42 35q52 64 140 64q54 0 94.5 -30.5t40.5 -81.5q0 -38 -24.5 -72.5t-91.5 -101.5l-92 -86h211v-53z" />
    <glyph glyph-name="three.inferior" unicode="&#x2083;" horiz-adv-x="329" 
d="M134 -180q-69 0 -118 30l21 46q53 -29 92 -29q37 0 61 22t24 57q0 53 -45 69q-25 8 -95 8v45q61 4 87 22q28 18 28 60q0 23 -15 39.5t-41 16.5q-39 0 -89 -34l-27 44q55 37 122 37q57 0 92 -27t35 -72q0 -66 -67 -99q45 -9 69.5 -39.5t24.5 -67.5q0 -55 -45.5 -91.5
t-113.5 -36.5z" />
    <glyph glyph-name="four.inferior" unicode="&#x2084;" horiz-adv-x="368" 
d="M336 -51h-59v-121h-67v121h-196v29l219 270h44v-252h59v-47zM210 -4v155q-4 -6 -122 -155h122z" />
    <glyph glyph-name="five.inferior" unicode="&#x2085;" horiz-adv-x="351" 
d="M299 248l-15 -51h-131l-26 -84q63 -3 105 -29q80 -45 80 -122q0 -62 -47.5 -102t-116.5 -40q-79 0 -136 43l29 45q51 -40 103 -40q38 0 64 25t26 64q0 68 -78 96q-45 15 -97 15h-7l61 180h186z" />
    <glyph glyph-name="six.inferior" unicode="&#x2086;" horiz-adv-x="360" 
d="M173 -180q-71 0 -110.5 43t-39.5 106q0 109 78.5 191t198.5 95v-46q-61 -8 -112.5 -47.5t-74.5 -92.5q31 22 79 22q55 0 95 -37t40 -93q0 -60 -43.5 -100.5t-110.5 -40.5zM175 -133q34 0 56.5 25t22.5 66q0 40 -21.5 64t-56.5 24q-34 0 -57 -24t-23 -63q0 -40 22.5 -66
t56.5 -26z" />
    <glyph glyph-name="seven.inferior" unicode="&#x2087;" horiz-adv-x="319" 
d="M309 198l-221 -378l-64 14l216 363h-208v51h277v-50z" />
    <glyph glyph-name="eight.inferior" unicode="&#x2088;" horiz-adv-x="360" 
d="M178 -180q-67 0 -110 33.5t-43 84.5q0 38 23.5 64t66.5 49q-73 40 -73 100q0 47 41 74.5t95 27.5q64 0 100 -28t36 -70q0 -59 -80 -100q48 -22 74 -47.5t26 -66.5q0 -53 -44 -87t-112 -34zM178 -133q33 0 57 21.5t24 50.5q0 31 -23 51t-65 38q-34 -18 -52 -37.5
t-18 -51.5t21.5 -52t55.5 -20zM116 152q0 -50 61 -75q27 11 45.5 32t18.5 46q0 17 -16 35t-47 18q-27 0 -44.5 -17.5t-17.5 -38.5z" />
    <glyph glyph-name="nine.inferior" unicode="&#x2089;" horiz-adv-x="353" 
d="M169 -19q-67 0 -106.5 40t-39.5 96q0 59 44.5 97.5t108.5 38.5q70 0 111 -40.5t41 -105.5q0 -66 -25 -120t-66 -88.5t-89 -55t-100 -25.5v48q60 8 114 46.5t78 94.5q-34 -26 -71 -26zM175 30q33 0 55.5 24t22.5 60q0 43 -21 67t-57 24q-33 0 -56 -24t-23 -63t22.5 -63.5
t56.5 -24.5z" />
    <glyph glyph-name="Euro" unicode="&#x20ac;" 
d="M475 85l27 -50q-62 -47 -151 -47q-107 0 -176 71t-87 213h-74v51h70q-1 13 -1 39q0 31 1 49h-70v50h77q24 123 93 187t169 64q97 0 147 -49l-33 -49q-44 39 -115 39q-66 0 -114 -48t-65 -144h243v-50h-249q-1 -18 -1 -48q0 -27 1 -40h249v-51h-244q11 -109 63 -166
t121 -57q37 0 71.5 12t47.5 24z" />
    <glyph glyph-name="afii61289" unicode="&#x2113;" horiz-adv-x="526" 
d="M403 92l30 -43q-64 -62 -137 -62q-58 0 -89 33q-41 41 -41 127v99l-64 -60l-29 37l93 90v219q0 196 128 196q54 0 78.5 -34.5t24.5 -75.5q0 -117 -110 -249q-30 -36 -45 -52v-166q0 -107 70 -107q43 0 91 48zM340 606q0 65 -45 65q-53 0 -53 -119v-162l24 30
q74 99 74 186z" />
    <glyph glyph-name="trademark" unicode="&#x2122;" horiz-adv-x="523" 
d="M472 500h-36v101l1 53q-15 -41 -21 -54l-41 -100h-28l-42 100l-20 54v-53v-101h-37v200h51l63 -154l60 154h50v-200zM211 668h-65v-168h-38v168h-65v32h168v-32z" />
    <glyph glyph-name="Omega" unicode="&#x2126;" horiz-adv-x="754" 
d="M700 0h-247v60q30 25 52 47t50.5 61.5t44 92t15.5 114.5q0 124 -62 199t-178 75q-109 0 -176 -74t-67 -199q0 -201 164 -316v-60h-250v67h167q-65 44 -116.5 126.5t-51.5 196.5q0 140 93 231t239 91q153 0 238.5 -89t85.5 -232q0 -107 -50.5 -193t-119.5 -131h169v-67z
" />
    <glyph glyph-name="estimated" unicode="&#x212e;" horiz-adv-x="687" 
d="M641 306h-471v-213q71 -66 166 -66q79 0 132 35.5t95 103.5l37 -23q-34 -50 -67.5 -82t-83.5 -52.5t-113 -20.5q-133 0 -215.5 92t-82.5 226q0 137 82 228t218 91q137 0 218 -91t85 -228zM506 345v178q-68 63 -168 63q-102 0 -168 -63v-178h336z" />
    <glyph glyph-name="onethird" unicode="&#x2153;" horiz-adv-x="881" 
d="M671 700l-463 -700h-65l464 700h64zM244 280h-73v358l-80 -30l-23 45l128 47h48v-420zM656 -8q-69 0 -117 30l20 46q53 -29 92 -29q37 0 61 22t24 57q0 53 -45 69q-25 8 -95 8v45q61 4 87 22q28 18 28 60q0 23 -15 39.5t-41 16.5q-39 0 -89 -34l-27 44q55 37 122 37
q57 0 92 -27t35 -72q0 -65 -66 -99q45 -9 69 -39.5t24 -67.5q0 -55 -45.5 -91.5t-113.5 -36.5z" />
    <glyph glyph-name="twothirds" unicode="&#x2154;" horiz-adv-x="958" 
d="M747 700l-462 -700h-66l465 700h63zM331 280h-309v35q129 125 160 158q38 41 53.5 66.5t15.5 51.5q0 29 -19.5 46.5t-46.5 17.5q-42 0 -90 -49l-42 35q52 64 140 64q54 0 94.5 -30.5t40.5 -81.5q0 -38 -24.5 -72.5t-91.5 -101.5l-92 -86h211v-53zM732 -8q-69 0 -117 30
l21 46q53 -29 92 -29q37 0 61 22.5t24 56.5q0 53 -45 69q-25 8 -96 8v45q62 4 87 22q28 18 28 60q0 23 -14.5 39.5t-41.5 16.5q-40 0 -88 -34l-27 44q55 37 122 37q56 0 91 -27t35 -72q0 -66 -66 -99q45 -9 69 -39.5t24 -67.5q0 -55 -45.5 -91.5t-113.5 -36.5z" />
    <glyph glyph-name="oneeighth" unicode="&#x215b;" horiz-adv-x="857" 
d="M671 700l-463 -700h-65l464 700h64zM244 280h-73v358l-80 -30l-23 45l128 47h48v-420zM659 -8q-67 0 -109.5 33.5t-42.5 84.5q0 38 23 64t67 49q-73 39 -73 100q0 47 40.5 74.5t95.5 27.5q64 0 100 -28t36 -70q0 -59 -81 -100q49 -23 75 -48t26 -66q0 -53 -44 -87
t-113 -34zM659 39q34 0 57.5 21.5t23.5 50.5q0 31 -23 51t-64 38q-34 -18 -52 -37.5t-18 -51.5t21 -52t55 -20zM597 324q0 -51 62 -75q27 11 45.5 32t18.5 46q0 17 -16.5 35t-47.5 18q-27 0 -44.5 -17.5t-17.5 -38.5z" />
    <glyph glyph-name="threeeighths" unicode="&#x215c;" horiz-adv-x="887" 
d="M700 700l-462 -700h-66l465 700h63zM166 272q-69 0 -118 30l21 46q53 -29 92 -29q37 0 61 22t24 57q0 53 -45 69q-25 8 -95 8v45q61 4 87 22q28 18 28 60q0 23 -15 39.5t-41 16.5q-39 0 -89 -34l-27 44q55 37 122 37q57 0 92 -27t35 -72q0 -66 -67 -99q45 -9 69.5 -39.5
t24.5 -67.5q0 -55 -45.5 -91.5t-113.5 -36.5zM689 -8q-67 0 -109.5 33.5t-42.5 84.5q0 38 23 64t67 49q-73 40 -73 100q0 47 40.5 74.5t95.5 27.5q64 0 100 -28t36 -70q0 -59 -80 -100q48 -23 74 -48t26 -66q0 -53 -44 -87t-113 -34zM690 39q33 0 56.5 21.5t23.5 50.5
q0 31 -23 51t-64 38q-34 -18 -52 -37.5t-18 -51.5t21.5 -52t55.5 -20zM627 324q0 -51 62 -75q27 11 45.5 32t18.5 46q0 16 -16 34.5t-47 18.5q-28 0 -45.5 -18t-17.5 -38z" />
    <glyph glyph-name="fiveeighths" unicode="&#x215d;" horiz-adv-x="886" 
d="M699 700l-462 -700h-66l464 700h64zM319 700l-15 -51h-131l-26 -84q63 -3 105 -29q80 -45 80 -122q0 -62 -47.5 -102t-116.5 -40q-79 0 -136 43l29 45q51 -40 103 -40q38 0 64 25t26 64q0 68 -78 96q-45 15 -97 15h-7l61 180h186zM688 -8q-67 0 -109.5 33.5t-42.5 84.5
q0 38 23 64t67 49q-73 39 -73 100q0 47 40.5 74.5t95.5 27.5q64 0 100 -28t36 -70q0 -59 -81 -100q49 -23 75 -48t26 -66q0 -53 -44 -87t-113 -34zM688 39q34 0 57.5 21.5t23.5 50.5q0 31 -23 51t-64 38q-34 -18 -52 -37.5t-18 -51.5t21 -52t55 -20zM626 324q0 -51 62 -75
q27 11 45.5 32t18.5 46q0 17 -16.5 35t-47.5 18q-27 0 -44.5 -17.5t-17.5 -38.5z" />
    <glyph glyph-name="seveneighths" unicode="&#x215e;" horiz-adv-x="808" 
d="M621 700l-462 -700h-65l464 700h63zM344 650l-221 -378l-64 14l216 363h-208v51h277v-50zM610 -8q-67 0 -109.5 33.5t-42.5 84.5q0 38 23 64t67 49q-73 40 -73 100q0 47 40.5 74.5t95.5 27.5q64 0 100 -28t36 -70q0 -59 -80 -100q48 -22 74 -47.5t26 -66.5q0 -53 -44 -87
t-113 -34zM611 39q33 0 56.5 21.5t23.5 50.5q0 31 -23 51t-64 38q-34 -18 -52 -37.5t-18 -51.5t21.5 -52t55.5 -20zM548 324q0 -51 62 -75q27 11 45.5 32t18.5 46q0 16 -16 34.5t-47 18.5q-27 0 -45 -18t-18 -38z" />
    <glyph glyph-name="partialdiff" unicode="&#x2202;" horiz-adv-x="619" 
d="M250 -12q-86 0 -139.5 55t-53.5 143q0 143 84 226.5t189 83.5q53 0 93 -22.5t55 -54.5h2q4 38 4 67q0 84 -40 131t-111 47q-60 0 -106 -29l-22 57q56 35 140 35q101 0 161.5 -66.5t60.5 -187.5q0 -94 -26 -187q-34 -126 -109 -212t-182 -86zM252 55q74 0 133 81t83 206
q-12 40 -44.5 65t-82.5 25q-79 0 -140 -71t-61 -178q0 -58 30 -93t82 -35z" />
    <glyph glyph-name="Delta" unicode="&#x2206;" horiz-adv-x="648" 
d="M634 0h-617v42l264 658h90l263 -658v-42zM545 67l-202 516q-7 18 -17 54h-3q-4 -22 -17 -54l-202 -516h441z" />
    <glyph glyph-name="product" unicode="&#x220f;" horiz-adv-x="757" 
d="M667 -230h-80v860h-417v-860h-81v930h578v-930z" />
    <glyph glyph-name="summation" unicode="&#x2211;" horiz-adv-x="678" 
d="M637 -230h-616v42l350 427l-327 413v48h567v-70h-453l309 -389l-328 -401h498v-70z" />
    <glyph glyph-name="minus" unicode="&#x2212;" 
d="M508 221h-454v62h454v-62z" />
    <glyph glyph-name="uni2215" unicode="&#x2215;" horiz-adv-x="153" 
d="M253 760l-320 -823h-55l318 823h57z" />
    <glyph glyph-name="uni2219" unicode="&#x2219;" horiz-adv-x="281" 
d="M139 191q-26 0 -43.5 17.5t-17.5 42.5q0 27 17.5 44.5t44.5 17.5q26 0 43 -17.5t17 -43.5t-17.5 -43.5t-43.5 -17.5z" />
    <glyph glyph-name="radical" unicode="&#x221a;" horiz-adv-x="572" 
d="M567 729l-209 -741h-71l-150 336l-56 -37l-29 48l124 80l144 -327l182 641h65z" />
    <glyph glyph-name="infinity" unicode="&#x221e;" horiz-adv-x="850" 
d="M622 119q-60 0 -112 32.5t-87 86.5h-2q-83 -119 -198 -119q-79 0 -128 47.5t-49 123.5q0 78 49 126.5t127 48.5q119 0 199 -119h2q32 49 82.5 84t112.5 35q79 0 129 -47t50 -123q0 -74 -47.5 -125t-127.5 -51zM616 183q54 0 81 32.5t27 78.5t-27 76.5t-81 30.5
q-88 0 -159 -108q30 -52 71.5 -81t87.5 -29zM227 182q88 0 159 110q-30 50 -73 79.5t-86 29.5q-52 0 -80 -31.5t-28 -79.5q0 -46 30.5 -77t77.5 -31z" />
    <glyph glyph-name="integral" unicode="&#x222b;" horiz-adv-x="522" 
d="M136 -232q-46 0 -81 19l19 55q26 -13 53 -13q89 0 89 109v634q0 83 40.5 130t118.5 47q46 0 82 -20l-19 -55q-26 13 -54 13q-42 0 -65 -27.5t-23 -81.5v-634q0 -82 -41 -129t-119 -47z" />
    <glyph glyph-name="approxequal" unicode="&#x2248;" 
d="M507 420q-56 -82 -129 -82q-53 0 -104 33q-53 32 -88 32q-51 0 -90 -66l-40 46q55 83 128 83q51 0 103 -32q52 -33 90 -33q49 0 89 64zM507 205q-55 -82 -129 -82q-53 0 -104 33q-53 32 -88 32q-51 0 -90 -66l-40 46q54 82 128 82q53 0 103 -31q52 -33 90 -33q49 0 89 64
z" />
    <glyph glyph-name="notequal" unicode="&#x2260;" 
d="M507 156h-259l-61 -131h-67l61 131h-126v62h155l72 153h-227v62h255l61 134h66l-62 -134h132v-62h-161l-71 -153h232v-62z" />
    <glyph glyph-name="lessequal" unicode="&#x2264;" 
d="M507 0h-452v62h452v-62zM507 134l-452 195v44l452 196v-69l-346 -148v-3l346 -148v-67z" />
    <glyph glyph-name="greaterequal" unicode="&#x2265;" 
d="M507 0h-452v62h452v-62zM507 329l-452 -195v67l345 149v2l-345 148v69l452 -196v-44z" />
    <glyph glyph-name="lozenge" unicode="&#x25ca;" horiz-adv-x="608" 
d="M545 350l-226 -350h-45l-226 349l226 351h45zM471 350l-174 269l-174 -269l174 -270z" />
    <glyph glyph-name="uniF8FF" unicode="&#xf8ff;" horiz-adv-x="500" 
d="M487 0h-475v665h475v-665zM250 375l161 243h-323zM60 91l161 242l-161 242v-484zM440 90v485l-162 -242zM411 48l-161 242l-162 -242h323z" />
    <glyph glyph-name="commaaccent" horiz-adv-x="522" 
d="M239 -250l-33 20l37 87q0 4 -9 18t-9 29q0 20 14 34.5t35 14.5q22 0 36 -14.5t14 -34.5q0 -34 -25 -67z" />
    <glyph glyph-name="exclam.sc" horiz-adv-x="266" 
d="M173 550l-16 -412h-49l-16 412h81zM133 -8q-22 0 -36.5 14.5t-14.5 36.5t14.5 36.5t36.5 14.5t36.5 -14.5t14.5 -36.5t-14.5 -36.5t-36.5 -14.5z" />
    <glyph glyph-name="dollar.oldstyle" horiz-adv-x="485" 
d="M269 -81h-55v90q-50 1 -101 20t-82 46l34 52q68 -56 149 -61v270q-46 26 -71 42q-99 62 -99 154q0 65 48 104.5t122 46.5v70h55v-69q82 -8 143 -64l-37 -42q-47 44 -106 50v-241q76 -42 101 -64q70 -61 70 -138q0 -68 -49.5 -114t-121.5 -58v-94zM118 533
q0 -36 23.5 -59.5t72.5 -52.5v208q-45 -8 -70.5 -34.5t-25.5 -61.5zM269 301v-230q43 11 69.5 38.5t26.5 64.5q0 38 -23 68t-73 59z" />
    <glyph glyph-name="ampersand.sc" horiz-adv-x="655" 
d="M600 23l-68 -34l-84 75q-40 -41 -84.5 -58t-108.5 -17q-83 0 -141 47t-58 117q0 49 32 91t93 66q-76 65 -76 128q0 54 41.5 89t107.5 35q60 0 119 -39l-28 -44q-40 30 -86 30q-37 0 -58.5 -19.5t-21.5 -52.5q0 -26 16 -49t71 -73l177 -158q10 27 10 66q0 58 -31 109h-84
l12 48h245l-16 -48h-95q28 -52 28 -105q0 -66 -25 -109zM405 102l-190 174q-84 -38 -84 -114q0 -51 37 -86t96 -35q82 0 141 61z" />
    <glyph glyph-name="zero.oldstyle" horiz-adv-x="603" 
d="M302 -12q-103 0 -173 74t-70 187q0 116 70.5 189t175.5 73q99 0 169.5 -74.5t70.5 -187.5t-70 -187t-173 -74zM304 45q72 0 118 55.5t46 148.5q0 92 -48 148.5t-118 56.5q-72 0 -119 -56.5t-47 -148.5q0 -96 47.5 -150t120.5 -54z" />
    <glyph glyph-name="one.oldstyle" horiz-adv-x="390" 
d="M254 0h-75v428l-122 -52l-24 55l175 71h46v-502z" />
    <glyph glyph-name="two.oldstyle" horiz-adv-x="514" 
d="M437 0h-389v50l138 97q90 63 128.5 107t38.5 93q0 44 -31.5 76t-83.5 32q-85 0 -147 -79l-43 37q77 99 199 99q82 0 132.5 -44t50.5 -113q0 -100 -98 -176q-77 -59 -176 -120h281v-59z" />
    <glyph glyph-name="three.oldstyle" horiz-adv-x="490" 
d="M188 -185q-90 0 -162 41l23 56q72 -38 136 -38q72 0 114 40.5t42 98.5q0 90 -74 125q-40 19 -141 19v58q77 6 116 32q59 38 59 104q0 41 -28 71t-77 30q-73 0 -134 -46l-26 51q68 55 166 55q81 0 129 -44t48 -109q0 -48 -32.5 -90.5t-94.5 -69.5q167 -35 167 -186
q0 -78 -65.5 -138t-165.5 -60z" />
    <glyph glyph-name="four.oldstyle" horiz-adv-x="553" 
d="M511 0h-93v-185h-72v185h-314v36l343 464h43v-441h93v-59zM346 59v314l-232 -314h232z" />
    <glyph glyph-name="five.oldstyle" horiz-adv-x="480" 
d="M416 500l-15 -59h-200l-48 -165q99 -12 161 -52q106 -67 106 -185q0 -103 -69 -163.5t-169 -60.5q-51 0 -99.5 18t-73.5 40l29 53q67 -52 142 -52q76 0 120 43.5t44 113.5q0 55 -26.5 94.5t-71 59.5t-86.5 29t-90 12l85 274h261z" />
    <glyph glyph-name="six.oldstyle" horiz-adv-x="547" 
d="M274 -12q-102 0 -158 70.5t-56 164.5q0 207 114 327q115 120 284 139v-55q-251 -37 -309 -286q55 71 153 71q81 0 135.5 -59.5t54.5 -140.5q0 -98 -62 -164.5t-156 -66.5zM276 43q62 0 100 44t38 116q0 74 -38 117t-101 43t-100 -43t-37 -116q0 -71 39.5 -116t98.5 -45z
" />
    <glyph glyph-name="seven.oldstyle" horiz-adv-x="473" 
d="M465 460l-361 -645l-69 21l340 604h-313v60h376z" />
    <glyph glyph-name="eight.oldstyle" horiz-adv-x="549" 
d="M278 -12q-100 0 -160.5 53.5t-60.5 135.5q0 113 149 185q-121 60 -121 162q0 74 55.5 119.5t139.5 45.5q85 0 133 -45.5t48 -111.5q0 -50 -33.5 -92.5t-97.5 -70.5q162 -62 162 -185q0 -87 -66 -141.5t-148 -54.5zM279 638q-56 0 -88.5 -33t-32.5 -80q0 -88 113 -132
q55 19 86 54.5t31 77.5q0 49 -30.5 81t-78.5 32zM278 42q57 0 97 40.5t40 97.5q0 100 -150 155q-66 -30 -98.5 -66t-32.5 -87q0 -59 38.5 -99.5t105.5 -40.5z" />
    <glyph glyph-name="nine.oldstyle" horiz-adv-x="547" 
d="M90 -185v55q125 19 196.5 80.5t102.5 175.5q-48 -55 -133 -55q-84 0 -142 58.5t-58 157.5t64 161.5t153 62.5q108 0 162.5 -69.5t54.5 -177.5q0 -90 -36.5 -180t-95.5 -145q-106 -104 -268 -124zM272 126q63 0 100 42.5t37 119.5q0 75 -38 122t-100 47q-61 0 -99 -45
t-38 -121q0 -77 38 -121t100 -44z" />
    <glyph glyph-name="question.sc" horiz-adv-x="436" 
d="M215 154h-54q-1 6 -1 12q0 64 45 121l23 27.5t23.5 29.5t18 26.5t14.5 32t4 33.5q0 34 -22 53.5t-60 19.5q-58 0 -109 -53l-37 37q65 69 157 69q64 0 108 -30t44 -90q0 -42 -30 -88q-11 -15 -74 -88q-49 -57 -50 -112zM188 -8q-22 0 -36.5 14t-14.5 37q0 22 14.5 36.5
t36.5 14.5t36.5 -14.5t14.5 -35.5q0 -23 -14.5 -37.5t-36.5 -14.5z" />
    <glyph glyph-name="a.sc" horiz-adv-x="567" 
d="M544 0h-85l-59 164h-235l-65 -164h-77l236 550h69zM382 217l-95 259l-102 -259h197z" />
    <glyph glyph-name="b.sc" horiz-adv-x="518" 
d="M467 161q0 -93 -93 -137q-53 -24 -164 -24h-112v550h129q112 0 156 -30q49 -32 49 -94q0 -47 -33 -84t-85 -47q60 -5 100 -32q53 -39 53 -102zM383 159q0 59 -53 84q-38 19 -104 19h-49v-209h56q71 0 109 24q41 26 41 82zM353 416q0 43 -29 62q-27 19 -89 19h-58v-184h26
q72 0 111 28q39 29 39 75z" />
    <glyph glyph-name="c.sc" horiz-adv-x="598" 
d="M509 87l30 -46q-82 -53 -183 -53q-124 0 -209.5 78.5t-85.5 207.5q0 126 85.5 207t213.5 81q112 0 188 -60l-29 -46q-69 51 -155 51q-92 0 -156 -62.5t-64 -166.5q0 -102 63.5 -167t155.5 -65q81 0 146 41z" />
    <glyph glyph-name="d.sc" horiz-adv-x="625" 
d="M563 290q0 -176 -125 -249q-42 -24 -88 -32.5t-124 -8.5h-128v550h131q99 0 154 -12t96 -46q84 -70 84 -202zM478 287q0 120 -71 171q-26 19 -65.5 26t-114.5 7h-50v-432h47q81 0 119.5 9t69.5 35q65 56 65 184z" />
    <glyph glyph-name="e.sc" horiz-adv-x="468" 
d="M420 0h-322v550h286v-59h-207v-175h203v-58h-203v-199h243v-59z" />
    <glyph glyph-name="f.sc" horiz-adv-x="424" 
d="M384 491h-207v-182h203v-58h-203v-251h-79v550h286v-59z" />
    <glyph glyph-name="g.sc" horiz-adv-x="644" 
d="M567 252v-222q-78 -42 -195 -42q-135 0 -223 79t-88 208q0 125 91 206t227 81q105 0 177 -49l-30 -48q-65 41 -140 41q-107 0 -174.5 -62.5t-67.5 -166.5q0 -107 66.5 -169t169.5 -62q52 0 109 23v183h78z" />
    <glyph glyph-name="h.sc" horiz-adv-x="641" 
d="M542 0h-79v273h-286v-273h-79v550h79v-219h286v219h79v-550z" />
    <glyph glyph-name="i.sc" horiz-adv-x="276" 
d="M177 0h-79v550h79v-550z" />
    <glyph glyph-name="j.sc" horiz-adv-x="281" 
d="M183 550v-504q0 -88 -18 -128q-30 -65 -124 -65v44q41 10 51.5 37t10.5 96v520h80z" />
    <glyph glyph-name="k.sc" horiz-adv-x="534" 
d="M515 21l-76 -31l-262 293v-283h-79v550h79v-243l262 252l47 -39l-236 -221z" />
    <glyph glyph-name="l.sc" horiz-adv-x="445" 
d="M423 0h-325v550h79v-491h246v-59z" />
    <glyph glyph-name="m.sc" horiz-adv-x="798" 
d="M700 0h-79v428l-199 -428h-54l-198 434v-434h-72v550h94l208 -457l211 457h89v-550z" />
    <glyph glyph-name="n.sc" horiz-adv-x="695" 
d="M597 0h-76l-351 443v-443h-72v550h73l354 -447v447h72v-550z" />
    <glyph glyph-name="o.sc" horiz-adv-x="688" 
d="M627 282q0 -126 -77.5 -210t-204.5 -84t-205.5 84t-78.5 210q0 122 80.5 201t207.5 79q119 0 198.5 -80t79.5 -200zM544 274q0 106 -55.5 169.5t-146.5 63.5q-87 0 -142.5 -64.5t-55.5 -168.5q0 -103 55 -166.5t145 -63.5q89 0 144.5 63.5t55.5 166.5z" />
    <glyph glyph-name="p.sc" horiz-adv-x="495" 
d="M445 392q0 -38 -17 -72.5t-44 -56.5q-60 -47 -167 -47h-8v52h8q71 0 109 34.5t38 84.5t-39 79t-109 29h-39v-495h-79v550h120q100 0 155 -32q72 -40 72 -126z" />
    <glyph glyph-name="q.sc" horiz-adv-x="690" 
d="M627 282q0 -94 -45.5 -167.5t-125.5 -104.5l196 -89l-36 -47l-245 115q-9 -1 -26 -1q-127 0 -205.5 84t-78.5 210q0 122 80.5 201t207.5 79q119 0 198.5 -80t79.5 -200zM544 274q0 106 -55.5 169.5t-146.5 63.5q-87 0 -142.5 -64.5t-55.5 -168.5q0 -103 55 -166.5
t145 -63.5q89 0 144.5 63.5t55.5 166.5z" />
    <glyph glyph-name="r.sc" horiz-adv-x="515" 
d="M484 13l-78 -21l-137 238h-92v-230h-79v550h127q110 0 163 -42q53 -41 53 -105q0 -49 -28 -89t-76 -65zM360 396q0 52 -44 79q-37 21 -89 21h-50v-215h55q38 0 58 6t36 22q34 34 34 87z" />
    <glyph glyph-name="s.sc" horiz-adv-x="459" 
d="M393 140q0 -68 -55 -110t-130 -42q-93 0 -154 55l32 49q52 -49 120 -49q46 0 75.5 27.5t29.5 62.5q0 42 -46 83l-59.5 46l-52.5 40q-46 36 -63.5 63.5t-17.5 63.5q0 61 51 97t121 36q82 0 132 -48l-35 -44q-41 37 -95 37q-45 0 -68.5 -20.5t-23.5 -53.5q0 -34 32 -62
q17 -16 110 -84q56 -42 76.5 -74t20.5 -73z" />
    <glyph glyph-name="t.sc" horiz-adv-x="493" 
d="M475 491h-189v-491h-79v491h-189v59h457v-59z" />
    <glyph glyph-name="u.sc" horiz-adv-x="628" 
d="M545 550v-312q0 -74 -8 -106.5t-33 -63.5q-60 -80 -190 -80q-141 0 -198 86q-20 29 -26.5 63.5t-6.5 107.5v305h79v-308q0 -62 7 -92.5t24 -53.5q40 -52 120 -52q94 0 133 66q21 35 21 123v317h78z" />
    <glyph glyph-name="v.sc" horiz-adv-x="516" 
d="M508 546l-224 -546h-70l-206 543l83 14l163 -466l182 466z" />
    <glyph glyph-name="w.sc" horiz-adv-x="751" 
d="M740 544l-168 -544h-70l-130 440l-131 -440h-66l-164 544l84 13l119 -449l130 442h67l128 -443l129 450z" />
    <glyph glyph-name="x.sc" horiz-adv-x="525" 
d="M512 7l-87 -16l-173 256l-155 -256l-74 16l190 291l-179 243l85 16l138 -201l126 201l73 -10l-161 -241z" />
    <glyph glyph-name="y.sc" horiz-adv-x="464" 
d="M456 545l-196 -304v-241h-79v241l-173 299l78 17l141 -266l159 266z" />
    <glyph glyph-name="z.sc" horiz-adv-x="505" 
d="M471 0h-439v30l330 461h-277v59h386v-25l-328 -466h328v-59z" />
    <glyph glyph-name="exclamdown.sc" horiz-adv-x="266" 
d="M174 0h-81l15 412h50zM133 456q-22 0 -36.5 14.5t-14.5 36.5t14.5 36.5t36.5 14.5t36.5 -14t14.5 -36t-14.5 -37t-36.5 -15z" />
    <glyph glyph-name="cent.oldstyle" horiz-adv-x="490" 
d="M225 -64h-55l19 86q-66 31 -106.5 92.5t-40.5 147.5q0 109 67.5 178.5t167.5 79.5h20l14 65h55l-15 -66q68 -7 111 -37l-28 -50q-38 29 -94 32l-86 -396q36 -13 72 -13q64 0 114 32l25 -51q-59 -39 -160 -39q-31 0 -65 8zM284 461q-73 -9 -116.5 -64t-43.5 -134
q0 -110 80 -170z" />
    <glyph glyph-name="lslash.sc" horiz-adv-x="445" 
d="M301 334l-124 -70v-205h246v-59h-325v222l-77 -44l-25 48l102 57v267h79v-224l99 56z" />
    <glyph glyph-name="scaron.sc" horiz-adv-x="459" 
d="M393 140q0 -68 -55 -110t-130 -42q-93 0 -154 55l32 49q52 -49 120 -49q46 0 75.5 27.5t29.5 62.5q0 42 -46 83l-59.5 46l-52.5 40q-46 36 -63.5 63.5t-17.5 63.5q0 61 51 97t121 36q82 0 132 -48l-35 -44q-41 37 -95 37q-45 0 -68.5 -20.5t-23.5 -53.5q0 -34 32 -62
q17 -16 110 -84q56 -42 76.5 -74t20.5 -73zM381 780l-119 -172h-58l-119 172h45l102 -105l103 105h46z" />
    <glyph glyph-name="zcaron.sc" horiz-adv-x="505" 
d="M471 0h-439v30l330 461h-277v59h386v-25l-328 -466h328v-59zM428 794l-119 -172h-58l-119 172h45l102 -105l103 105h46z" />
    <glyph glyph-name="questiondown.sc" horiz-adv-x="436" 
d="M339 97l36 -36q-63 -69 -156 -69q-64 0 -108 30t-44 90q0 42 30 88q9 14 20 27l29.5 33.5l24.5 27.5q49 55 50 111h53q0 -2 0.5 -4t1 -3t0.5 -2.5v-2.5q0 -60 -45 -121l-28.5 -33.5t-30 -37.5t-16.5 -33t-9 -44q0 -35 22 -54.5t61 -19.5q56 0 109 53zM299 510
q0 -21 -14.5 -36t-36.5 -15t-36.5 14.5t-14.5 36.5q0 23 14.5 37.5t36.5 14.5t36.5 -15t14.5 -37z" />
    <glyph glyph-name="agrave.sc" horiz-adv-x="567" 
d="M544 0h-85l-59 164h-235l-65 -164h-77l236 550h69zM382 217l-95 259l-102 -259h197zM355 638l-32 -15l-213 129l56 58z" />
    <glyph glyph-name="aacute.sc" horiz-adv-x="567" 
d="M544 0h-85l-59 164h-235l-65 -164h-77l236 550h69zM382 217l-95 259l-102 -259h197zM228 637l189 173l56 -57l-213 -130z" />
    <glyph glyph-name="acircumflex.sc" horiz-adv-x="567" 
d="M544 0h-85l-59 164h-235l-65 -164h-77l236 550h69zM382 217l-95 259l-102 -259h197zM441 608h-46l-103 105l-102 -105h-45l119 172h58z" />
    <glyph glyph-name="atilde.sc" horiz-adv-x="567" 
d="M544 0h-85l-59 164h-235l-65 -164h-77l236 550h69zM382 217l-95 259l-102 -259h197zM349 638q-25 0 -68 18q-50 21 -61 21q-34 0 -51 -39h-38q10 38 21 53q28 45 82 45q24 0 73 -20q52 -19 57 -19q39 0 53 47h39q-6 -36 -15 -53q-31 -53 -92 -53z" />
    <glyph glyph-name="adieresis.sc" horiz-adv-x="567" 
d="M544 0h-85l-59 164h-235l-65 -164h-77l236 550h69zM382 217l-95 259l-102 -259h197zM389 639q-20 0 -35 14.5t-15 34.5t15 34.5t36 14.5q19 0 33.5 -14.5t14.5 -34.5t-15 -34.5t-34 -14.5zM197 639q-20 0 -34.5 14.5t-14.5 34.5t14.5 34.5t35.5 14.5q20 0 34 -14.5
t14 -34.5t-14.5 -34.5t-34.5 -14.5z" />
    <glyph glyph-name="aring.sc" horiz-adv-x="567" 
d="M544 0h-85l-59 164h-235l-65 -164h-77l236 550h69zM382 217l-95 259l-102 -259h197zM393 708q0 -42 -29 -70.5t-71 -28.5q-41 0 -70 29.5t-29 69.5q0 42 29 71t71 29q40 0 69.5 -29.5t29.5 -70.5zM345 708q0 22 -15 37.5t-37 15.5q-21 0 -36 -15.5t-15 -37.5t15 -37.5
t37 -15.5q21 0 36 15.5t15 37.5z" />
    <glyph glyph-name="ae.sc" horiz-adv-x="723" 
d="M683 0h-319v164h-176l-95 -164h-76l339 550h290v-59h-203v-175h200v-58h-200v-199h240v-59zM364 217v251l-147 -251h147z" />
    <glyph glyph-name="ccedilla.sc" horiz-adv-x="598" 
d="M315 -224q-34 0 -82 16l17 38q30 -12 66 -12q53 0 53 41q0 35 -49 35q-20 0 -35 -4l-9 6l40 95q-110 12 -182.5 88t-72.5 195q0 126 85.5 207t213.5 81q112 0 188 -60l-29 -46q-69 51 -155 51q-92 0 -156 -62.5t-64 -166.5q0 -102 63.5 -167t155.5 -65q81 0 146 41
l30 -46q-82 -52 -183 -52l-22 -56q11 1 24 1q36 0 57.5 -18.5t21.5 -49.5q0 -39 -35 -64.5t-87 -25.5z" />
    <glyph glyph-name="egrave.sc" horiz-adv-x="468" 
d="M420 0h-322v550h286v-59h-207v-175h203v-58h-203v-199h243v-59zM305 638l-32 -15l-213 129l56 58z" />
    <glyph glyph-name="eacute.sc" horiz-adv-x="468" 
d="M420 0h-322v550h286v-59h-207v-175h203v-58h-203v-199h243v-59zM175 637l189 173l56 -57l-213 -130z" />
    <glyph glyph-name="ecircumflex.sc" horiz-adv-x="468" 
d="M420 0h-322v550h286v-59h-207v-175h203v-58h-203v-199h243v-59zM390 608h-46l-103 105l-102 -105h-45l119 172h58z" />
    <glyph glyph-name="edieresis.sc" horiz-adv-x="468" 
d="M420 0h-322v550h286v-59h-207v-175h203v-58h-203v-199h243v-59zM338 639q-20 0 -35 14.5t-15 34.5t15 34.5t36 14.5q19 0 33.5 -14.5t14.5 -34.5t-14.5 -34.5t-34.5 -14.5zM146 639q-20 0 -34.5 14.5t-14.5 34.5t14.5 34.5t35.5 14.5q20 0 34 -14.5t14 -34.5t-14.5 -34.5
t-34.5 -14.5z" />
    <glyph glyph-name="igrave.sc" horiz-adv-x="276" 
d="M177 0h-79v550h79v-550zM202 638l-32 -15l-213 129l56 58z" />
    <glyph glyph-name="iacute.sc" horiz-adv-x="276" 
d="M177 0h-79v550h79v-550zM75 637l189 173l56 -57l-213 -130z" />
    <glyph glyph-name="icircumflex.sc" horiz-adv-x="276" 
d="M177 0h-79v550h79v-550zM286 608h-46l-103 105l-102 -105h-45l119 172h58z" />
    <glyph glyph-name="idieresis.sc" horiz-adv-x="276" 
d="M177 0h-79v550h79v-550zM234 639q-20 0 -35 14.5t-15 34.5t15 34.5t36 14.5q19 0 33.5 -14.5t14.5 -34.5t-14.5 -34.5t-34.5 -14.5zM42 639q-20 0 -34.5 14.5t-14.5 34.5t14.5 34.5t35.5 14.5q20 0 34 -14.5t14 -34.5t-14.5 -34.5t-34.5 -14.5z" />
    <glyph glyph-name="eth.sc" horiz-adv-x="625" 
d="M563 290q0 -176 -124 -249q-42 -24 -88 -32.5t-124 -8.5h-129v256h-88v54h88v240h132q98 0 153.5 -12t96.5 -46q83 -69 83 -202zM294 256h-117v-197h48q81 0 119.5 9t69.5 35q65 56 65 184q0 122 -69 173q-26 19 -66.5 25.5t-116.5 6.5h-50v-182h117v-54z" />
    <glyph glyph-name="ntilde.sc" horiz-adv-x="695" 
d="M597 0h-76l-351 443v-443h-72v550h73l354 -447v447h72v-550zM412 638q-25 0 -68 18q-50 21 -61 21q-35 0 -51 -39h-38q10 38 21 53q28 45 82 45q24 0 73 -20q52 -19 57 -19q39 0 53 47h39q-6 -36 -15 -53q-31 -53 -92 -53z" />
    <glyph glyph-name="ograve.sc" horiz-adv-x="688" 
d="M627 282q0 -126 -77.5 -210t-204.5 -84t-205.5 84t-78.5 210q0 122 80.5 201t207.5 79q119 0 198.5 -80t79.5 -200zM544 274q0 106 -55.5 169.5t-146.5 63.5q-87 0 -142.5 -64.5t-55.5 -168.5q0 -103 55 -166.5t145 -63.5q89 0 144.5 63.5t55.5 166.5zM408 638l-32 -15
l-213 129l56 58z" />
    <glyph glyph-name="oacute.sc" horiz-adv-x="688" 
d="M627 282q0 -126 -77.5 -210t-204.5 -84t-205.5 84t-78.5 210q0 122 80.5 201t207.5 79q119 0 198.5 -80t79.5 -200zM544 274q0 106 -55.5 169.5t-146.5 63.5q-87 0 -142.5 -64.5t-55.5 -168.5q0 -103 55 -166.5t145 -63.5q89 0 144.5 63.5t55.5 166.5zM279 637l189 173
l56 -57l-213 -130z" />
    <glyph glyph-name="ocircumflex.sc" horiz-adv-x="688" 
d="M627 282q0 -126 -77.5 -210t-204.5 -84t-205.5 84t-78.5 210q0 122 80.5 201t207.5 79q119 0 198.5 -80t79.5 -200zM544 274q0 106 -55.5 169.5t-146.5 63.5q-87 0 -142.5 -64.5t-55.5 -168.5q0 -103 55 -166.5t145 -63.5q89 0 144.5 63.5t55.5 166.5zM492 608h-46
l-103 105l-102 -105h-45l119 172h58z" />
    <glyph glyph-name="otilde.sc" horiz-adv-x="688" 
d="M627 282q0 -126 -77.5 -210t-204.5 -84t-205.5 84t-78.5 210q0 122 80.5 201t207.5 79q119 0 198.5 -80t79.5 -200zM544 274q0 106 -55.5 169.5t-146.5 63.5q-87 0 -142.5 -64.5t-55.5 -168.5q0 -103 55 -166.5t145 -63.5q89 0 144.5 63.5t55.5 166.5zM400 638
q-25 0 -68 18q-50 21 -61 21q-34 0 -51 -39h-38q10 38 21 53q28 45 82 45q24 0 73 -20q52 -19 57 -19q39 0 53 47h39q-6 -36 -15 -53q-31 -53 -92 -53z" />
    <glyph glyph-name="odieresis.sc" horiz-adv-x="688" 
d="M627 282q0 -126 -77.5 -210t-204.5 -84t-205.5 84t-78.5 210q0 122 80.5 201t207.5 79q119 0 198.5 -80t79.5 -200zM544 274q0 106 -55.5 169.5t-146.5 63.5q-87 0 -142.5 -64.5t-55.5 -168.5q0 -103 55 -166.5t145 -63.5q89 0 144.5 63.5t55.5 166.5zM440 639
q-20 0 -35 14.5t-15 34.5t15 34.5t36 14.5q19 0 33.5 -14.5t14.5 -34.5t-14.5 -34.5t-34.5 -14.5zM248 639q-20 0 -34.5 14.5t-14.5 34.5t14.5 34.5t35.5 14.5q20 0 34 -14.5t14 -34.5t-14.5 -34.5t-34.5 -14.5z" />
    <glyph glyph-name="oe.sc" horiz-adv-x="807" 
d="M767 0h-317q-71 -12 -104 -12q-128 0 -206.5 84t-78.5 210q0 122 80.5 201t207.5 79q22 0 101 -12h280v-59h-203v-175h200v-58h-200v-199h240v-59zM448 64v425q-51 18 -105 18q-88 0 -143.5 -64.5t-55.5 -168.5q0 -102 55.5 -166t145.5 -64q54 0 103 20z" />
    <glyph glyph-name="oslash.sc" horiz-adv-x="688" 
d="M627 282q0 -126 -77.5 -210t-204.5 -84t-206 85l-93 -77l-35 40l95 79q-45 73 -45 167q0 122 80.5 201t207.5 79q120 0 200 -83l91 75l35 -39l-93 -77q45 -71 45 -156zM545 274q0 64 -25 114l-328 -272q56 -72 152 -72q90 0 145.5 63.5t55.5 166.5zM144 274
q0 -63 22 -110l329 271q-55 72 -153 72q-88 0 -143 -64.5t-55 -168.5z" />
    <glyph glyph-name="ugrave.sc" horiz-adv-x="628" 
d="M545 550v-312q0 -74 -8 -106.5t-33 -63.5q-60 -80 -190 -80q-141 0 -198 86q-20 29 -26.5 63.5t-6.5 107.5v305h79v-308q0 -62 7 -92.5t24 -53.5q40 -52 120 -52q94 0 133 66q21 35 21 123v317h78zM379 638l-32 -15l-213 129l56 58z" />
    <glyph glyph-name="uacute.sc" horiz-adv-x="628" 
d="M545 550v-312q0 -74 -8 -106.5t-33 -63.5q-60 -80 -190 -80q-141 0 -198 86q-20 29 -26.5 63.5t-6.5 107.5v305h79v-308q0 -62 7 -92.5t24 -53.5q40 -52 120 -52q94 0 133 66q21 35 21 123v317h78zM250 637l189 173l56 -57l-213 -130z" />
    <glyph glyph-name="ucircumflex.sc" horiz-adv-x="628" 
d="M545 550v-312q0 -74 -8 -106.5t-33 -63.5q-60 -80 -190 -80q-141 0 -198 86q-20 29 -26.5 63.5t-6.5 107.5v305h79v-308q0 -62 7 -92.5t24 -53.5q40 -52 120 -52q94 0 133 66q21 35 21 123v317h78zM459 607h-46l-103 105l-102 -105h-45l119 172h58z" />
    <glyph glyph-name="udieresis.sc" horiz-adv-x="628" 
d="M545 550v-312q0 -74 -8 -106.5t-33 -63.5q-60 -80 -190 -80q-141 0 -198 86q-20 29 -26.5 63.5t-6.5 107.5v305h79v-308q0 -62 7 -92.5t24 -53.5q40 -52 120 -52q94 0 133 66q21 35 21 123v317h78zM407 639q-20 0 -35 14.5t-15 34.5t15 34.5t36 14.5q19 0 33.5 -14.5
t14.5 -34.5t-15 -34.5t-34 -14.5zM215 639q-20 0 -34.5 14.5t-14.5 34.5t14.5 34.5t35.5 14.5q20 0 34 -14.5t14 -34.5t-14.5 -34.5t-34.5 -14.5z" />
    <glyph glyph-name="yacute.sc" horiz-adv-x="464" 
d="M456 545l-196 -304v-241h-79v241l-173 299l78 17l141 -266l159 266zM171 637l189 173l56 -57l-213 -130z" />
    <glyph glyph-name="thorn.sc" horiz-adv-x="495" 
d="M445 289q0 -89 -71 -137q-57 -38 -158 -38h-39v-114h-79v550h79v-104h39q99 0 155 -31q74 -42 74 -126zM364 280q0 62 -42 88q-37 23 -106 23h-39v-224h39q79 0 113 33q35 32 35 80z" />
    <glyph glyph-name="ydieresis.sc" horiz-adv-x="464" 
d="M456 545l-196 -304v-241h-79v241l-173 299l78 17l141 -266l159 266zM335 639q-20 0 -35 14.5t-15 34.5t15 34.5t36 14.5q19 0 33.5 -14.5t14.5 -34.5t-15 -34.5t-34 -14.5zM143 639q-20 0 -34.5 14.5t-14.5 34.5t14.5 34.5t35.5 14.5q20 0 34 -14.5t14 -34.5t-14.5 -34.5
t-34.5 -14.5z" />
    <glyph glyph-name="zero.fitted" horiz-adv-x="613" 
d="M307 -12q-112 0 -179.5 103t-67.5 257q0 158 68 261t183 103q109 0 176 -103t67 -258q0 -157 -67.5 -260t-179.5 -103zM308 52q77 0 121 80t44 215q0 140 -44.5 221t-122.5 81t-122 -80t-44 -218t44.5 -218.5t123.5 -80.5z" />
    <glyph glyph-name="one.fitted" horiz-adv-x="410" 
d="M268 0h-80v628l-137 -57l-25 53l191 76h51v-700z" />
    <glyph glyph-name="two.fitted" horiz-adv-x="574" 
d="M499 0h-454v49q215 223 248 262q65 76 91 123t26 93q0 55 -36.5 89.5t-88.5 34.5q-78 0 -147 -78l-45 39q37 49 91 74.5t114 25.5q79 0 137.5 -49t58.5 -133q0 -65 -37 -122.5t-140 -171.5q-99 -110 -160 -169h342v-67z" />
    <glyph glyph-name="three.fitted" horiz-adv-x="509" 
d="M204 -12q-104 0 -165 42l24 55q74 -39 134 -39q70 0 113.5 41t43.5 106q0 45 -23.5 81t-63.5 49q-27 10 -51.5 12.5t-86.5 2.5v56q84 5 131 38q53 42 53 112q0 47 -28.5 78.5t-81.5 31.5q-74 0 -134 -46l-30 49q74 55 175 55q82 0 132 -43.5t50 -116.5q0 -121 -124 -175
q80 -8 124 -60t44 -121q0 -89 -67.5 -148.5t-168.5 -59.5z" />
    <glyph glyph-name="four.fitted" horiz-adv-x="548" 
d="M499 207h-88v-207h-76v207h-310v37l343 456h43v-432h88v-61zM335 268v298l-219 -298h219z" />
    <glyph glyph-name="five.fitted" horiz-adv-x="512" 
d="M429 700l-16 -65h-196l-44 -182q91 -9 158 -48q115 -70 115 -190q0 -100 -70.5 -163.5t-178.5 -63.5q-47 0 -96.5 17.5t-82.5 44.5l30 57q73 -55 155 -55q67 0 112 42.5t45 110.5q0 123 -133 168q-73 25 -138 25h-6l83 302h263z" />
    <glyph glyph-name="six.fitted" horiz-adv-x="561" 
d="M282 -12q-104 0 -162.5 71t-58.5 174q0 185 115 322t290 157v-55q-108 -18 -188.5 -94.5t-112.5 -185.5q57 54 147 54q81 0 138.5 -60t57.5 -151q0 -100 -64 -166t-162 -66zM284 44q63 0 101 47t38 122t-36.5 118.5t-100.5 43.5q-62 0 -100 -43.5t-38 -115.5
q0 -77 37 -124.5t99 -47.5z" />
    <glyph glyph-name="seven.fitted" horiz-adv-x="498" 
d="M482 643l-326 -652l-75 18l316 625h-332v66h417v-57z" />
    <glyph glyph-name="eight.fitted" horiz-adv-x="567" 
d="M279 -12q-98 0 -160.5 54t-62.5 138q0 69 38 112t111 83q-122 64 -122 171q0 77 59 121.5t139 44.5q91 0 144 -46.5t53 -112.5q0 -58 -35 -98t-100 -75q80 -37 123.5 -79.5t43.5 -115.5q0 -86 -65.5 -141.5t-165.5 -55.5zM280 45q61 0 103 40t42 96q0 31 -12 55.5
t-37 44.5t-47.5 33t-60.5 30q-126 -67 -126 -163q0 -61 37 -98.5t101 -37.5zM280 410q54 25 85.5 58t31.5 85q0 39 -31.5 72.5t-85.5 33.5q-53 0 -84 -35t-31 -75q0 -92 115 -139z" />
    <glyph glyph-name="nine.fitted" horiz-adv-x="559" 
d="M265 265q-98 0 -155.5 65t-57.5 157q0 97 65.5 161t158.5 64q105 0 164.5 -66t59.5 -175q0 -90 -24 -167t-64 -131t-93.5 -94.5t-110.5 -62t-117 -28.5v58q238 46 305 272q-20 -22 -57 -37.5t-74 -15.5zM275 325q60 0 98.5 45t38.5 114q0 77 -37.5 123t-100.5 46
q-61 0 -99 -45t-38 -119t38 -119t100 -45z" />
    <glyph glyph-name="percent.oldstyle" horiz-adv-x="966" 
d="M222 248q-75 0 -120.5 60t-45.5 156q0 98 46 157.5t123 59.5q74 0 119 -59.5t45 -156.5t-46 -157t-121 -60zM224 299q40 0 63.5 44t23.5 122t-24 122t-65 44q-40 0 -64.5 -44t-24.5 -122t24.5 -122t66.5 -44zM743 -7q-75 0 -120.5 59.5t-45.5 156.5q0 98 46 157.5
t123 59.5q74 0 119 -59.5t45 -156.5q0 -98 -45.5 -157.5t-121.5 -59.5zM745 44q40 0 64 44t24 122t-24.5 122t-65.5 44q-40 0 -64.5 -44t-24.5 -122t24.5 -122t66.5 -44zM740 676l-449 -676h-64l449 676h64z" />
    <glyph glyph-name="perthousand.oldstyle" horiz-adv-x="1368" 
d="M222 248q-75 0 -120.5 60t-45.5 156q0 98 46 157.5t123 59.5q74 0 119 -59.5t45 -156.5t-46 -157t-121 -60zM224 299q40 0 63.5 44t23.5 122t-24 122t-65 44q-40 0 -64.5 -44t-24.5 -122t24.5 -122t66.5 -44zM743 -7q-75 0 -120.5 59.5t-45.5 156.5q0 98 46 157.5
t123 59.5q74 0 119 -59.5t45 -156.5q0 -98 -45.5 -157.5t-121.5 -59.5zM745 44q40 0 64 44t24 122t-24.5 122t-65.5 44q-40 0 -64.5 -44t-24.5 -122t24.5 -122t66.5 -44zM740 676l-449 -676h-64l449 676h64zM1146 -7q-75 0 -120.5 59.5t-45.5 156.5q0 99 45.5 158t123.5 59
q73 0 118 -59.5t45 -156.5q0 -98 -45.5 -157.5t-120.5 -59.5zM1148 44q40 0 63.5 44t23.5 122t-24 122t-65 44t-65 -44t-24 -122t24.5 -122t66.5 -44z" />
    <glyph glyph-name="zero.taboldstyle" horiz-adv-x="553" 
d="M277 -12q-103 0 -173 74t-70 187q0 116 70.5 189t175.5 73q99 0 169.5 -74.5t70.5 -187.5t-70 -187t-173 -74zM279 45q72 0 118 55.5t46 148.5q0 92 -48 148.5t-118 56.5q-72 0 -119 -56.5t-47 -148.5q0 -96 47.5 -150t120.5 -54z" />
    <glyph glyph-name="one.taboldstyle" horiz-adv-x="553" 
d="M334 0h-75v428l-122 -52l-24 55l175 71h46v-502z" />
    <glyph glyph-name="two.taboldstyle" horiz-adv-x="553" 
d="M464 0h-389v50l138 97q90 63 128.5 107t38.5 93q0 44 -31.5 76t-83.5 32q-85 0 -147 -79l-43 37q77 99 199 99q82 0 132.5 -44t50.5 -113q0 -100 -98 -176q-77 -59 -176 -120h281v-59z" />
    <glyph glyph-name="three.taboldstyle" horiz-adv-x="553" 
d="M220 -185q-90 0 -162 41l23 56q72 -38 136 -38q72 0 114 40.5t42 98.5q0 90 -74 125q-40 19 -141 19v58q77 6 116 32q59 38 59 104q0 41 -28 71t-77 30q-73 0 -134 -46l-26 51q68 55 166 55q81 0 129 -44t48 -109q0 -48 -32.5 -90.5t-94.5 -69.5q167 -35 167 -186
q0 -78 -65.5 -138t-165.5 -60z" />
    <glyph glyph-name="four.taboldstyle" horiz-adv-x="553" 
d="M504 0h-93v-185h-72v185h-314v36l343 464h43v-441h93v-59zM339 59v314l-232 -314h232z" />
    <glyph glyph-name="five.taboldstyle" horiz-adv-x="553" 
d="M452 500l-15 -59h-200l-48 -165q99 -12 161 -52q106 -67 106 -185q0 -103 -69 -163.5t-169 -60.5q-51 0 -99.5 18t-73.5 40l29 53q67 -52 142 -52q76 0 120 43.5t44 113.5q0 55 -26.5 94.5t-71 59.5t-86.5 29t-90 12l85 274h261z" />
    <glyph glyph-name="six.taboldstyle" horiz-adv-x="553" 
d="M277 -12q-101 0 -157.5 70.5t-56.5 164.5q0 207 114 327q115 120 284 139v-55q-251 -37 -309 -286q55 71 153 71q81 0 135.5 -59.5t54.5 -140.5q0 -98 -62 -164.5t-156 -66.5zM279 43q62 0 100 44t38 116q0 74 -38 117t-101 43t-100 -43t-37 -116q0 -71 39.5 -116
t98.5 -45z" />
    <glyph glyph-name="seven.taboldstyle" horiz-adv-x="553" 
d="M506 460l-361 -645l-69 21l340 604h-313v60h376z" />
    <glyph glyph-name="eight.taboldstyle" horiz-adv-x="553" 
d="M280 -12q-100 0 -160.5 53.5t-60.5 135.5q0 113 149 185q-121 60 -121 162q0 74 55.5 119.5t139.5 45.5q85 0 133 -45.5t48 -111.5q0 -50 -33.5 -92.5t-97.5 -70.5q162 -62 162 -185q0 -87 -66 -141.5t-148 -54.5zM281 638q-56 0 -88.5 -33t-32.5 -80q0 -88 113 -132
q55 19 86 54.5t31 77.5q0 49 -30.5 81t-78.5 32zM280 42q57 0 97 40.5t40 97.5q0 100 -150 155q-66 -30 -98.5 -66t-32.5 -87q0 -59 38.5 -99.5t105.5 -40.5z" />
    <glyph glyph-name="nine.taboldstyle" horiz-adv-x="553" 
d="M93 -185v55q125 19 196.5 80.5t102.5 175.5q-48 -55 -133 -55q-84 0 -142 58.5t-58 157.5t64 161.5t153 62.5q108 0 162.5 -69.5t54.5 -177.5q0 -90 -36.5 -180t-95.5 -145q-106 -104 -268 -124zM275 126q63 0 100 42.5t37 119.5q0 75 -38 122t-100 47q-61 0 -99 -45
t-38 -121q0 -77 38 -121t100 -44z" />
    <glyph glyph-name="zero.denominator" horiz-adv-x="391" 
d="M195 -8q-75 0 -121 62t-46 154q0 94 46 155.5t124 61.5q73 0 118.5 -61.5t45.5 -154.5t-46 -155t-121 -62zM196 43q41 0 65 45t24 119q0 78 -24 123t-67 45q-42 0 -66 -44.5t-24 -121.5q0 -76 24 -121t68 -45z" />
    <glyph glyph-name="one.denominator" horiz-adv-x="279" 
d="M193 0h-73v358l-80 -30l-23 45l128 47h48v-420z" />
    <glyph glyph-name="two.denominator" horiz-adv-x="355" 
d="M316 0h-309v35q129 125 160 158q38 41 53.5 66.5t15.5 51.5q0 29 -19.5 46.5t-46.5 17.5q-42 0 -90 -49l-42 35q52 64 140 64q54 0 94.5 -30.5t40.5 -81.5q0 -38 -24.5 -72.5t-91.5 -101.5l-92 -86h211v-53z" />
    <glyph glyph-name="three.denominator" horiz-adv-x="329" 
d="M134 -8q-69 0 -118 30l21 46q53 -29 92 -29q37 0 61 22t24 57q0 53 -45 69q-25 8 -95 8v45q61 4 87 22q28 18 28 60q0 23 -15 39.5t-41 16.5q-39 0 -89 -34l-27 44q55 37 122 37q57 0 92 -27t35 -72q0 -66 -67 -99q45 -9 69.5 -39.5t24.5 -67.5q0 -55 -45.5 -91.5
t-113.5 -36.5z" />
    <glyph glyph-name="four.denominator" horiz-adv-x="368" 
d="M336 121h-59v-121h-67v121h-196v29l219 270h44v-252h59v-47zM210 168v155q-4 -6 -122 -155h122z" />
    <glyph glyph-name="five.denominator" horiz-adv-x="351" 
d="M299 420l-15 -51h-131l-26 -84q63 -3 105 -29q80 -45 80 -122q0 -62 -47.5 -102t-116.5 -40q-79 0 -136 43l29 45q51 -40 103 -40q38 0 64 25t26 64q0 68 -78 96q-45 15 -97 15h-7l61 180h186z" />
    <glyph glyph-name="six.denominator" horiz-adv-x="360" 
d="M173 -8q-71 0 -110.5 43t-39.5 106q0 109 78.5 191t198.5 95v-46q-61 -8 -112.5 -47.5t-74.5 -92.5q31 22 79 22q55 0 95 -37t40 -93q0 -60 -43.5 -100.5t-110.5 -40.5zM175 39q34 0 56.5 25t22.5 66q0 40 -21.5 64t-56.5 24q-34 0 -57 -24t-23 -63q0 -40 22.5 -66
t56.5 -26z" />
    <glyph glyph-name="seven.denominator" horiz-adv-x="319" 
d="M309 370l-221 -378l-64 14l216 363h-208v51h277v-50z" />
    <glyph glyph-name="eight.denominator" horiz-adv-x="360" 
d="M178 -8q-67 0 -110 33.5t-43 84.5q0 38 23.5 64t66.5 49q-73 40 -73 100q0 47 41 74.5t95 27.5q64 0 100 -28t36 -70q0 -59 -80 -100q48 -22 74 -47.5t26 -66.5q0 -53 -44 -87t-112 -34zM178 39q33 0 57 21.5t24 50.5q0 31 -23 51t-65 38q-34 -18 -52 -37.5t-18 -51.5
t21.5 -52t55.5 -20zM116 324q0 -50 61 -75q27 11 45.5 32t18.5 46q0 17 -16 35t-47 18q-27 0 -44.5 -17.5t-17.5 -38.5z" />
    <glyph glyph-name="nine.denominator" horiz-adv-x="353" 
d="M169 153q-67 0 -106.5 40t-39.5 96q0 59 44.5 97.5t108.5 38.5q70 0 111 -40.5t41 -105.5q0 -66 -25 -120t-66 -88.5t-89 -55t-100 -25.5v48q60 8 114 46.5t78 94.5q-34 -26 -71 -26zM175 202q33 0 55.5 24t22.5 60q0 43 -21 67t-57 24q-33 0 -56 -24t-23 -63t22.5 -63.5
t56.5 -24.5z" />
    <glyph glyph-name="zero.numerator" horiz-adv-x="391" 
d="M195 272q-75 0 -121 62t-46 154q0 94 46 155.5t124 61.5q73 0 118.5 -61.5t45.5 -154.5t-46 -155t-121 -62zM196 323q41 0 65 45t24 119q0 78 -24 123t-67 45q-42 0 -66 -44.5t-24 -121.5q0 -76 24 -121t68 -45z" />
    <glyph glyph-name="one.numerator" horiz-adv-x="279" 
d="M193 280h-73v358l-80 -30l-23 45l128 47h48v-420z" />
    <glyph glyph-name="two.numerator" horiz-adv-x="355" 
d="M316 280h-309v35q129 125 160 158q38 41 53.5 66.5t15.5 51.5q0 29 -19.5 46.5t-46.5 17.5q-42 0 -90 -49l-42 35q52 64 140 64q54 0 94.5 -30.5t40.5 -81.5q0 -38 -24.5 -72.5t-91.5 -101.5l-92 -86h211v-53z" />
    <glyph glyph-name="three.numerator" horiz-adv-x="329" 
d="M134 272q-69 0 -118 30l21 46q53 -29 92 -29q37 0 61 22t24 57q0 53 -45 69q-25 8 -95 8v45q61 4 87 22q28 18 28 60q0 23 -15 39.5t-41 16.5q-39 0 -89 -34l-27 44q55 37 122 37q57 0 92 -27t35 -72q0 -66 -67 -99q45 -9 69.5 -39.5t24.5 -67.5q0 -55 -45.5 -91.5
t-113.5 -36.5z" />
    <glyph glyph-name="four.numerator" horiz-adv-x="368" 
d="M336 401h-59v-121h-67v121h-196v29l219 270h44v-252h59v-47zM210 448v155q-4 -6 -122 -155h122z" />
    <glyph glyph-name="five.numerator" horiz-adv-x="351" 
d="M299 700l-15 -51h-131l-26 -84q63 -3 105 -29q80 -45 80 -122q0 -62 -47.5 -102t-116.5 -40q-79 0 -136 43l29 45q51 -40 103 -40q38 0 64 25t26 64q0 68 -78 96q-45 15 -97 15h-7l61 180h186z" />
    <glyph glyph-name="six.numerator" horiz-adv-x="360" 
d="M173 272q-71 0 -110.5 43t-39.5 106q0 109 78.5 191t198.5 95v-46q-61 -8 -112.5 -47.5t-74.5 -92.5q31 22 79 22q55 0 95 -37t40 -93q0 -60 -43.5 -100.5t-110.5 -40.5zM175 319q34 0 56.5 25t22.5 66q0 40 -21.5 64t-56.5 24q-34 0 -57 -24t-23 -63q0 -40 22.5 -66
t56.5 -26z" />
    <glyph glyph-name="seven.numerator" horiz-adv-x="319" 
d="M309 650l-221 -378l-64 14l216 363h-208v51h277v-50z" />
    <glyph glyph-name="eight.numerator" horiz-adv-x="360" 
d="M178 272q-67 0 -110 33.5t-43 84.5q0 38 23.5 64t66.5 49q-73 40 -73 100q0 47 41 74.5t95 27.5q64 0 100 -28t36 -70q0 -59 -80 -100q48 -22 74 -47.5t26 -66.5q0 -53 -44 -87t-112 -34zM178 319q33 0 57 21.5t24 50.5q0 31 -23 51t-65 38q-34 -18 -52 -37.5t-18 -51.5
t21.5 -52t55.5 -20zM116 604q0 -50 61 -75q27 11 45.5 32t18.5 46q0 17 -16 35t-47 18q-27 0 -44.5 -17.5t-17.5 -38.5z" />
    <glyph glyph-name="nine.numerator" horiz-adv-x="353" 
d="M169 433q-67 0 -106.5 40t-39.5 96q0 59 44.5 97.5t108.5 38.5q70 0 111 -40.5t41 -105.5q0 -66 -25 -120t-66 -88.5t-89 -55t-100 -25.5v48q60 8 114 46.5t78 94.5q-34 -26 -71 -26zM175 482q33 0 55.5 24t22.5 60q0 43 -21 67t-57 24q-33 0 -56 -24t-23 -63t22.5 -63.5
t56.5 -24.5z" />
    <glyph glyph-name="abreve.sc" horiz-adv-x="567" 
d="M544 0h-85l-59 164h-235l-65 -164h-77l236 550h69zM382 217l-95 259l-102 -259h197zM292 614q-46 0 -82 28.5t-53 74.5q-9 27 -11 56h42q29 -96 104 -96t104 96h43q-3 -40 -17 -69q-42 -90 -130 -90z" />
    <glyph glyph-name="amacron.sc" horiz-adv-x="567" 
d="M544 0h-85l-59 164h-235l-65 -164h-77l236 550h69zM382 217l-95 259l-102 -259h197zM423 658h-262v60h262v-60z" />
    <glyph glyph-name="aogonek.sc" horiz-adv-x="567" 
d="M483 -210q-47 0 -76 23t-29 72q0 35 21 66.5t60 48.5l-59 164h-235l-65 -164h-77l236 550h69l216 -550h-12q-33 0 -61.5 -31.5t-28.5 -67.5q0 -30 20.5 -44.5t52.5 -14.5q26 0 49 8l16 -39q-51 -21 -97 -21zM382 217l-95 259l-102 -259h197z" />
    <glyph glyph-name="aeacute.sc" horiz-adv-x="723" 
d="M345 637l189 173l56 -57l-213 -130zM683 0h-319v164h-176l-95 -164h-76l339 550h290v-59h-203v-175h200v-58h-200v-199h240v-59zM364 217v251l-147 -251h147z" />
    <glyph glyph-name="cacute.sc" horiz-adv-x="598" 
d="M509 87l30 -46q-82 -53 -183 -53q-124 0 -209.5 78.5t-85.5 207.5q0 126 85.5 207t213.5 81q112 0 188 -60l-29 -46q-69 51 -155 51q-92 0 -156 -62.5t-64 -166.5q0 -102 63.5 -167t155.5 -65q81 0 146 41zM273 637l189 173l56 -57l-213 -130z" />
    <glyph glyph-name="ccaron.sc" horiz-adv-x="598" 
d="M509 87l30 -46q-82 -53 -183 -53q-124 0 -209.5 78.5t-85.5 207.5q0 126 85.5 207t213.5 81q112 0 188 -60l-29 -46q-69 51 -155 51q-92 0 -156 -62.5t-64 -166.5q0 -102 63.5 -167t155.5 -65q81 0 146 41zM484 780l-119 -172h-58l-119 172h45l102 -105l103 105h46z" />
    <glyph glyph-name="ccircumflex.sc" horiz-adv-x="598" 
d="M509 87l30 -46q-82 -53 -183 -53q-124 0 -209.5 78.5t-85.5 207.5q0 126 85.5 207t213.5 81q112 0 188 -60l-29 -46q-69 51 -155 51q-92 0 -156 -62.5t-64 -166.5q0 -102 63.5 -167t155.5 -65q81 0 146 41zM485 608h-46l-103 105l-102 -105h-45l119 172h58z" />
    <glyph glyph-name="cdotaccent.sc" horiz-adv-x="598" 
d="M509 87l30 -46q-82 -53 -183 -53q-124 0 -209.5 78.5t-85.5 207.5q0 126 85.5 207t213.5 81q112 0 188 -60l-29 -46q-69 51 -155 51q-92 0 -156 -62.5t-64 -166.5q0 -102 63.5 -167t155.5 -65q81 0 146 41zM338 639q-21 0 -36.5 15t-15.5 35q0 22 15 36.5t36 14.5
q20 0 35 -15t15 -35q0 -21 -14.5 -36t-34.5 -15z" />
    <glyph glyph-name="dcaron.sc" horiz-adv-x="625" 
d="M563 290q0 -176 -125 -249q-42 -24 -88 -32.5t-124 -8.5h-128v550h131q99 0 154 -12t96 -46q84 -70 84 -202zM478 287q0 120 -71 171q-26 19 -65.5 26t-114.5 7h-50v-432h47q81 0 119.5 9t69.5 35q65 56 65 184zM453 780l-119 -172h-58l-119 172h45l102 -105l103 105h46z
" />
    <glyph glyph-name="dcroat.sc" horiz-adv-x="625" 
d="M563 290q0 -176 -124 -249q-42 -24 -88 -32.5t-124 -8.5h-129v256h-88v54h88v240h132q98 0 153.5 -12t96.5 -46q83 -69 83 -202zM294 256h-117v-197h48q81 0 119.5 9t69.5 35q65 56 65 184q0 122 -69 173q-26 19 -66.5 25.5t-116.5 6.5h-50v-182h117v-54z" />
    <glyph glyph-name="ebreve.sc" horiz-adv-x="468" 
d="M420 0h-322v550h286v-59h-207v-175h203v-58h-203v-199h243v-59zM241 614q-46 0 -82 28.5t-53 74.5q-9 27 -11 56h42q29 -96 104 -96t104 96h43q-3 -40 -17 -69q-42 -90 -130 -90z" />
    <glyph glyph-name="ecaron.sc" horiz-adv-x="468" 
d="M420 0h-322v550h286v-59h-207v-175h203v-58h-203v-199h243v-59zM390 780l-119 -172h-58l-119 172h45l102 -105l103 105h46z" />
    <glyph glyph-name="edotaccent.sc" horiz-adv-x="468" 
d="M420 0h-322v550h286v-59h-207v-175h203v-58h-203v-199h243v-59zM243 639q-21 0 -36.5 15t-15.5 35q0 22 15 36.5t36 14.5q20 0 35 -15t15 -35q0 -21 -14.5 -36t-34.5 -15z" />
    <glyph glyph-name="emacron.sc" horiz-adv-x="468" 
d="M420 0h-322v550h286v-59h-207v-175h203v-58h-203v-199h243v-59zM371 658h-262v60h262v-60z" />
    <glyph glyph-name="eng.sc" horiz-adv-x="695" 
d="M597 550v-587q0 -116 -38 -164.5t-107 -48.5v38q46 11 59.5 54.5t13.5 126.5v27l-355 447v-443h-72v550h73l354 -447v447h72z" />
    <glyph glyph-name="eogonek.sc" horiz-adv-x="468" 
d="M316 -210q-46 0 -75.5 23t-29.5 72q0 35 21 66.5t61 48.5h-195v550h286v-59h-207v-175h203v-58h-203v-199h243v-59h-72q-33 -15 -53 -42.5t-20 -56.5q0 -30 21 -44.5t52 -14.5q26 0 49 8l16 -39q-51 -21 -97 -21z" />
    <glyph glyph-name="gbreve.sc" horiz-adv-x="644" 
d="M567 252v-222q-78 -42 -195 -42q-135 0 -223 79t-88 208q0 125 91 206t227 81q105 0 177 -49l-30 -48q-65 41 -140 41q-107 0 -174.5 -62.5t-67.5 -166.5q0 -107 66.5 -169t169.5 -62q52 0 109 23v183h78zM368 614q-46 0 -82 28.5t-53 74.5q-9 27 -11 56h42
q29 -96 104 -96t104 96h43q-3 -40 -17 -69q-42 -90 -130 -90z" />
    <glyph glyph-name="gcircumflex.sc" horiz-adv-x="644" 
d="M567 252v-222q-78 -42 -195 -42q-135 0 -223 79t-88 208q0 125 91 206t227 81q105 0 177 -49l-30 -48q-65 41 -140 41q-107 0 -174.5 -62.5t-67.5 -166.5q0 -107 66.5 -169t169.5 -62q52 0 109 23v183h78zM517 608h-46l-103 105l-102 -105h-45l119 172h58z" />
    <glyph glyph-name="gcommaaccent.sc" horiz-adv-x="644" 
d="M567 252v-222q-78 -42 -195 -42q-135 0 -223 79t-88 208q0 125 91 206t227 81q105 0 177 -49l-30 -48q-65 41 -140 41q-107 0 -174.5 -62.5t-67.5 -166.5q0 -107 66.5 -169t169.5 -62q52 0 109 23v183h78zM336 -250l-33 20l37 87q0 4 -9 18t-9 29q0 20 14 34.5t35 14.5
q22 0 36 -14.5t14 -34.5q0 -34 -25 -67z" />
    <glyph glyph-name="gdotaccent.sc" horiz-adv-x="644" 
d="M567 252v-222q-78 -42 -195 -42q-135 0 -223 79t-88 208q0 125 91 206t227 81q105 0 177 -49l-30 -48q-65 41 -140 41q-107 0 -174.5 -62.5t-67.5 -166.5q0 -107 66.5 -169t169.5 -62q52 0 109 23v183h78zM372 639q-21 0 -36.5 15t-15.5 35q0 22 15 36.5t36 14.5
q20 0 35 -15t15 -35q0 -21 -14.5 -36t-34.5 -15z" />
    <glyph glyph-name="hbar.sc" horiz-adv-x="641" 
d="M542 0h-79v273h-286v-273h-79v416h-58v56h58v78h79v-78h286v78h79v-78h58v-56h-58v-416zM177 331h286v85h-286v-85z" />
    <glyph glyph-name="hcircumflex.sc" horiz-adv-x="641" 
d="M542 0h-79v273h-286v-273h-79v550h79v-219h286v219h79v-550zM468 608h-46l-103 105l-102 -105h-45l119 172h58z" />
    <glyph glyph-name="ibreve.sc" horiz-adv-x="276" 
d="M177 0h-79v550h79v-550zM137 614q-46 0 -82 28.5t-53 74.5q-9 27 -11 56h42q29 -96 104 -96t104 96h43q-3 -40 -17 -69q-42 -90 -130 -90z" />
    <glyph glyph-name="ij.sc" horiz-adv-x="520" 
d="M177 0h-79v550h79v-550zM422 550v-504q0 -88 -18 -128q-30 -65 -124 -65v44q41 10 51.5 37t10.5 96v520h80z" />
    <glyph glyph-name="imacron.sc" horiz-adv-x="276" 
d="M177 0h-79v550h79v-550zM268 658h-262v60h262v-60z" />
    <glyph glyph-name="iogonek.sc" horiz-adv-x="276" 
d="M144 -210q-46 0 -75.5 23t-29.5 72q0 35 21 66.5t61 48.5h-23v550h79v-550q-33 -15 -53 -42.5t-20 -56.5q0 -30 20.5 -44.5t51.5 -14.5q28 0 49 8l17 -39q-51 -21 -98 -21z" />
    <glyph glyph-name="itilde.sc" horiz-adv-x="276" 
d="M177 0h-79v550h79v-550zM194 638q-25 0 -68 18q-50 21 -61 21q-34 0 -51 -39h-38q10 38 21 53q28 45 82 45q24 0 73 -20q52 -19 57 -19q39 0 53 47h39q-6 -36 -15 -53q-31 -53 -92 -53z" />
    <glyph glyph-name="jcircumflex.sc" horiz-adv-x="281" 
d="M183 550v-504q0 -88 -18 -128q-30 -65 -124 -65v44q41 10 51.5 37t10.5 96v520h80zM292 608h-46l-103 105l-102 -105h-45l119 172h58z" />
    <glyph glyph-name="kcommaaccent.sc" horiz-adv-x="534" 
d="M515 21l-76 -31l-262 293v-283h-79v550h79v-243l262 252l47 -39l-236 -221zM253 -250l-33 20l37 87q0 4 -9 18t-9 29q0 20 14 34.5t35 14.5q22 0 36 -14.5t14 -34.5q0 -34 -25 -67z" />
    <glyph glyph-name="lacute.sc" horiz-adv-x="445" 
d="M423 0h-325v550h79v-491h246v-59zM75 637l189 173l56 -57l-213 -130z" />
    <glyph glyph-name="lcaron.sc" horiz-adv-x="445" 
d="M423 0h-325v550h79v-491h246v-59zM274 387l-34 5q7 49 7 109q0 45 -4 78l77 -8q-5 -83 -46 -184z" />
    <glyph glyph-name="lcommaaccent.sc" horiz-adv-x="445" 
d="M423 0h-325v550h79v-491h246v-59zM224 -250l-33 20l37 87q0 4 -9 18t-9 29q0 20 14 34.5t35 14.5q22 0 36 -14.5t14 -34.5q0 -34 -25 -67z" />
    <glyph glyph-name="ldot.sc" horiz-adv-x="445" 
d="M423 0h-325v550h79v-491h246v-59zM346 247q-21 0 -36.5 15t-15.5 35q0 22 15 36.5t36 14.5q20 0 35 -15t15 -35q0 -21 -14.5 -36t-34.5 -15z" />
    <glyph glyph-name="nacute.sc" horiz-adv-x="695" 
d="M597 0h-76l-351 443v-443h-72v550h73l354 -447v447h72v-550zM290 637l189 173l56 -57l-213 -130z" />
    <glyph glyph-name="ncaron.sc" horiz-adv-x="695" 
d="M597 0h-76l-351 443v-443h-72v550h73l354 -447v447h72v-550zM506 780l-119 -172h-58l-119 172h45l102 -105l103 105h46z" />
    <glyph glyph-name="ncommaaccent.sc" horiz-adv-x="695" 
d="M597 0h-76l-351 443v-443h-72v550h73l354 -447v447h72v-550zM301 -250l-33 20l37 87q0 4 -9 18t-9 29q0 20 14 34.5t35 14.5q22 0 36 -14.5t14 -34.5q0 -34 -25 -67z" />
    <glyph glyph-name="obreve.sc" horiz-adv-x="688" 
d="M627 282q0 -126 -77.5 -210t-204.5 -84t-205.5 84t-78.5 210q0 122 80.5 201t207.5 79q119 0 198.5 -80t79.5 -200zM544 274q0 106 -55.5 169.5t-146.5 63.5q-87 0 -142.5 -64.5t-55.5 -168.5q0 -103 55 -166.5t145 -63.5q89 0 144.5 63.5t55.5 166.5zM343 614
q-46 0 -82 28.5t-53 74.5q-9 27 -11 56h42q29 -96 104 -96t104 96h43q-3 -40 -17 -69q-42 -90 -130 -90z" />
    <glyph glyph-name="ohungarumlaut.sc" horiz-adv-x="688" 
d="M627 282q0 -126 -77.5 -210t-204.5 -84t-205.5 84t-78.5 210q0 122 80.5 201t207.5 79q119 0 198.5 -80t79.5 -200zM544 274q0 106 -55.5 169.5t-146.5 63.5q-87 0 -142.5 -64.5t-55.5 -168.5q0 -103 55 -166.5t145 -63.5q89 0 144.5 63.5t55.5 166.5zM564 742l-157 -130
h-60l163 175zM393 742l-156 -130h-60l163 175z" />
    <glyph glyph-name="omacron.sc" horiz-adv-x="688" 
d="M627 282q0 -126 -77.5 -210t-204.5 -84t-205.5 84t-78.5 210q0 122 80.5 201t207.5 79q119 0 198.5 -80t79.5 -200zM544 274q0 106 -55.5 169.5t-146.5 63.5q-87 0 -142.5 -64.5t-55.5 -168.5q0 -103 55 -166.5t145 -63.5q89 0 144.5 63.5t55.5 166.5zM474 658h-262v60
h262v-60z" />
    <glyph glyph-name="oslashacute.sc" horiz-adv-x="688" 
d="M279 637l189 173l56 -57l-213 -130zM627 282q0 -126 -77.5 -210t-204.5 -84t-206 85l-93 -77l-35 40l95 79q-45 73 -45 167q0 122 80.5 201t207.5 79q120 0 200 -83l91 75l35 -39l-93 -77q45 -71 45 -156zM545 274q0 64 -25 114l-328 -272q56 -72 152 -72
q90 0 145.5 63.5t55.5 166.5zM144 274q0 -63 22 -110l329 271q-55 72 -153 72q-88 0 -143 -64.5t-55 -168.5z" />
    <glyph glyph-name="racute.sc" horiz-adv-x="515" 
d="M484 13l-78 -21l-137 238h-92v-230h-79v550h127q110 0 163 -42q53 -41 53 -105q0 -49 -28 -89t-76 -65zM360 396q0 52 -44 79q-37 21 -89 21h-50v-215h55q38 0 58 6t36 22q34 34 34 87zM190 637l189 173l56 -57l-213 -130z" />
    <glyph glyph-name="rcaron.sc" horiz-adv-x="515" 
d="M484 13l-78 -21l-137 238h-92v-230h-79v550h127q110 0 163 -42q53 -41 53 -105q0 -49 -28 -89t-76 -65zM360 396q0 52 -44 79q-37 21 -89 21h-50v-215h55q38 0 58 6t36 22q34 34 34 87zM404 780l-119 -172h-58l-119 172h45l102 -105l103 105h46z" />
    <glyph glyph-name="rcommaaccent.sc" horiz-adv-x="515" 
d="M484 13l-78 -21l-137 238h-92v-230h-79v550h127q110 0 163 -42q53 -41 53 -105q0 -49 -28 -89t-76 -65zM360 396q0 52 -44 79q-37 21 -89 21h-50v-215h55q38 0 58 6t36 22q34 34 34 87zM241 -250l-33 20l37 87q0 4 -9 18t-9 29q0 20 14 34.5t35 14.5q22 0 36 -14.5
t14 -34.5q0 -34 -25 -67z" />
    <glyph glyph-name="sacute.sc" horiz-adv-x="459" 
d="M393 140q0 -68 -55 -110t-130 -42q-93 0 -154 55l32 49q52 -49 120 -49q46 0 75.5 27.5t29.5 62.5q0 42 -46 83l-59.5 46l-52.5 40q-46 36 -63.5 63.5t-17.5 63.5q0 61 51 97t121 36q82 0 132 -48l-35 -44q-41 37 -95 37q-45 0 -68.5 -20.5t-23.5 -53.5q0 -34 32 -62
q17 -16 110 -84q56 -42 76.5 -74t20.5 -73zM168 637l189 173l56 -57l-213 -130z" />
    <glyph glyph-name="scedilla.sc" horiz-adv-x="459" 
d="M191 -224q-34 0 -82 16l17 38q30 -12 66 -12q24 0 38.5 11t14.5 30q0 35 -49 35q-20 0 -35 -4l-9 6l39 93q-83 4 -137 54l32 49q54 -49 121 -49q45 0 75 27.5t30 62.5q0 42 -47 83q-6 5 -112 86q-46 35 -63 63t-17 64q0 61 50.5 97t120.5 36q84 0 133 -48l-35 -44
q-41 37 -96 37q-44 0 -67.5 -20.5t-23.5 -53.5t31 -62q22 -20 110 -84q57 -43 77.5 -74.5t20.5 -72.5q0 -62 -47.5 -103t-114.5 -47l-22 -57q11 1 24 1q36 0 57.5 -18.5t21.5 -49.5q0 -39 -35 -64.5t-87 -25.5z" />
    <glyph glyph-name="scircumflex.sc" horiz-adv-x="459" 
d="M393 140q0 -68 -55 -110t-130 -42q-93 0 -154 55l32 49q52 -49 120 -49q46 0 75.5 27.5t29.5 62.5q0 42 -46 83l-59.5 46l-52.5 40q-46 36 -63.5 63.5t-17.5 63.5q0 61 51 97t121 36q82 0 132 -48l-35 -44q-41 37 -95 37q-45 0 -68.5 -20.5t-23.5 -53.5q0 -34 32 -62
q17 -16 110 -84q56 -42 76.5 -74t20.5 -73zM381 608h-46l-103 105l-102 -105h-45l119 172h58z" />
    <glyph glyph-name="scommaaccent.sc" horiz-adv-x="459" 
d="M393 140q0 -68 -55 -110t-130 -42q-93 0 -154 55l32 49q52 -49 120 -49q46 0 75.5 27.5t29.5 62.5q0 42 -46 83l-59.5 46l-52.5 40q-46 36 -63.5 63.5t-17.5 63.5q0 61 51 97t121 36q82 0 132 -48l-35 -44q-41 37 -95 37q-45 0 -68.5 -20.5t-23.5 -53.5q0 -34 32 -62
q17 -16 110 -84q56 -42 76.5 -74t20.5 -73zM176 -250l-33 20l37 87q0 4 -9 18t-9 29q0 20 14 34.5t35 14.5q22 0 36 -14.5t14 -34.5q0 -34 -25 -67z" />
    <glyph glyph-name="tbar.sc" horiz-adv-x="493" 
d="M475 491h-189v-228h108v-56h-108v-207h-79v207h-108v56h108v228h-189v59h457v-59z" />
    <glyph glyph-name="tcaron.sc" horiz-adv-x="493" 
d="M475 491h-189v-491h-79v491h-189v59h457v-59zM394 780l-119 -172h-58l-119 172h45l102 -105l103 105h46z" />
    <glyph glyph-name="uni0163.sc" horiz-adv-x="493" 
d="M475 491h-189v-491h-79v491h-189v59h457v-59zM212 -250l-33 20l37 87q0 4 -9 18t-9 29q0 20 14 34.5t35 14.5q22 0 36 -14.5t14 -34.5q0 -34 -25 -67z" />
    <glyph glyph-name="uni021B.sc" horiz-adv-x="493" 
d="M475 491h-189v-491h-79v491h-189v59h457v-59zM212 -250l-33 20l37 87q0 4 -9 18t-9 29q0 20 14 34.5t35 14.5q22 0 36 -14.5t14 -34.5q0 -34 -25 -67z" />
    <glyph glyph-name="ubreve.sc" horiz-adv-x="628" 
d="M545 550v-312q0 -74 -8 -106.5t-33 -63.5q-60 -80 -190 -80q-141 0 -198 86q-20 29 -26.5 63.5t-6.5 107.5v305h79v-308q0 -62 7 -92.5t24 -53.5q40 -52 120 -52q94 0 133 66q21 35 21 123v317h78zM310 614q-46 0 -82 28.5t-53 74.5q-9 27 -11 56h42q29 -96 104 -96
t104 96h43q-3 -40 -17 -69q-42 -90 -130 -90z" />
    <glyph glyph-name="uhungarumlaut.sc" horiz-adv-x="628" 
d="M545 550v-312q0 -74 -8 -106.5t-33 -63.5q-60 -80 -190 -80q-141 0 -198 86q-20 29 -26.5 63.5t-6.5 107.5v305h79v-308q0 -62 7 -92.5t24 -53.5q40 -52 120 -52q94 0 133 66q21 35 21 123v317h78zM522 742l-157 -130h-60l163 175zM351 742l-156 -130h-60l163 175z" />
    <glyph glyph-name="umacron.sc" horiz-adv-x="628" 
d="M545 550v-312q0 -74 -8 -106.5t-33 -63.5q-60 -80 -190 -80q-141 0 -198 86q-20 29 -26.5 63.5t-6.5 107.5v305h79v-308q0 -62 7 -92.5t24 -53.5q40 -52 120 -52q94 0 133 66q21 35 21 123v317h78zM439 658h-262v60h262v-60z" />
    <glyph glyph-name="uogonek.sc" horiz-adv-x="628" 
d="M376 -210q-46 0 -75.5 23t-29.5 72q0 69 65 104q-12 -1 -22 -1q-141 0 -198 86q-20 29 -26.5 63.5t-6.5 107.5v305h79v-308q0 -62 7 -92.5t24 -53.5q40 -52 120 -52q94 0 133 66q21 35 21 123v317h78v-312q0 -74 -8 -106.5t-33 -63.5q-31 -42 -97 -70
q-33 -14 -52.5 -41.5t-19.5 -55.5q0 -30 21 -44.5t52 -14.5q26 0 49 8l16 -39q-51 -21 -97 -21z" />
    <glyph glyph-name="uring.sc" horiz-adv-x="628" 
d="M418 708q0 -42 -29 -70.5t-71 -28.5q-40 0 -69.5 29.5t-29.5 69.5q0 42 29 71t71 29q40 0 69.5 -29.5t29.5 -70.5zM370 708q0 22 -15 37.5t-37 15.5q-21 0 -36 -15.5t-15 -37.5t15 -37.5t37 -15.5q21 0 36 15.5t15 37.5zM545 550v-312q0 -74 -8 -106.5t-33 -63.5
q-60 -80 -190 -80q-141 0 -198 86q-20 29 -26.5 63.5t-6.5 107.5v305h79v-308q0 -62 7 -92.5t24 -53.5q40 -52 120 -52q94 0 133 66q21 35 21 123v317h78z" />
    <glyph glyph-name="utilde.sc" horiz-adv-x="628" 
d="M545 550v-312q0 -74 -8 -106.5t-33 -63.5q-60 -80 -190 -80q-141 0 -198 86q-20 29 -26.5 63.5t-6.5 107.5v305h79v-308q0 -62 7 -92.5t24 -53.5q40 -52 120 -52q94 0 133 66q21 35 21 123v317h78zM365 638q-25 0 -68 18q-50 21 -61 21q-34 0 -51 -39h-38q10 38 21 53
q28 45 82 45q24 0 73 -20q52 -19 57 -19q39 0 53 47h39q-6 -36 -15 -53q-31 -53 -92 -53z" />
    <glyph glyph-name="wacute.sc" horiz-adv-x="751" 
d="M740 544l-168 -544h-70l-130 440l-131 -440h-66l-164 544l84 13l119 -449l130 442h67l128 -443l129 450zM310 637l189 173l56 -57l-213 -130z" />
    <glyph glyph-name="wcircumflex.sc" horiz-adv-x="751" 
d="M740 544l-168 -544h-70l-130 440l-131 -440h-66l-164 544l84 13l119 -449l130 442h67l128 -443l129 450zM524 608h-46l-103 105l-102 -105h-45l119 172h58z" />
    <glyph glyph-name="wdieresis.sc" horiz-adv-x="751" 
d="M740 544l-168 -544h-70l-130 440l-131 -440h-66l-164 544l84 13l119 -449l130 442h67l128 -443l129 450zM474 639q-20 0 -35 14.5t-15 34.5t15 34.5t36 14.5q19 0 33.5 -14.5t14.5 -34.5t-14.5 -34.5t-34.5 -14.5zM282 639q-20 0 -34.5 14.5t-14.5 34.5t14.5 34.5
t35.5 14.5q20 0 34 -14.5t14 -34.5t-14.5 -34.5t-34.5 -14.5z" />
    <glyph glyph-name="wgrave.sc" horiz-adv-x="751" 
d="M740 544l-168 -544h-70l-130 440l-131 -440h-66l-164 544l84 13l119 -449l130 442h67l128 -443l129 450zM439 638l-32 -15l-213 129l56 58z" />
    <glyph glyph-name="ycircumflex.sc" horiz-adv-x="464" 
d="M456 545l-196 -304v-241h-79v241l-173 299l78 17l141 -266l159 266zM383 608h-46l-103 105l-102 -105h-45l119 172h58z" />
    <glyph glyph-name="ygrave.sc" horiz-adv-x="464" 
d="M456 545l-196 -304v-241h-79v241l-173 299l78 17l141 -266l159 266zM300 638l-32 -15l-213 129l56 58z" />
    <glyph glyph-name="zacute.sc" horiz-adv-x="505" 
d="M471 0h-439v30l330 461h-277v59h386v-25l-328 -466h328v-59zM207 637l189 173l56 -57l-213 -130z" />
    <glyph glyph-name="zdotaccent.sc" horiz-adv-x="505" 
d="M471 0h-439v30l330 461h-277v59h386v-25l-328 -466h328v-59zM274 639q-21 0 -36.5 15t-15.5 35q0 22 15 36.5t36 14.5q20 0 35 -15t15 -35q0 -21 -14.5 -36t-34.5 -15z" />
    <glyph glyph-name="idotaccent.sc" horiz-adv-x="276" 
d="M177 0h-79v550h79v-550zM140 639q-21 0 -36.5 15t-15.5 35q0 22 15 36.5t36 14.5q20 0 35 -15t15 -35q0 -21 -14.5 -36t-34.5 -15z" />
    <glyph glyph-name="parenleft.cap" horiz-adv-x="388" 
d="M327 -86l-31 -32q-119 73 -184.5 196t-65.5 264q0 294 250 479l31 -33q-94 -79 -148 -199.5t-54 -246.5q0 -129 52.5 -239.5t149.5 -188.5z" />
    <glyph glyph-name="parenright.cap" horiz-adv-x="388" 
d="M341 360q0 -292 -250 -478l-31 33q93 79 147.5 199.5t54.5 245.5q0 128 -52.5 239t-149.5 190l31 32q118 -73 184 -196.5t66 -264.5z" />
    <glyph glyph-name="bracketleft.cap" horiz-adv-x="366" 
d="M302 -111h-209v925h209v-52h-136v-821h136v-52z" />
    <glyph glyph-name="bracketright.cap" horiz-adv-x="366" 
d="M272 -111h-209v52h137v821h-137v52h209v-925z" />
    <glyph glyph-name="braceleft.cap" horiz-adv-x="365" 
d="M295 -65v-49q-47 0 -79 16t-48.5 46.5t-23.5 66.5t-7 83v102q0 63 -16.5 89.5t-64.5 44.5v40q49 18 65 45t16 88v96q0 66 10.5 109.5t47 75.5t100.5 33v-48q-50 -11 -67.5 -43.5t-17.5 -88.5v-45q0 -135 -8 -156q-16 -51 -78 -87q67 -41 80 -96q6 -25 6 -132v-60
q0 -58 20 -89.5t65 -40.5z" />
    <glyph glyph-name="braceright.cap" horiz-adv-x="365" 
d="M308 373v-40q-49 -18 -64.5 -45t-15.5 -88v-96q0 -48 -6.5 -83.5t-22.5 -67.5t-49 -49t-81 -18v48q50 11 68 43.5t18 88.5v44q0 136 7 157q18 52 78 87q-67 41 -80 96q-5 25 -5 132v60q0 113 -86 130v49q47 0 79 -16t48.5 -46.5t23.5 -66.5t7 -83v-102q0 -63 16.5 -89.5
t64.5 -44.5z" />
    <glyph glyph-name="exclamdown.cap" horiz-adv-x="275" 
d="M181 6h-85l19 554h48zM138 626q-26 0 -44 17.5t-18 43.5t17.5 43.5t44.5 17.5q26 0 43 -17.5t17 -43.5t-17 -43.5t-43 -17.5z" />
    <glyph glyph-name="questiondown.cap" horiz-adv-x="457" 
d="M257 620q-26 0 -44 17.5t-18 43.5t18 43.5t44 17.5t43.5 -17.5t17.5 -43.5t-17.5 -43.5t-43.5 -17.5zM364 131l41 -41q-75 -90 -182 -90q-76 0 -130.5 39t-54.5 118q0 59 37 117q13 23 90 118q64 82 65 147h61q1 -7 1 -14q0 -78 -60 -165q-9 -13 -34 -45.5t-36 -48.5
t-21.5 -44t-10.5 -56q0 -47 28 -74.5t75 -27.5q39 0 68 16t63 51z" />
    <glyph glyph-name="guillemotleft.cap" horiz-adv-x="475" 
d="M249 197l-34 -36l-200 180l184 187l35 -35l-125 -152zM429 197l-35 -36l-200 180l184 187l35 -35l-125 -152z" />
    <glyph glyph-name="guillemotright.cap" horiz-adv-x="475" 
d="M284 348l-185 -187l-35 35l125 152l-140 144l34 36zM463 348l-184 -187l-35 35l125 152l-141 144l35 36z" />
    <glyph glyph-name="guilsinglleft.cap" horiz-adv-x="296" 
d="M250 197l-34 -36l-201 180l185 187l35 -35l-125 -152z" />
    <glyph glyph-name="guilsinglright.cap" horiz-adv-x="296" 
d="M283 347l-185 -187l-34 35l125 152l-141 144l34 37z" />
    <glyph glyph-name="hyphen.cap" horiz-adv-x="313" 
d="M277 308h-242v62h242v-62z" />
    <glyph glyph-name="endash.cap" horiz-adv-x="565" 
d="M551 306h-551v61h551v-61z" />
    <glyph glyph-name="emdash.cap" horiz-adv-x="802" 
d="M748 306h-708v61h708v-61z" />
    <glyph glyph-name="periodcentered.cap" horiz-adv-x="281" 
d="M139 301q-26 0 -43.5 17.5t-17.5 42.5q0 27 17.5 44.5t44.5 17.5q26 0 43 -17.5t17 -43.5t-17.5 -43.5t-43.5 -17.5z" />
    <glyph glyph-name="sterling.oldstyle" horiz-adv-x="603" 
d="M510 94l41 -40q-36 -35 -68 -50.5t-72 -15.5q-28 0 -89 7q-115 15 -176 15q-54 0 -100 -12v57q59 25 80.5 60.5t33.5 128.5l10 86h-102v50h108l6 54q17 123 63 182q52 67 151 67q40 0 79 -17.5t65 -48.5l-38 -39q-55 45 -110 45q-63 0 -93 -50q-28 -42 -39 -135l-6 -58
h146v-50h-152l-7 -63q-15 -141 -71 -193q20 0 106 -9q126 -15 131 -15q29 0 50.5 10t52.5 34z" />
    <glyph glyph-name="f_i.sc" horiz-adv-x="693" 
d="M384 491h-207v-182h203v-58h-203v-251h-79v550h286v-59zM594 0h-79v550h79v-550z" />
    <glyph glyph-name="f_l.sc" horiz-adv-x="862" 
d="M384 491h-207v-182h203v-58h-203v-251h-79v550h286v-59zM840 0h-325v550h79v-491h246v-59z" />
    <glyph glyph-name="germandbls.sc" horiz-adv-x="871" 
d="M394 140q0 -68 -55.5 -110t-129.5 -42q-92 0 -155 55l32 49q54 -49 121 -49q45 0 75 27.5t30 62.5q0 42 -47 83q-6 5 -112 86q-46 35 -63 63t-17 64q0 61 50.5 97t120.5 36q84 0 133 -48l-35 -44q-41 37 -96 37q-44 0 -67.5 -20.5t-23.5 -53.5t31 -62q22 -20 110 -84
q57 -43 77.5 -74.5t20.5 -72.5zM806 140q0 -68 -55.5 -110t-129.5 -42q-92 0 -155 55l32 49q54 -49 121 -49q45 0 75 27.5t30 62.5q0 42 -47 83q-6 5 -112 86q-46 35 -63 63t-17 64q0 61 50.5 97t120.5 36q84 0 133 -48l-35 -44q-41 37 -96 37q-44 0 -67.5 -20.5
t-23.5 -53.5t31 -62q22 -20 110 -84q57 -43 77.5 -74.5t20.5 -72.5z" />
    <glyph glyph-name="florin.oldstyle" horiz-adv-x="603" 
d="M525 667l-25 -43q-24 11 -43 11q-40 0 -60 -25q-18 -22 -32 -90l-22 -98h118l-10 -50h-118l-82 -398q-20 -89 -49 -127q-44 -57 -118 -57q-46 0 -74 20l25 43q22 -11 44 -11q46 0 69 42q13 23 26 86l83 402h-81l11 50h80l22 103q35 162 165 162q40 0 71 -20z" />
    <glyph glyph-name="numbersign.oldstyle" horiz-adv-x="617" 
d="M567 437l-9 -50h-110l-28 -154h110l-8 -50h-111l-42 -230h-58l41 230h-134l-43 -230h-58l42 230h-110l8 50h111l28 154h-110l8 50h110l40 216h59l-40 -216h135l40 216h59l-40 -216h110zM389 387h-134l-29 -154h135z" />
    <glyph glyph-name="bullet.cap" horiz-adv-x="500" 
d="M251 209q-60 0 -103.5 43t-43.5 103q0 61 43 103t105 42q59 0 101.5 -43t42.5 -102q0 -60 -42.5 -103t-102.5 -43z" />
    <glyph glyph-name="dotlessi.sc" horiz-adv-x="276" 
d="M177 0h-79v550h79v-550z" />
    </font>
</defs>
</svg>
