<?xml version="1.0" standalone="no"?>
<!DOCTYPE svg PUBLIC "-//W3C//DTD SVG 1.1//EN" "http://www.w3.org/Graphics/SVG/1.1/DTD/svg11.dtd" >
<svg>
<metadata>
Created by FontForge 20090622 at Tue Mar 14 17:05:36 2017
 By deploy user
Copyright (c) 2008 by Dino dos Santos _DSType. All rights reserved.
</metadata>
<defs>
<font id="PreloSlab-ExtraBold" horiz-adv-x="594" >
  <font-face 
    font-family="Prelo Slab ExtraBold"
    font-weight="400"
    font-stretch="normal"
    units-per-em="1000"
    panose-1="2 0 5 3 4 0 0 2 0 4"
    ascent="750"
    descent="-250"
    x-height="500"
    cap-height="680"
    bbox="-52 -270 1151 950"
    underline-thickness="50"
    underline-position="-50"
    unicode-range="U+0020-U+FB04"
  />
<missing-glyph horiz-adv-x="590" 
d="M70 500h450v-500h-450v500zM287 249l-206 236v-469zM304 249l205 -231v465zM93 488l203 -229l202 229h-405zM296 240l-201 -228h401z" />
    <glyph glyph-name="ff" unicode="ff" horiz-adv-x="643" 
d="M376 124v270h-150v-270h48v-124h-252v124h54v270h-64v97l64 9v48q0 78 38 115t126 37q39 0 91 -9l-13 -115q-28 5 -43 5q-27 0 -38 -14.5t-11 -44.5v-22h150v48q0 78 38 115t125 37q38 0 92 -9l-14 -115q-27 5 -43 5q-27 0 -37.5 -14.5t-10.5 -44.5v-22h100v-106h-100
v-270h56v-124h-251v124h45z" />
    <glyph glyph-name="fi" unicode="fi" horiz-adv-x="592" 
d="M526 124h53v-124h-248v124h45v270h-150v-270h48v-124h-252v124h54v270h-64v97l64 9v22q0 85 48.5 131.5t171.5 46.5q42 0 105.5 -10t92.5 -21l-14 -106q-82 18 -166 18q-53 0 -70.5 -16t-17.5 -43v-22h300v-376z" />
    <glyph glyph-name="fl" unicode="fl" horiz-adv-x="592" 
d="M526 124h53v-124h-248v124h45v449q-32 8 -62 8q-53 0 -70.5 -15.5t-17.5 -43.5v-22h100v-106h-100v-270h48v-124h-252v124h54v270h-64v97l64 9v22q0 85 48.5 131.5t171.5 46.5q75 0 123 -13h107v-563z" />
    <glyph glyph-name="ffi" unicode="ffi" horiz-adv-x="891" 
d="M825 124h54v-124h-249v124h45v270h-149v-270h47v-124h-242v124h45v270h-150v-270h48v-124h-252v124h54v270h-64v97l64 9v48q0 78 38 115t126 37q39 0 91 -9l-13 -115q-28 5 -43 5q-27 0 -38 -14.5t-11 -44.5v-22h150v22q0 85 48.5 131.5t171.5 46.5q41 0 104.5 -10
t92.5 -21l-14 -106q-80 18 -166 18q-52 0 -69.5 -16t-17.5 -43v-22h299v-376z" />
    <glyph glyph-name="ffl" unicode="ffl" horiz-adv-x="891" 
d="M376 394h-150v-270h48v-124h-252v124h54v270h-64v97l64 9v48q0 78 38 115t126 37q39 0 91 -9l-13 -115q-28 5 -43 5q-27 0 -38 -14.5t-11 -44.5v-22h150v22q0 85 48.5 131.5t171.5 46.5q74 0 123 -13h106v-563h54v-124h-249v124h45v449q-31 8 -62 8q-52 0 -69.5 -16
t-17.5 -43v-22h100v-106h-100v-270h47v-124h-242v124h45v270z" />
    <glyph glyph-name="T_h" unicode="Th" horiz-adv-x="1060" 
d="M17 680h669v-243h2q65 73 156 73q73 0 111.5 -45.5t38.5 -123.5v-217h53v-124h-248v124h45v182q0 80 -70 80q-37 0 -88 -29v-233h45v-124h-249v124h54v432h-167v-432h54v-124h-266v124h54v432h-70v-55h-124v179z" />
    <glyph glyph-name="T_h.caron" unicode="&#x164;h" horiz-adv-x="1060" 
d="M17 680h669v-243h2q65 73 156 73q73 0 111.5 -45.5t38.5 -123.5v-217h53v-124h-248v124h45v182q0 80 -70 80q-37 0 -88 -29v-233h45v-124h-249v124h54v432h-167v-432h54v-124h-266v124h54v432h-70v-55h-124v179zM215 870l74 -58l74 58h80l-109 -140h-90l-109 140h80z" />
    <glyph glyph-name="T_h.commaaccent" unicode="&#x162;h" horiz-adv-x="1060" 
d="M17 680h669v-243h2q65 73 156 73q73 0 111.5 -45.5t38.5 -123.5v-217h53v-124h-248v124h45v182q0 80 -70 80q-37 0 -88 -29v-233h45v-124h-249v124h54v432h-167v-432h54v-124h-266v124h54v432h-70v-55h-124v179zM295 -265h-45l27 101h-61v124h150v-124z" />
    <glyph glyph-name="f_f_j" unicode="ffj" horiz-adv-x="861" 
d="M675 394h-149v-270h47v-124h-242v124h45v270h-150v-270h48v-124h-252v124h54v270h-64v97l64 9v48q0 78 38 115t126 37q39 0 91 -9l-13 -115q-28 5 -43 5q-27 0 -38 -14.5t-11 -44.5v-22h150v22q0 85 48.5 131.5t171.5 46.5q41 0 104.5 -10t92.5 -21l-14 -106
q-80 18 -166 18q-52 0 -69.5 -16t-17.5 -43v-22h299v-556q0 -79 -34.5 -116.5t-129.5 -37.5q-39 0 -91 9l13 115q28 -5 43 -5q28 0 38.5 9.5t10.5 36.5v439z" />
    <glyph glyph-name="f_j" unicode="fj" horiz-adv-x="562" 
d="M376 394h-150v-270h48v-124h-252v124h54v270h-64v97l64 9v22q0 85 48.5 131.5t171.5 46.5q42 0 105.5 -10t92.5 -21l-14 -106q-82 18 -166 18q-53 0 -70.5 -16t-17.5 -43v-22h300v-556q0 -79 -35 -116.5t-129 -37.5q-39 0 -91 9l13 115q28 -5 43 -5q28 0 38.5 9.5
t10.5 36.5v439z" />
    <glyph glyph-name=".notdef" horiz-adv-x="590" 
d="M70 500h450v-500h-450v500zM287 249l-206 236v-469zM304 249l205 -231v465zM93 488l203 -229l202 229h-405zM296 240l-201 -228h401z" />
    <glyph glyph-name=".null" horiz-adv-x="0" 
 />
    <glyph glyph-name="nonmarkingreturn" horiz-adv-x="333" 
 />
    <glyph glyph-name="space" unicode=" " horiz-adv-x="180" 
 />
    <glyph glyph-name="exclam" unicode="!" horiz-adv-x="222" 
d="M36 152h150v-152h-150v152zM36 700h150l-9 -480h-132z" />
    <glyph glyph-name="quotedbl" unicode="&#x22;" horiz-adv-x="422" 
d="M36 680h150l-17 -188h-115zM236 680h150l-17 -188h-115z" />
    <glyph glyph-name="numbersign" unicode="#" horiz-adv-x="613" 
d="M179 500h106l-10 -96h95l10 96h107l-11 -96h100l-10 -98h-100l-12 -112h100l-10 -98h-100l-10 -96h-107l11 96h-95l-11 -96h-106l11 96h-100l10 98h100l12 112h-100l10 98h100zM265 306l-12 -112h95l12 112h-95z" />
    <glyph glyph-name="dollar" unicode="$" horiz-adv-x="620" 
d="M46 207h124v-67q90 -18 140 -18q96 0 96 65q0 9 -2 16.5t-8 14.5t-11 12t-15.5 10l-17.5 8.5t-21.5 8l-23 7l-26 7.5t-26.5 8q-199 58 -199 216q0 92 62.5 140t164.5 54v91h63v-91q96 -4 209 -38v-179h-124v73q-64 12 -121 12q-41 0 -63.5 -15.5t-22.5 -42.5
q0 -32 33.5 -52t102.5 -36q214 -50 214 -206q0 -99 -62.5 -152.5t-165.5 -60.5v-92h-63v91q-124 3 -237 38v178z" />
    <glyph glyph-name="percent" unicode="%" horiz-adv-x="760" 
d="M614 680l-370 -680h-98l370 680h98zM180 385q-70 0 -108 40t-38 111t38 110.5t108 39.5q71 0 109 -39.5t38 -110.5t-38 -111t-109 -40zM180 460q54 0 54 76t-54 76q-53 0 -53 -76t53 -76zM580 -6q-71 0 -109 39.5t-38 110.5t38 110.5t109 39.5q70 0 108 -39.5t38 -110.5
t-38 -110.5t-108 -39.5zM580 68q53 0 53 76t-53 76q-54 0 -54 -76t54 -76z" />
    <glyph glyph-name="ampersand" unicode="&#x26;" horiz-adv-x="705" 
d="M519 519q0 -90 -126 -163l115 -109q32 54 39 103h142q-16 -110 -85 -203l75 -77l-98 -106l-83 87q-92 -61 -213 -61q-126 0 -187.5 52t-61.5 139q0 54 31.5 98.5t116.5 94.5q-36 45 -52 76.5t-16 65.5q0 82 61.5 128t147.5 46q91 0 142.5 -45.5t51.5 -125.5zM295 118
q65 0 111 29l-146 151q-66 -43 -66 -94q0 -39 28.5 -62.5t72.5 -23.5zM262 523q0 -37 45 -87q70 45 70 88q0 32 -15.5 48t-40.5 16q-30 0 -44.5 -18.5t-14.5 -46.5z" />
    <glyph glyph-name="quotesingle" unicode="'" horiz-adv-x="222" 
d="M36 680h150l-17 -188h-115z" />
    <glyph glyph-name="parenleft" unicode="(" horiz-adv-x="330" 
d="M38 340q0 128 45 252.5t133 227.5h98q-126 -220 -126 -480q0 -247 126 -480h-98q-87 103 -132.5 228.5t-45.5 251.5z" />
    <glyph glyph-name="parenright" unicode=")" horiz-adv-x="330" 
d="M292 340q0 -126 -45.5 -251.5t-132.5 -228.5h-98q126 233 126 480q0 260 -126 480h98q88 -103 133 -227.5t45 -252.5z" />
    <glyph glyph-name="asterisk" unicode="*" horiz-adv-x="410" 
d="M174 560l-12 120h86l-12 -120l116 48l26 -84l-122 -12l81 -90l-66 -51l-67 113l-65 -113l-66 51l80 90l-121 12l24 84z" />
    <glyph glyph-name="plus" unicode="+" horiz-adv-x="500" 
d="M312 479v-152h152v-124h-152v-152h-124v152h-152v124h152v152h124z" />
    <glyph glyph-name="comma" unicode="," horiz-adv-x="222" 
d="M115 -130h-45l27 130h-61v152h150v-152z" />
    <glyph glyph-name="hyphen" unicode="-" horiz-adv-x="500" 
d="M36 327h428v-124h-428v124z" />
    <glyph glyph-name="period" unicode="." horiz-adv-x="222" 
d="M36 152h150v-152h-150v152z" />
    <glyph glyph-name="slash" unicode="/" horiz-adv-x="540" 
d="M521 680l-370 -680h-132l370 680h132z" />
    <glyph glyph-name="zero" unicode="0" horiz-adv-x="570" 
d="M285 566q-55 0 -77.5 -57.5t-22.5 -163.5q0 -231 100 -231t100 231q0 106 -22.5 163.5t-77.5 57.5zM285 -10q-76 0 -128.5 27.5t-80 78.5t-39 111t-11.5 138q0 62 6.5 111t24.5 94t46.5 75t74.5 47.5t107 17.5t107 -17.5t74.5 -47.5t46.5 -75t24.5 -94t6.5 -111
q0 -78 -11.5 -138t-39 -111t-80 -78.5t-128.5 -27.5z" />
    <glyph glyph-name="one" unicode="1" horiz-adv-x="390" 
d="M267 124h105v-124h-360v124h105v415l-103 -2v106l183 42h70v-561z" />
    <glyph glyph-name="two" unicode="2" horiz-adv-x="530" 
d="M389 179h123v-179h-496v142q178 111 243.5 180.5t65.5 128.5q0 102 -110 102q-40 0 -75 -10v-46h-124v143q126 50 234 50q113 0 173.5 -58t60.5 -150q0 -98 -63.5 -177.5t-192.5 -170.5v-2h161v47z" />
    <glyph glyph-name="three" unicode="3" horiz-adv-x="520" 
d="M15 39v143h124v-56q44 -12 102 -12q56 0 82 24.5t26 57.5q0 82 -119 82h-93v124h86q111 0 111 91q0 30 -24 51.5t-69 21.5q-47 0 -95 -14v-55h-124v144q111 49 245 49q92 0 154.5 -47t62.5 -133q0 -108 -114 -153v-2q67 -18 100.5 -63.5t33.5 -104.5q0 -94 -67.5 -145.5
t-187.5 -51.5q-68 0 -120.5 10.5t-113.5 38.5z" />
    <glyph glyph-name="four" unicode="4" horiz-adv-x="570" 
d="M169 307h151v219h-2q-62 -111 -149 -219zM320 124v60h-304v123q69 75 106 119t83 113.5t79 145.5h186v-378h84v-123h-84v-60h54v-124h-258v124h54z" />
    <glyph glyph-name="five" unicode="5" horiz-adv-x="540" 
d="M492 680v-179h-123v46h-191l-7 -135l2 -1q54 39 130 39q98 0 154.5 -57.5t56.5 -165.5q0 -116 -69 -176.5t-195 -60.5q-115 0 -225 50v134h124v-49q43 -11 92 -11q57 0 85.5 29.5t28.5 75.5q0 42 -24.5 72.5t-81.5 30.5q-35 0 -57 -9t-48 -30l-107 9l12 388h443z" />
    <glyph glyph-name="six" unicode="6" horiz-adv-x="550" 
d="M176 394l2 -1q55 62 136 62q98 0 154 -62t56 -173q0 -106 -66.5 -168t-174.5 -62q-128 0 -192.5 89t-64.5 221q0 390 303 390q90 0 175 -29v-160h-124v63q-26 2 -38 2q-66 0 -116.5 -43.5t-49.5 -128.5zM189 284q-5 -45 -0.5 -81t26.5 -62.5t61 -26.5t64 28t25 78
q0 43 -20.5 74t-70.5 31q-44 0 -85 -41z" />
    <glyph glyph-name="seven" unicode="7" horiz-adv-x="490" 
d="M17 680h457v-106q-58 -103 -91.5 -170t-72 -177.5t-56.5 -226.5h-168q22 129 83.5 277.5t140.5 267.5v2h-169v-46h-124v179z" />
    <glyph glyph-name="eight" unicode="8" horiz-adv-x="550" 
d="M405 359v-2q129 -65 129 -170q0 -99 -75.5 -148t-187.5 -49q-69 0 -124.5 17t-93 59.5t-37.5 104.5q0 112 127 165v2q-107 57 -107 166q0 90 71.5 138t171.5 48q94 0 164.5 -47t70.5 -131q0 -53 -27 -88.5t-82 -64.5zM171 187q0 -35 27 -60.5t82 -25.5q51 0 75 20.5
t24 52.5q0 13 -3.5 24.5t-13 21l-16.5 16t-22.5 14l-23 11t-26 10.5t-22.5 9q-81 -32 -81 -93zM271 579q-37 0 -61 -20.5t-24 -50.5q0 -36 31.5 -60.5t75.5 -35.5q31 11 51 34t20 53q0 35 -25.5 57.5t-67.5 22.5z" />
    <glyph glyph-name="nine" unicode="9" horiz-adv-x="550" 
d="M374 286l-2 1q-55 -62 -136 -62q-98 0 -154 61.5t-56 173.5q0 106 66.5 168t174.5 62q128 0 192.5 -89t64.5 -221q0 -390 -303 -390q-90 0 -175 29v160h124v-63q13 -2 38 -2q66 0 116.5 43.5t49.5 128.5zM361 396q5 45 0.5 81t-26.5 62.5t-61 26.5t-64 -28t-25 -78
q0 -43 20.5 -74t70.5 -31q44 0 85 41z" />
    <glyph glyph-name="colon" unicode=":" horiz-adv-x="222" 
d="M36 152h150v-152h-150v152zM36 460h150v-153h-150v153z" />
    <glyph glyph-name="semicolon" unicode=";" horiz-adv-x="222" 
d="M36 460h150v-153h-150v153zM115 -130h-45l27 130h-61v152h150v-152z" />
    <glyph glyph-name="less" unicode="&#x3c;" horiz-adv-x="480" 
d="M36 294l408 205v-133l-249 -116l249 -116v-133l-408 205v88z" />
    <glyph glyph-name="equal" unicode="=" horiz-adv-x="500" 
d="M36 427h428v-124h-428v124zM36 227h428v-124h-428v124z" />
    <glyph glyph-name="greater" unicode="&#x3e;" horiz-adv-x="480" 
d="M36 499l408 -205v-88l-408 -205v133l249 116l-249 116v133z" />
    <glyph glyph-name="question" unicode="?" horiz-adv-x="480" 
d="M26 472v178q94 40 218 40q60 0 104 -17.5t65.5 -46.5t31 -59t9.5 -63q0 -46 -17 -81.5t-42 -57.5t-49.5 -40.5t-41.5 -39.5t-17 -45v-30h-132v30q0 48 17.5 85t39.5 55.5t46 41t33 41.5q8 18 7 34q-5 52 -86 52q-24 0 -62 -9v-68h-124zM146 152h150v-152h-150v152z" />
    <glyph glyph-name="at" unicode="@" horiz-adv-x="810" 
d="M251 441q85 20 164 20q83 0 121 -27t38 -103v-173q62 0 92.5 50t30.5 114q0 110 -78 178t-194 68q-138 0 -224.5 -87.5t-86.5 -227.5q0 -124 80.5 -207.5t203.5 -83.5l-9 -82q-161 0 -265 106t-104 267q0 174 114.5 286.5t289.5 112.5q154 0 260 -91.5t106 -234.5
q0 -112 -63 -186t-177 -74h-93v39h-1q-43 -46 -112 -46q-56 0 -87 34.5t-31 86.5q0 67 49 95t115 28h67v21q0 24 -16 32.5t-52 8.5q-22 0 -43 -4v-36h-95v116zM457 167v68h-60q-54 0 -54 -45q0 -21 14.5 -31.5t35.5 -10.5q37 0 64 19z" />
    <glyph glyph-name="A" unicode="A" horiz-adv-x="700" 
d="M147 680h314l172 -556h54v-124h-283v124h56l-22 82h-183l-26 -82h58v-124h-275v124h63l137 432h-65v124zM352 539h-1l-64 -218h124z" />
    <glyph glyph-name="B" unicode="B" horiz-adv-x="630" 
d="M485 354v-2q55 -17 87 -58.5t32 -105.5q0 -89 -57.5 -138.5t-166.5 -49.5h-368v124h54v432h-54v124h348q109 0 166.5 -45t57.5 -129q0 -53 -27 -93.5t-72 -58.5zM351 287h-126v-163h129q38 0 60 20.5t22 61.5q0 40 -22.5 60.5t-62.5 20.5zM416 484q0 33 -19 52.5
t-55 19.5h-117v-145h117q36 0 55 19.5t19 53.5z" />
    <glyph glyph-name="C" unicode="C" horiz-adv-x="610" 
d="M461 199h124v-170q-129 -39 -250 -39q-309 0 -309 355q0 77 14.5 136.5t48.5 108t96 74.5t150 26q121 0 250 -39v-170h-124v74q-59 11 -113 11q-154 0 -154 -221q0 -231 154 -231q60 0 113 11v74z" />
    <glyph glyph-name="D" unicode="D" horiz-adv-x="660" 
d="M12 680h314q87 0 148.5 -24.5t95.5 -71t49 -104.5t15 -135t-15 -136.5t-49 -108t-95.5 -74.5t-148.5 -26h-314v124h54v432h-54v124zM225 124h101q81 0 110.5 56t29.5 165q0 107 -29 159t-111 52h-101v-432z" />
    <glyph glyph-name="E" unicode="E" horiz-adv-x="570" 
d="M12 680h532v-179h-124v55h-195v-144h269v-123h-269v-165h195v55h124v-179h-532v124h54v432h-54v124z" />
    <glyph glyph-name="F" unicode="F" horiz-adv-x="555" 
d="M12 680h522v-179h-124v55h-185v-164h259v-123h-259v-145h54v-124h-267v124h54v432h-54v124z" />
    <glyph glyph-name="G" unicode="G" horiz-adv-x="620" 
d="M194 345q0 -223 154 -223q37 0 78 11v98h-92v124h251v-322q-136 -43 -250 -43q-309 0 -309 355q0 77 14.5 136.5t48.5 108t96 74.5t150 26q121 0 250 -39v-170h-124v74q-59 11 -113 11q-154 0 -154 -221z" />
    <glyph glyph-name="H" unicode="H" horiz-adv-x="680" 
d="M401 124h54v165h-230v-165h54v-124h-267v124h54v432h-54v124h267v-124h-54v-144h230v144h-54v124h266v-124h-53v-432h53v-124h-266v124z" />
    <glyph glyph-name="I" unicode="I" horiz-adv-x="291" 
d="M12 124h54v432h-54v124h267v-124h-54v-432h54v-124h-267v124z" />
    <glyph glyph-name="J" unicode="J" horiz-adv-x="381" 
d="M102 680h267v-124h-54v-370q0 -196 -190 -196q-61 0 -113 9l13 124q32 -5 56 -5q75 0 75 68v370h-54v124z" />
    <glyph glyph-name="K" unicode="K" horiz-adv-x="680" 
d="M12 680h267v-124h-54v-194l186 194h-42v124h288v-124h-56l-170 -168l188 -264h48v-124h-297v124h48l-107 153l-86 -83v-70h54v-124h-267v124h54v432h-54v124z" />
    <glyph glyph-name="L" unicode="L" horiz-adv-x="550" 
d="M411 179h124v-179h-523v124h54v432h-54v124h267v-124h-54v-432h186v55z" />
    <glyph glyph-name="M" unicode="M" horiz-adv-x="840" 
d="M584 680h243v-124h-53v-432h53v-124h-266v124h54v272h-2l-143 -396h-101l-155 396h-2v-272h58v-124h-258v124h54v432h-54v124h248l169 -416h2z" />
    <glyph glyph-name="N" unicode="N" horiz-adv-x="690" 
d="M420 680h257v-124h-53v-556h-163l-247 393h-2v-269h58v-124h-258v124h54v432h-54v124h209l255 -415h2v291h-58v124z" />
    <glyph glyph-name="O" unicode="O" horiz-adv-x="670" 
d="M335 566q-43 0 -72 -15.5t-43.5 -47t-20 -68.5t-5.5 -90t5.5 -91.5t20 -72t43.5 -50.5t72 -17t72 17t43.5 50.5t20 72t5.5 91.5t-5.5 90t-20 68.5t-43.5 47t-72 15.5zM335 -10q-309 0 -309 355q0 77 14.5 136.5t48.5 108t96 74.5t150 26t150 -26t96 -74.5t48.5 -108
t14.5 -136.5q0 -355 -309 -355z" />
    <glyph glyph-name="P" unicode="P" horiz-adv-x="620" 
d="M12 680h349q110 0 171.5 -57.5t61.5 -161.5t-61.5 -161.5t-171.5 -57.5h-136v-118h54v-124h-267v124h54v432h-54v124zM225 556v-190h119q38 0 62.5 24t24.5 71t-24.5 71t-62.5 24h-119z" />
    <glyph glyph-name="Q" unicode="Q" horiz-adv-x="670" 
d="M26 345q0 77 14.5 136.5t48.5 108t96 74.5t150 26t150 -26t96 -74.5t48.5 -108t14.5 -136.5q0 -133 -53.5 -210.5t-149.5 -87.5q3 -16 74 -17.5t110 4.5v-142q-113 -13 -198.5 12t-123.5 86q-61 4 -109 24.5t-79.5 53t-51.5 77t-28.5 93.5t-8.5 107zM335 566
q-43 0 -72 -15.5t-43.5 -47t-20 -68.5t-5.5 -90t5.5 -91.5t20 -72t43.5 -50.5t72 -17t72 17t43.5 50.5t20 72t5.5 91.5t-5.5 90t-20 68.5t-43.5 47t-72 15.5z" />
    <glyph glyph-name="R" unicode="R" horiz-adv-x="650" 
d="M12 680h349q110 0 171.5 -56t61.5 -160q0 -68 -31.5 -118.5t-87.5 -70.5l119 -151h43v-124h-276v124h32l-93 125h-75v-125h54v-124h-267v124h54v432h-54v124zM225 556v-184h117q39 0 64 23t25 69t-24 69t-63 23h-119z" />
    <glyph glyph-name="S" unicode="S" horiz-adv-x="580" 
d="M26 207h124v-67q90 -18 140 -18q96 0 96 65q0 9 -2 16.5t-8 14.5t-11 12t-15.5 10l-17.5 8.5t-21.5 8l-23 7l-26 7.5t-26.5 8q-208 60 -208 216q0 99 71 147t183 48q116 0 245 -39v-179h-124v73q-62 12 -121 12q-41 0 -63.5 -15.5t-22.5 -42.5q0 -31 36.5 -51t108.5 -37
q214 -50 214 -206q0 -107 -73.5 -161t-190.5 -54q-135 0 -264 39v178z" />
    <glyph glyph-name="T" unicode="T" horiz-adv-x="580" 
d="M17 680h545v-179h-123v55h-70v-432h54v-124h-266v124h54v432h-70v-55h-124v179z" />
    <glyph glyph-name="U" unicode="U" horiz-adv-x="680" 
d="M401 680h266v-124h-53v-316q0 -129 -73 -189.5t-201 -60.5t-201 60.5t-73 189.5v316h-54v124h267v-124h-54v-316q0 -126 116 -126q114 0 114 126v316h-54v124z" />
    <glyph glyph-name="V" unicode="V" horiz-adv-x="690" 
d="M400 680h277v-124h-52l-178 -561h-203l-184 561h-48v124h287v-124h-64l118 -398h1l110 398h-64v124z" />
    <glyph glyph-name="W" unicode="W" horiz-adv-x="980" 
d="M12 680h287v-124h-61l77 -370h1l103 494h168l111 -494h1l70 370h-62v124h260v-124h-44l-131 -561h-212l-89 394h-2l-80 -394h-212l-139 561h-46v124z" />
    <glyph glyph-name="X" unicode="X" horiz-adv-x="700" 
d="M417 680h260v-124h-45l-163 -218l163 -214h55v-124h-316v124h51l-97 140l-95 -140h51v-124h-269v124h53l167 223l-159 209h-51v124h309v-124h-47l94 -132l89 132h-50v124z" />
    <glyph glyph-name="Y" unicode="Y" horiz-adv-x="660" 
d="M409 124h54v-124h-266v124h54v81l-178 351h-61v124h296v-124h-67l101 -205h2l100 205h-65v124h268v-124h-52l-186 -351v-81z" />
    <glyph glyph-name="Z" unicode="Z" horiz-adv-x="560" 
d="M44 680h481v-115l-306 -439v-2h193v55h124v-179h-511v115l310 439v2h-168v-55h-123v179z" />
    <glyph glyph-name="bracketleft" unicode="[" horiz-adv-x="300" 
d="M195 -51h89v-89h-248v960h248v-89h-89v-782z" />
    <glyph glyph-name="backslash" unicode="\" horiz-adv-x="540" 
d="M389 0l-370 680h132l370 -680h-132z" />
    <glyph glyph-name="bracketright" unicode="]" horiz-adv-x="300" 
d="M16 -51h89v782h-89v89h248v-960h-248v89z" />
    <glyph glyph-name="asciicircum" unicode="^" horiz-adv-x="380" 
d="M190 618l-74 -108h-80l109 190h90l109 -190h-80z" />
    <glyph glyph-name="underscore" unicode="_" horiz-adv-x="500" 
d="M36 -60h428v-89h-428v89z" />
    <glyph glyph-name="grave" unicode="`" horiz-adv-x="290" 
d="M155 560l-97 140h124l53 -140h-80z" />
    <glyph glyph-name="a" unicode="a" horiz-adv-x="535" 
d="M176 339h-124v147q117 24 213 24q106 0 155 -35.5t49 -133.5v-217h53v-124h-203v50h-2q-61 -65 -150 -59q-66 1 -105.5 43.5t-39.5 110.5q0 47 20 80.5t53 50t66 23t70 6.5h88v27q0 32 -21.5 43t-67.5 11q-26 0 -54 -4v-43zM319 131v85h-64q-41 0 -62.5 -11t-21.5 -45
q0 -27 19 -41t45 -14q50 0 84 26z" />
    <glyph glyph-name="b" unicode="b" horiz-adv-x="560" 
d="M12 576v124h204v-250h2q23 27 59.5 43.5t74.5 16.5q182 0 182 -260q0 -75 -17.5 -131t-61.5 -92.5t-111 -36.5q-79 0 -135 56h-2l-26 -46h-169v124h54v452h-54zM375 250q0 136 -84 136q-40 0 -75 -25v-222q35 -25 75 -25q84 0 84 136z" />
    <glyph glyph-name="c" unicode="c" horiz-adv-x="482" 
d="M467 339h-123v44q-21 3 -54 3q-105 0 -105 -136t105 -136q67 0 151 20l26 -120q-96 -24 -177 -24q-142 0 -203 66.5t-61 193.5t61 193.5t203 66.5q81 0 177 -24v-147z" />
    <glyph glyph-name="d" unicode="d" horiz-adv-x="560" 
d="M290 576v124h204v-576h53v-124h-203v50h-2q-23 -27 -60 -43.5t-75 -16.5q-181 0 -181 260q0 75 17.5 131t61.5 92.5t111 36.5q78 0 126 -56h2v122h-54zM185 250q0 -136 84 -136q40 0 75 25v222q-35 25 -75 25q-84 0 -84 -136z" />
    <glyph glyph-name="e" unicode="e" horiz-adv-x="530" 
d="M502 216h-317q3 -47 36.5 -74.5t91.5 -27.5q88 0 155 20l18 -120q-86 -24 -195 -24q-141 0 -203 67t-62 193t62 193t202 67q63 0 107.5 -16t67 -43.5t34.5 -65t10 -80.5t-7 -89zM281 395q-88 0 -96 -86h169q13 86 -73 86z" />
    <glyph glyph-name="f" unicode="f" horiz-adv-x="344" 
d="M22 0v124h54v270h-64v97l64 9v46q0 79 35 116.5t129 37.5q39 0 91 -9l-13 -115q-28 5 -43 5q-28 0 -38.5 -9t-10.5 -36v-36h98v-106h-98v-270h56v-124h-260z" />
    <glyph glyph-name="g" unicode="g" horiz-adv-x="555" 
d="M143 -54q0 -18 9.5 -29.5t28 -16.5t35.5 -6.5t42 -1.5q52 0 87.5 13t35.5 42q0 35 -51 40l-165 10q-22 -27 -22 -51zM265 273q69 0 69 67q0 68 -69 68q-70 0 -70 -68q0 -67 70 -67zM89 17v2q-32 21 -39 54t14 67.5t66 57.5v2q-37 19 -59 56.5t-22 83.5q0 85 58 127.5
t158 42.5q41 0 74 -10h190v-89h-72v-2q19 -23 19 -69q0 -85 -57.5 -127t-153.5 -42q-29 0 -59 9q-11 -16 -13.5 -28.5t3.5 -20.5t22 -9l160 -7q76 -3 118.5 -39.5t42.5 -99.5q0 -96 -74 -141t-230 -45q-115 0 -167.5 31.5t-52.5 98.5q0 61 74 97z" />
    <glyph glyph-name="h" unicode="h" horiz-adv-x="590" 
d="M329 0v124h45v182q0 80 -70 80q-37 0 -88 -29v-233h45v-124h-249v124h54v452h-54v124h204v-263h2q65 73 156 73q73 0 111.5 -45.5t38.5 -123.5v-217h53v-124h-248z" />
    <glyph glyph-name="i" unicode="i" horiz-adv-x="282" 
d="M12 376v124h204v-376h54v-124h-258v124h54v252h-54zM66 700h150v-144h-150v144z" />
    <glyph glyph-name="j" unicode="j" horiz-adv-x="262" 
d="M12 376v124h214v-556q0 -79 -35 -116.5t-129 -37.5q-39 0 -91 9l14 115q27 -5 42 -5q28 0 38.5 9.5t10.5 36.5v421h-64zM76 700h150v-144h-150v144z" />
    <glyph glyph-name="k" unicode="k" horiz-adv-x="600" 
d="M12 576v124h204v-427l138 103h-37v124h260v-124h-55l-97 -72l123 -180h39v-124h-260v124h32l-61 98l-82 -63v-35h54v-124h-258v124h54v452h-54z" />
    <glyph glyph-name="l" unicode="l" horiz-adv-x="282" 
d="M12 576v124h204v-576h54v-124h-258v124h54v452h-54z" />
    <glyph glyph-name="m" unicode="m" horiz-adv-x="890" 
d="M325 0v124h45v188q-4 74 -70 74q-33 0 -84 -29v-233h45v-124h-249v124h54v252h-54v124h204v-63h2q50 58 114 69q30 4 45 3q93 -1 125 -79q72 80 172 80q73 0 111.5 -45.5t38.5 -123.5v-217h53v-124h-248v124h45v182q0 80 -70 80q-36 0 -85 -30q1 -14 1 -43v-189h45v-124
h-240z" />
    <glyph glyph-name="n" unicode="n" horiz-adv-x="590" 
d="M329 0v124h45v182q0 80 -70 80q-37 0 -88 -29v-233h45v-124h-249v124h54v252h-54v124h204v-63h2q65 73 156 73q73 0 111.5 -45.5t38.5 -123.5v-217h53v-124h-248z" />
    <glyph glyph-name="o" unicode="o" horiz-adv-x="550" 
d="M275 386q-50 0 -70 -33.5t-20 -102.5t20 -102.5t70 -33.5t70 33.5t20 102.5t-20 102.5t-70 33.5zM275 -10q-249 0 -249 260t249 260t249 -260t-249 -260z" />
    <glyph glyph-name="p" unicode="p" horiz-adv-x="560" 
d="M12 376v124h204v-50h2q23 27 59.5 43.5t74.5 16.5q182 0 182 -260q0 -75 -17.5 -131t-61.5 -92.5t-111 -36.5q-78 0 -126 56h-2v-122h54v-124h-258v124h54v452h-54zM375 250q0 136 -84 136q-40 0 -75 -25v-222q35 -25 75 -25q84 0 84 136z" />
    <glyph glyph-name="q" unicode="q" horiz-adv-x="530" 
d="M290 -200v124h54v126h-2q-23 -27 -60 -43.5t-75 -16.5q-181 0 -181 260q0 75 17.5 131t61.5 92.5t111 36.5q36 0 72.5 -15t61.5 -41h2l27 50h115v-580h53v-124h-257zM185 250q0 -136 84 -136q40 0 75 25v222q-35 25 -75 25q-84 0 -84 -136z" />
    <glyph glyph-name="r" unicode="r" horiz-adv-x="400" 
d="M12 376v124h204v-80h2q24 38 67 64t99 26v-141q-105 0 -168 -30v-215h56v-124h-260v124h54v252h-54z" />
    <glyph glyph-name="s" unicode="s" horiz-adv-x="480" 
d="M441 339h-124v45q-39 7 -82 7q-63 0 -63 -32q0 -14 14 -21.5t54 -16.5q104 -23 141 -43q78 -41 78 -122q0 -84 -54 -125t-150 -41q-138 0 -234 24v147h124v-45q43 -7 92 -7q35 0 53.5 10.5t18.5 25.5q0 14 -17 21t-56 14q-101 17 -157.5 56t-56.5 119q0 155 204 155
q119 0 215 -24v-147z" />
    <glyph glyph-name="t" unicode="t" horiz-adv-x="375" 
d="M76 142v252h-64v97l64 9l18 140h132v-140h118v-106h-118v-226q0 -59 66 -59q16 0 43 5l14 -115q-52 -9 -109 -9q-88 0 -126 37t-38 115z" />
    <glyph glyph-name="u" unicode="u" horiz-adv-x="590" 
d="M12 376v124h204v-306q0 -80 70 -80q37 0 88 29v233h-58v124h208v-376h53v-124h-203v62h-2q-66 -72 -156 -72q-73 0 -111.5 45t-38.5 124v217h-54z" />
    <glyph glyph-name="v" unicode="v" horiz-adv-x="578" 
d="M337 376v124h229v-124h-34l-151 -381h-181l-149 381h-39v124h254v-124h-48l86 -232h2l77 232h-46z" />
    <glyph glyph-name="w" unicode="w" horiz-adv-x="808" 
d="M567 376v124h229v-124h-38l-113 -381h-161l-80 250h-2l-68 -250h-161l-125 381h-36v124h254v-124h-57l59 -214h2l84 338h124l90 -347h2l43 223h-46z" />
    <glyph glyph-name="x" unicode="x" horiz-adv-x="607" 
d="M375 376v124h210v-124h-33l-137 -131l130 -121h50v-124h-291v124h35l-75 70l-71 -70h38v-124h-219v124h39l137 139l-123 113h-43v124h283v-124h-35l71 -67l67 67h-33z" />
    <glyph glyph-name="y" unicode="y" horiz-adv-x="578" 
d="M337 376v124h229v-124h-34l-161 -383q-85 -203 -230 -203q-46 0 -95 9l13 120q25 -5 49 -5q34 0 61.5 18.5t39.5 56.5l-157 387h-40v124h254v-124h-48l87 -242h2l76 242h-46z" />
    <glyph glyph-name="z" unicode="z" horiz-adv-x="470" 
d="M24 500h418v-115l-242 -268v-2h132v46h124v-161h-442v115l247 268v2h-114v-46h-123v161z" />
    <glyph glyph-name="braceleft" unicode="{" horiz-adv-x="340" 
d="M255 17q0 -34 4 -54t15 -28.5t20.5 -10.5t29.5 -2v-62q-45 0 -71.5 1.5t-60 9.5t-52 22.5t-31.5 43t-13 69.5q0 31 5 95.5t5 93.5q0 30 -1 43.5t-7.5 30t-21 24t-40.5 11.5v72q26 4 40.5 11.5t21 24t7.5 30t1 43.5q0 29 -5 93.5t-5 95.5q0 41 13 69t31.5 43t52 23
t60.5 9.5t71 1.5v-63q-20 0 -29 -1.5t-20.5 -10t-15.5 -29t-4 -54.5q0 -30 6.5 -101t6.5 -102q0 -54 -26.5 -79t-78.5 -39v-2q52 -14 78.5 -39t26.5 -79q0 -31 -6.5 -102.5t-6.5 -101.5z" />
    <glyph glyph-name="bar" unicode="|" horiz-adv-x="170" 
d="M134 -100h-98v880h98v-880z" />
    <glyph glyph-name="braceright" unicode="}" horiz-adv-x="340" 
d="M85 662q0 34 -4 54.5t-15.5 29t-20.5 10t-29 1.5v63q44 0 71 -1.5t60.5 -9.5t52 -23t31.5 -43t13 -69q0 -31 -5 -95.5t-5 -93.5q0 -30 1 -43.5t7.5 -30t21 -24t40.5 -11.5v-72q-26 -4 -40.5 -11.5t-21 -24t-7.5 -30t-1 -43.5q0 -29 5 -93.5t5 -95.5q0 -41 -13 -69.5
t-31.5 -43t-52.5 -22.5t-60.5 -9.5t-70.5 -1.5v62q20 0 29.5 2t20.5 10.5t15 28.5t4 54q0 30 -7 101.5t-7 102.5q0 54 27 79t79 39v2q-52 14 -79 39t-27 79q0 31 7 102t7 101z" />
    <glyph glyph-name="asciitilde" unicode="~" horiz-adv-x="460" 
d="M146 294q-30 0 -67 -39l-46 36q23 54 51.5 79.5t57.5 25.5q27 0 97.5 -20t85.5 -20q30 0 49 15q8 6 16 15l37 -45q-34 -71 -83 -81q-7 -2 -22 -2q-19 1 -88 18.5t-88 17.5z" />
    <glyph glyph-name="exclamdown" unicode="&#xa1;" horiz-adv-x="222" 
d="M186 347h-150v153h150v-153zM186 -200h-150l9 480h132z" />
    <glyph glyph-name="cent" unicode="&#xa2;" horiz-adv-x="510" 
d="M344 -100h-62v91q-114 4 -180 74t-66 185q0 114 66 184.5t180 74.5v91h62v-93q56 -4 133 -36l-17 -115q-70 25 -116 28v-269q48 3 116 29l17 -115q-73 -32 -133 -36v-93zM195 250q0 -57 23.5 -90.5t63.5 -42.5v265q-40 -8 -63.5 -42t-23.5 -90z" />
    <glyph glyph-name="sterling" unicode="&#xa3;" horiz-adv-x="580" 
d="M424 305h-208v-173h216v47h124v-179h-540v132h50v173h-50v71h50v119q0 100 67.5 147.5t177.5 47.5q117 0 245 -41v-177h-124v71q-62 14 -121 14q-95 0 -95 -73v-108h208v-71z" />
    <glyph glyph-name="currency" unicode="&#xa4;" horiz-adv-x="513" 
d="M100 249q0 68 48 114l-78 90l8 8l79 -90q44 36 100 36q55 0 99 -36l78 90l9 -8l-78 -89q50 -47 50 -115t-49 -114l76 -86l-9 -9l-77 87q-43 -35 -99 -35q-57 0 -100 35l-76 -87l-9 9l76 86q-48 46 -48 114zM112 249q0 -59 43 -102t102 -43t102.5 43t43.5 102t-43.5 102.5
t-102.5 43.5t-102 -43.5t-43 -102.5z" />
    <glyph glyph-name="yen" unicode="&#xa5;" horiz-adv-x="660" 
d="M409 124h54v-124h-266v124h54v76h-155v71h119l-151 285h-52v124h296v-124h-58l92 -187h2l91 187h-56v124h268v-124h-52l-151 -285h120v-71h-155v-76z" />
    <glyph glyph-name="brokenbar" unicode="&#xa6;" horiz-adv-x="170" 
d="M134 380h-98v400h98v-400zM134 -100h-98v400h98v-400z" />
    <glyph glyph-name="section" unicode="&#xa7;" horiz-adv-x="600" 
d="M564 355q0 -103 -77 -159q68 -59 68 -151q0 -99 -71 -147t-183 -48q-141 0 -245 67l62 124q100 -50 183 -50q86 0 86 54q0 12 -5.5 22.5t-19.5 18.5l-24 13.5t-32.5 12.5t-31 9l-32.5 8q-98 23 -151.5 72t-53.5 134q0 103 77 159q-68 57 -68 151q0 99 71 147t183 48
q142 0 245 -68l-62 -123q-100 50 -183 50q-86 0 -86 -54q0 -12 5.5 -22.5t19.5 -18.5l24 -13.5t32.5 -12.5t31 -9l32.5 -8q205 -49 205 -206zM262 423q-16 -4 -24 -7q-33 -26 -33 -72q0 -45 91 -68q29 -6 56 -15q44 30 44 85q0 16 -10 28.5t-31.5 21.5t-37 13.5t-42.5 10.5
q-9 2 -13 3z" />
    <glyph glyph-name="dieresis" unicode="&#xa8;" horiz-adv-x="480" 
d="M56 700h133v-135h-133v135zM291 700h133v-135h-133v135z" />
    <glyph glyph-name="copyright" unicode="&#xa9;" horiz-adv-x="765" 
d="M30 340q0 146 103 248t249 102q147 0 250 -102t103 -248t-103 -248t-250 -102q-146 0 -249 102t-103 248zM97 340q0 -119 83.5 -203.5t201.5 -84.5t202 84.5t84 203.5q0 117 -84 200t-202 83q-119 0 -202 -82.5t-83 -200.5zM393 438q-87 0 -87 -94q0 -104 87 -104
q50 0 95 30l32 -66q-57 -42 -133 -42q-82 0 -129.5 47.5t-47.5 134.5q0 83 47.5 127.5t129.5 44.5q76 0 133 -42l-32 -67q-46 31 -95 31z" />
    <glyph glyph-name="ordfeminine" unicode="&#xaa;" horiz-adv-x="277" 
d="M92 598h-64v74q60 13 108 13q53 0 78 -18t25 -66v-106h26v-65h-105v25h-1q-24 -25 -51 -28q-14 -2 -22 -2q-28 1 -46.5 16.5t-23.5 39.5q-3 12 -3 25q1 42 32.5 59.5t71.5 17.5h43v13q0 15 -10 19.5t-32 4.5q-16 0 -26 -1v-21zM160 497v40h-29q-20 0 -30 -5t-10 -22
q0 -13 9 -19.5t21 -6.5q24 0 39 13z" />
    <glyph glyph-name="guillemotleft" unicode="&#xab;" horiz-adv-x="730" 
d="M36 294l308 201v-159l-149 -86l149 -86v-159l-308 201v88zM386 294l308 201v-159l-149 -86l149 -86v-159l-308 201v88z" />
    <glyph glyph-name="logicalnot" unicode="&#xac;" horiz-adv-x="590" 
d="M56 327h478v-226h-124v102h-354v124z" />
    <glyph glyph-name="uni00AD" unicode="&#xad;" horiz-adv-x="540" 
d="M56 327h428v-124h-428v124z" />
    <glyph glyph-name="registered" unicode="&#xae;" horiz-adv-x="765" 
d="M548 168h-110l-63 100h-41v-100h-89v344h145q67 0 105.5 -31.5t38.5 -89.5q0 -82 -66 -108zM334 433v-86h56q52 0 52 44q0 42 -52 42h-56zM30 340q0 146 103 248t249 102q147 0 250 -102t103 -248t-103 -248t-250 -102q-146 0 -249 102t-103 248zM97 340
q0 -119 83.5 -203.5t201.5 -84.5t202 84.5t84 203.5q0 117 -84 200t-202 83q-119 0 -202 -82.5t-83 -200.5z" />
    <glyph glyph-name="macron" unicode="&#xaf;" horiz-adv-x="380" 
d="M54 672h272v-106h-272v106z" />
    <glyph glyph-name="degree" unicode="&#xb0;" horiz-adv-x="260" 
d="M32 580q0 40 29 69t69 29t69 -29t29 -69t-29 -69t-69 -29t-69 29t-29 69zM87 580q0 -18 12.5 -30.5t30.5 -12.5t30.5 12.5t12.5 30.5t-12.5 30.5t-30.5 12.5t-30.5 -12.5t-12.5 -30.5z" />
    <glyph glyph-name="plusminus" unicode="&#xb1;" horiz-adv-x="500" 
d="M36 134h152v82h-152v124h152v152h124v-152h152v-124h-152v-82h152v-124h-428v124z" />
    <glyph glyph-name="twosuperior" unicode="&#xb2;" horiz-adv-x="275" 
d="M199 631h64v-91h-251v74q89 55 121.5 88.5t32.5 62.5q0 49 -54 49q-19 0 -35 -5v-21h-65v72q61 25 118 25q58 0 88 -29t30 -75q0 -49 -31.5 -88.5t-93.5 -82.5v-1h76v22z" />
    <glyph glyph-name="threesuperior" unicode="&#xb3;" horiz-adv-x="271" 
d="M12 560v72h65v-27q20 -5 49 -5q26 0 39 11.5t13 27.5q0 39 -57 39h-47v64h43q54 0 54 44q0 15 -11.5 24.5t-33.5 9.5t-46 -6v-26h-65v72q56 25 125 25q46 0 77.5 -23.5t31.5 -67.5q0 -52 -56 -75v-1q66 -19 66 -84q0 -47 -34 -73t-94 -26q-64 0 -119 25z" />
    <glyph glyph-name="acute" unicode="&#xb4;" horiz-adv-x="290" 
d="M231 700l-97 -140h-80l53 140h124z" />
    <glyph glyph-name="mu" unicode="&#xb5;" horiz-adv-x="590" 
d="M12 376v124h204v-306q0 -80 70 -80q37 0 88 29v233h-58v124h208v-376h53v-124h-203v62h-2q-35 -36 -77 -53q-44 -16 -79 -7v-29q0 -88 -33.5 -135t-124.5 -48q-21 0 -33 1q-46 5 -64 8l14 115q27 -5 42 -5q27 0 38 14.5t11 44.5v408h-54z" />
    <glyph glyph-name="paragraph" unicode="&#xb6;" horiz-adv-x="565" 
d="M384 1v625h-61v-331h-92q-90 0 -145.5 53.5t-55.5 139.5q0 89 55 140.5t146 51.5h298v-54h-82v-572h82v-54h-110v1h-35z" />
    <glyph glyph-name="periodcentered" unicode="&#xb7;" horiz-adv-x="222" 
d="M36 326h150v-152h-150v152z" />
    <glyph glyph-name="cedilla" unicode="&#xb8;" horiz-adv-x="294" 
d="M104 -79v79h54v-51q83 -13 83 -74q0 -37 -27.5 -58.5t-77.5 -21.5q-44 0 -84 12l9 47q20 -5 45 -5q21 0 32.5 9.5t11.5 24.5q0 29 -46 38z" />
    <glyph glyph-name="onesuperior" unicode="&#xb9;" horiz-adv-x="207" 
d="M143 605h51v-65h-181v65h52v202l-52 -1v55l93 22h37v-278z" />
    <glyph glyph-name="ordmasculine" unicode="&#xba;" horiz-adv-x="276" 
d="M138 620q-24 0 -33.5 -16t-9.5 -49t9.5 -49t33.5 -16t33.5 16t9.5 49t-9.5 49t-33.5 16zM138 425q-126 0 -126 130t126 130q125 0 125 -130t-125 -130z" />
    <glyph glyph-name="guillemotright" unicode="&#xbb;" horiz-adv-x="730" 
d="M36 495l308 -201v-88l-308 -201v159l149 86l-149 86v159zM386 495l308 -201v-88l-308 -201v159l149 86l-149 86v159z" />
    <glyph glyph-name="onequarter" unicode="&#xbc;" horiz-adv-x="800" 
d="M626 680l-370 -680h-45l370 680h45zM193 405h51v-65h-181v65h52v202l-52 -1v55l93 22h37v-278zM547 156h71v103h-1q-33 -57 -70 -103zM618 65v26h-151v65q35 38 52.5 59t40.5 55.5t40 72.5h96v-187h41v-65h-41v-26h26v-65h-130v65h26z" />
    <glyph glyph-name="onehalf" unicode="&#xbd;" horiz-adv-x="800" 
d="M589 680l-370 -680h-45l370 680h45zM193 405h51v-65h-181v65h52v202l-52 -1v55l93 22h37v-278zM674 91h63v-91h-250v74q89 55 121.5 88.5t32.5 62.5q0 49 -54 49q-19 0 -35 -5v-21h-65v72q61 25 118 25q58 0 88 -29t30 -75q0 -49 -31.5 -88.5t-93.5 -82.5v-1h76v22z" />
    <glyph glyph-name="threequarters" unicode="&#xbe;" horiz-adv-x="800" 
d="M636 680l-370 -680h-45l370 680h45zM62 360v72h65v-27q20 -5 49 -5q26 0 39 11.5t13 27.5q0 39 -57 39h-47v64h43q54 0 54 44q0 15 -11.5 24.5t-33.5 9.5t-46 -6v-26h-65v72q56 25 125 25q46 0 77.5 -23.5t31.5 -67.5q0 -52 -56 -75v-1q66 -19 66 -84q0 -47 -34 -73
t-94 -26q-64 0 -119 25zM547 156h71v103h-1q-33 -57 -70 -103zM618 65v26h-151v65q35 38 52.5 59t40.5 55.5t40 72.5h96v-187h41v-65h-41v-26h26v-65h-130v65h26z" />
    <glyph glyph-name="questiondown" unicode="&#xbf;" horiz-adv-x="500" 
d="M464 27v-177q-94 -40 -218 -40q-60 0 -104 17.5t-65.5 46.5t-31 59t-9.5 63q0 46 17 81.5t41.5 57.5t49 40.5t41.5 39.5t17 45v30h133v-30q0 -46 -15 -80.5t-36 -55t-42 -37t-36 -35t-15 -40.5q0 -61 86 -61q25 0 63 9v67h124zM344 347h-150v153h150v-153z" />
    <glyph glyph-name="Agrave" unicode="&#xc0;" horiz-adv-x="700" 
d="M296 730l-97 140h124l53 -140h-80zM147 680h314l172 -556h54v-124h-283v124h56l-22 82h-183l-26 -82h58v-124h-275v124h63l137 432h-65v124zM352 539h-1l-64 -218h124z" />
    <glyph glyph-name="Aacute" unicode="&#xc1;" horiz-adv-x="700" 
d="M498 870l-97 -140h-80l53 140h124zM147 680h314l172 -556h54v-124h-283v124h56l-22 82h-183l-26 -82h58v-124h-275v124h63l137 432h-65v124zM352 539h-1l-64 -218h124z" />
    <glyph glyph-name="Acircumflex" unicode="&#xc2;" horiz-adv-x="700" 
d="M343 788l-74 -58h-80l109 140h90l109 -140h-80zM147 680h314l172 -556h54v-124h-283v124h56l-22 82h-183l-26 -82h58v-124h-275v124h63l137 432h-65v124zM352 539h-1l-64 -218h124z" />
    <glyph glyph-name="Atilde" unicode="&#xc3;" horiz-adv-x="700" 
d="M284 764q-30 0 -67 -39l-46 36q23 54 51.5 79.5t57.5 25.5q27 0 72.5 -20t60.5 -20h3q35 0 62 30l37 -45q-34 -71 -83 -81q-7 -2 -22 -2q-18 1 -62.5 18.5t-63.5 17.5zM147 680h314l172 -556h54v-124h-283v124h56l-22 82h-183l-26 -82h58v-124h-275v124h63l137 432h-65
v124zM352 539h-1l-64 -218h124z" />
    <glyph glyph-name="Adieresis" unicode="&#xc4;" horiz-adv-x="700" 
d="M165 870h133v-135h-133v135zM400 870h133v-135h-133v135zM147 680h314l172 -556h54v-124h-283v124h56l-22 82h-183l-26 -82h58v-124h-275v124h63l137 432h-65v124zM352 539h-1l-64 -218h124z" />
    <glyph glyph-name="Aring" unicode="&#xc5;" horiz-adv-x="700" 
d="M245 820q0 40 28.5 69t69.5 29t69.5 -29t28.5 -69t-28.5 -69t-69.5 -29t-69.5 29t-28.5 69zM300 820q0 -18 12.5 -30.5t30.5 -12.5t30.5 12.5t12.5 30.5t-12.5 30.5t-30.5 12.5t-30.5 -12.5t-12.5 -30.5zM147 680h314l172 -556h54v-124h-283v124h56l-22 82h-183l-26 -82
h58v-124h-275v124h63l137 432h-65v124zM352 539h-1l-64 -218h124z" />
    <glyph glyph-name="AE" unicode="&#xc6;" horiz-adv-x="916" 
d="M277 556h-66v124h679v-179h-124v55h-195v-144h269v-123h-269v-165h195v55h124v-179h-478v162h-167l-55 -121h11l-15 -41h-176v124h62zM410 538l-112 -252h114v252h-2z" />
    <glyph glyph-name="Ccedilla" unicode="&#xc7;" horiz-adv-x="610" 
d="M309 -79v70q-283 14 -283 354q0 77 14.5 136.5t48.5 108t96 74.5t150 26q121 0 250 -39v-170h-124v74q-59 11 -113 11q-154 0 -154 -221q0 -231 154 -231q60 0 113 11v74h124v-170q-116 -35 -222 -38v-42q83 -13 83 -74q0 -37 -28 -58.5t-77 -21.5q-43 0 -84 12l8 47
q20 -5 46 -5q43 0 43 34q0 30 -45 38z" />
    <glyph glyph-name="Egrave" unicode="&#xc8;" horiz-adv-x="570" 
d="M279 730l-97 140h124l53 -140h-80zM12 680h532v-179h-124v55h-195v-144h269v-123h-269v-165h195v55h124v-179h-532v124h54v432h-54v124z" />
    <glyph glyph-name="Eacute" unicode="&#xc9;" horiz-adv-x="570" 
d="M427 870l-97 -140h-80l53 140h124zM12 680h532v-179h-124v55h-195v-144h269v-123h-269v-165h195v55h124v-179h-532v124h54v432h-54v124z" />
    <glyph glyph-name="Ecircumflex" unicode="&#xca;" horiz-adv-x="570" 
d="M313 788l-74 -58h-80l109 140h90l109 -140h-80zM12 680h532v-179h-124v55h-195v-144h269v-123h-269v-165h195v55h124v-179h-532v124h54v432h-54v124z" />
    <glyph glyph-name="Edieresis" unicode="&#xcb;" horiz-adv-x="570" 
d="M116 870h133v-135h-133v135zM351 870h133v-135h-133v135zM12 680h532v-179h-124v55h-195v-144h269v-123h-269v-165h195v55h124v-179h-532v124h54v432h-54v124z" />
    <glyph glyph-name="Igrave" unicode="&#xcc;" horiz-adv-x="291" 
d="M114 730l-97 140h124l53 -140h-80zM12 124h54v432h-54v124h267v-124h-54v-432h54v-124h-267v124z" />
    <glyph glyph-name="Iacute" unicode="&#xcd;" horiz-adv-x="291" 
d="M273 870l-97 -140h-80l53 140h124zM12 124h54v432h-54v124h267v-124h-54v-432h54v-124h-267v124z" />
    <glyph glyph-name="Icircumflex" unicode="&#xce;" horiz-adv-x="291" 
d="M146 788l-74 -58h-80l109 140h90l109 -140h-80zM12 124h54v432h-54v124h267v-124h-54v-432h54v-124h-267v124z" />
    <glyph glyph-name="Idieresis" unicode="&#xcf;" horiz-adv-x="291" 
d="M-38 870h133v-135h-133v135zM197 870h133v-135h-133v135zM12 124h54v432h-54v124h267v-124h-54v-432h54v-124h-267v124z" />
    <glyph glyph-name="Eth" unicode="&#xd0;" horiz-adv-x="660" 
d="M12 680h314q87 0 148.5 -24.5t95.5 -71t49 -104.5t15 -135t-15 -136.5t-49 -108t-95.5 -74.5t-148.5 -26h-314v124h54v177h-54v88h54v167h-54v124zM225 124h101q81 0 110.5 56t29.5 165q0 107 -29 159t-111 52h-101v-167h101v-88h-101v-177z" />
    <glyph glyph-name="Ntilde" unicode="&#xd1;" horiz-adv-x="690" 
d="M295 764q-30 0 -67 -39l-46 36q23 54 51.5 79.5t57.5 25.5q27 0 72.5 -20t60.5 -20q30 0 49 15q8 6 16 15l37 -45q-34 -71 -83 -81q-7 -2 -22 -2q-18 1 -62.5 18.5t-63.5 17.5zM420 680h257v-124h-53v-556h-163l-247 393h-2v-269h58v-124h-258v124h54v432h-54v124h209
l255 -415h2v291h-58v124z" />
    <glyph glyph-name="Ograve" unicode="&#xd2;" horiz-adv-x="670" 
d="M315 730l-97 140h124l53 -140h-80zM335 566q-43 0 -72 -15.5t-43.5 -47t-20 -68.5t-5.5 -90t5.5 -91.5t20 -72t43.5 -50.5t72 -17t72 17t43.5 50.5t20 72t5.5 91.5t-5.5 90t-20 68.5t-43.5 47t-72 15.5zM335 -10q-309 0 -309 355q0 77 14.5 136.5t48.5 108t96 74.5
t150 26t150 -26t96 -74.5t48.5 -108t14.5 -136.5q0 -355 -309 -355z" />
    <glyph glyph-name="Oacute" unicode="&#xd3;" horiz-adv-x="670" 
d="M468 870l-97 -140h-80l53 140h124zM335 566q-43 0 -72 -15.5t-43.5 -47t-20 -68.5t-5.5 -90t5.5 -91.5t20 -72t43.5 -50.5t72 -17t72 17t43.5 50.5t20 72t5.5 91.5t-5.5 90t-20 68.5t-43.5 47t-72 15.5zM335 -10q-309 0 -309 355q0 77 14.5 136.5t48.5 108t96 74.5
t150 26t150 -26t96 -74.5t48.5 -108t14.5 -136.5q0 -355 -309 -355z" />
    <glyph glyph-name="Ocircumflex" unicode="&#xd4;" horiz-adv-x="670" 
d="M336 788l-74 -58h-80l109 140h90l109 -140h-80zM335 566q-43 0 -72 -15.5t-43.5 -47t-20 -68.5t-5.5 -90t5.5 -91.5t20 -72t43.5 -50.5t72 -17t72 17t43.5 50.5t20 72t5.5 91.5t-5.5 90t-20 68.5t-43.5 47t-72 15.5zM335 -10q-309 0 -309 355q0 77 14.5 136.5t48.5 108
t96 74.5t150 26t150 -26t96 -74.5t48.5 -108t14.5 -136.5q0 -355 -309 -355z" />
    <glyph glyph-name="Otilde" unicode="&#xd5;" horiz-adv-x="670" 
d="M275 764q-30 0 -67 -39l-46 36q23 54 51.5 79.5t57.5 25.5q27 0 72.5 -20t60.5 -20q30 0 49 15q8 6 16 15l37 -45q-34 -71 -83 -81q-7 -2 -22 -2q-18 1 -62.5 18.5t-63.5 17.5zM335 566q-43 0 -72 -15.5t-43.5 -47t-20 -68.5t-5.5 -90t5.5 -91.5t20 -72t43.5 -50.5
t72 -17t72 17t43.5 50.5t20 72t5.5 91.5t-5.5 90t-20 68.5t-43.5 47t-72 15.5zM335 -10q-309 0 -309 355q0 77 14.5 136.5t48.5 108t96 74.5t150 26t150 -26t96 -74.5t48.5 -108t14.5 -136.5q0 -355 -309 -355z" />
    <glyph glyph-name="Odieresis" unicode="&#xd6;" horiz-adv-x="670" 
d="M155 870h133v-135h-133v135zM390 870h133v-135h-133v135zM335 566q-43 0 -72 -15.5t-43.5 -47t-20 -68.5t-5.5 -90t5.5 -91.5t20 -72t43.5 -50.5t72 -17t72 17t43.5 50.5t20 72t5.5 91.5t-5.5 90t-20 68.5t-43.5 47t-72 15.5zM335 -10q-309 0 -309 355q0 77 14.5 136.5
t48.5 108t96 74.5t150 26t150 -26t96 -74.5t48.5 -108t14.5 -136.5q0 -355 -309 -355z" />
    <glyph glyph-name="multiply" unicode="&#xd7;" horiz-adv-x="526" 
d="M486 400l-136 -135l136 -135l-88 -88l-135 135l-135 -135l-88 88l135 135l-135 135l88 88l135 -136l135 136z" />
    <glyph glyph-name="Oslash" unicode="&#xd8;" horiz-adv-x="670" 
d="M335 -10q-124 0 -200 58l-68 -86l-45 36l72 90q-68 87 -68 257q0 77 14.5 136.5t48.5 108t96 74.5t150 26q119 0 194 -52l73 92l45 -36l-75 -94q72 -86 72 -255q0 -355 -309 -355zM335 122q43 0 72 16t43.5 47.5t20 69t5.5 90.5q0 76 -14 117l-232 -294q32 -46 105 -46z
M335 557q-83 0 -112 -52t-29 -160q0 -76 11 -116l231 291q-32 37 -101 37z" />
    <glyph glyph-name="Ugrave" unicode="&#xd9;" horiz-adv-x="680" 
d="M300 730l-97 140h124l53 -140h-80zM401 680h266v-124h-53v-316q0 -129 -73 -189.5t-201 -60.5t-201 60.5t-73 189.5v316h-54v124h267v-124h-54v-316q0 -126 116 -126q114 0 114 126v316h-54v124z" />
    <glyph glyph-name="Uacute" unicode="&#xda;" horiz-adv-x="680" 
d="M474 870l-97 -140h-80l53 140h124zM401 680h266v-124h-53v-316q0 -129 -73 -189.5t-201 -60.5t-201 60.5t-73 189.5v316h-54v124h267v-124h-54v-316q0 -126 116 -126q114 0 114 126v316h-54v124z" />
    <glyph glyph-name="Ucircumflex" unicode="&#xdb;" horiz-adv-x="680" 
d="M341 788l-74 -58h-80l109 140h90l109 -140h-80zM401 680h266v-124h-53v-316q0 -129 -73 -189.5t-201 -60.5t-201 60.5t-73 189.5v316h-54v124h267v-124h-54v-316q0 -126 116 -126q114 0 114 126v316h-54v124z" />
    <glyph glyph-name="Udieresis" unicode="&#xdc;" horiz-adv-x="680" 
d="M155 870h133v-135h-133v135zM390 870h133v-135h-133v135zM401 680h266v-124h-53v-316q0 -129 -73 -189.5t-201 -60.5t-201 60.5t-73 189.5v316h-54v124h267v-124h-54v-316q0 -126 116 -126q114 0 114 126v316h-54v124z" />
    <glyph glyph-name="Yacute" unicode="&#xdd;" horiz-adv-x="660" 
d="M484 870l-97 -140h-80l53 140h124zM409 124h54v-124h-266v124h54v81l-178 351h-61v124h296v-124h-67l101 -205h2l100 205h-65v124h268v-124h-52l-186 -351v-81z" />
    <glyph glyph-name="Thorn" unicode="&#xde;" horiz-adv-x="620" 
d="M225 559h136q110 0 171.5 -57.5t61.5 -161.5t-61.5 -161.5t-171.5 -57.5h-136v-121h-213v124h54v432h-54v124h213v-121zM225 435v-190h119q38 0 62.5 24t24.5 71q0 46 -24.5 70.5t-62.5 24.5h-119z" />
    <glyph glyph-name="germandbls" unicode="&#xdf;" horiz-adv-x="645" 
d="M76 124v270h-64v97l64 9q0 57 20 97.5t56 62t77 31t91 9.5q224 0 224 -150q0 -35 -18 -65t-39 -46.5t-39 -35.5t-18 -35q0 -17 10 -27t32 -18q87 -33 119.5 -74.5t32.5 -93.5q0 -85 -63.5 -125t-156.5 -40q-66 0 -129 20l18 115q61 -20 107 -20q33 0 49 14t16 35
q0 16 -11.5 30.5t-24 22t-34 18.5t-27.5 15q-46 27 -62.5 48t-16.5 63q0 34 20.5 63.5t40.5 55.5t20 54q0 57 -63 57q-81 0 -81 -110v-471h-204v124h54z" />
    <glyph glyph-name="agrave" unicode="&#xe0;" horiz-adv-x="535" 
d="M176 339h-124v147q117 24 213 24q106 0 155 -35.5t49 -133.5v-217h53v-124h-203v50h-2q-61 -65 -150 -59q-66 1 -105.5 43.5t-39.5 110.5q0 47 20 80.5t53 50t66 23t70 6.5h88v27q0 32 -21.5 43t-67.5 11q-26 0 -54 -4v-43zM319 131v85h-64q-41 0 -62.5 -11t-21.5 -45
q0 -27 19 -41t45 -14q50 0 84 26zM240 560l-97 140h124l53 -140h-80z" />
    <glyph glyph-name="aacute" unicode="&#xe1;" horiz-adv-x="535" 
d="M176 339h-124v147q117 24 213 24q106 0 155 -35.5t49 -133.5v-217h53v-124h-203v50h-2q-61 -65 -150 -59q-66 1 -105.5 43.5t-39.5 110.5q0 47 20 80.5t53 50t66 23t70 6.5h88v27q0 32 -21.5 43t-67.5 11q-26 0 -54 -4v-43zM319 131v85h-64q-41 0 -62.5 -11t-21.5 -45
q0 -27 19 -41t45 -14q50 0 84 26zM397 700l-97 -140h-80l53 140h124z" />
    <glyph glyph-name="acircumflex" unicode="&#xe2;" horiz-adv-x="535" 
d="M176 339h-124v147q117 24 213 24q106 0 155 -35.5t49 -133.5v-217h53v-124h-203v50h-2q-61 -65 -150 -59q-66 1 -105.5 43.5t-39.5 110.5q0 47 20 80.5t53 50t66 23t70 6.5h88v27q0 32 -21.5 43t-67.5 11q-26 0 -54 -4v-43zM319 131v85h-64q-41 0 -62.5 -11t-21.5 -45
q0 -27 19 -41t45 -14q50 0 84 26zM270 618l-74 -58h-80l109 140h90l109 -140h-80z" />
    <glyph glyph-name="atilde" unicode="&#xe3;" horiz-adv-x="535" 
d="M176 339h-124v147q117 24 213 24q106 0 155 -35.5t49 -133.5v-217h53v-124h-203v50h-2q-61 -65 -150 -59q-66 1 -105.5 43.5t-39.5 110.5q0 47 20 80.5t53 50t66 23t70 6.5h88v27q0 32 -21.5 43t-67.5 11q-26 0 -54 -4v-43zM319 131v85h-64q-41 0 -62.5 -11t-21.5 -45
q0 -27 19 -41t45 -14q50 0 84 26zM207 594q-30 0 -67 -39l-46 36q23 54 51.5 79.5t57.5 25.5q27 0 72.5 -20t60.5 -20q30 0 49 15q8 6 16 15l37 -45q-34 -71 -83 -81q-7 -2 -22 -2q-18 1 -62.5 18.5t-63.5 17.5z" />
    <glyph glyph-name="adieresis" unicode="&#xe4;" horiz-adv-x="535" 
d="M176 339h-124v147q117 24 213 24q106 0 155 -35.5t49 -133.5v-217h53v-124h-203v50h-2q-61 -65 -150 -59q-66 1 -105.5 43.5t-39.5 110.5q0 47 20 80.5t53 50t66 23t70 6.5h88v27q0 32 -21.5 43t-67.5 11q-26 0 -54 -4v-43zM319 131v85h-64q-41 0 -62.5 -11t-21.5 -45
q0 -27 19 -41t45 -14q50 0 84 26zM85 700h133v-135h-133v135zM320 700h133v-135h-133v135z" />
    <glyph glyph-name="aring" unicode="&#xe5;" horiz-adv-x="535" 
d="M176 339h-124v147q117 24 213 24q106 0 155 -35.5t49 -133.5v-217h53v-124h-203v50h-2q-61 -65 -150 -59q-66 1 -105.5 43.5t-39.5 110.5q0 47 20 80.5t53 50t66 23t70 6.5h88v27q0 32 -21.5 43t-67.5 11q-26 0 -54 -4v-43zM319 131v85h-64q-41 0 -62.5 -11t-21.5 -45
q0 -27 19 -41t45 -14q50 0 84 26zM172 650q0 40 29 69t69 29t69 -29t29 -69t-29 -69t-69 -29t-69 29t-29 69zM227 650q0 -18 12.5 -30.5t30.5 -12.5t30.5 12.5t12.5 30.5t-12.5 30.5t-30.5 12.5t-30.5 -12.5t-12.5 -30.5z" />
    <glyph glyph-name="ae" unicode="&#xe6;" horiz-adv-x="822" 
d="M230 386q-26 0 -54 -4v-43h-124v147q120 24 203 24q110 0 164 -48q59 48 163 48q63 0 107.5 -16t67 -43.5t34.5 -65t10 -80.5t-7 -89h-312q3 -48 34.5 -75t89.5 -27q88 0 155 20l18 -120q-86 -24 -195 -24q-162 0 -224 92q-47 -53 -91 -72.5t-95 -19.5q-72 0 -112.5 44.5
t-40.5 112.5q0 45 20 78t53 49.5t67 23.5t71 7h87v19q0 38 -19.5 50t-69.5 12zM235 105q52 0 88 29q-4 35 -4 82h-79q-69 0 -69 -56q0 -27 19 -41t45 -14zM574 395q-84 0 -92 -86h164q14 86 -72 86z" />
    <glyph glyph-name="ccedilla" unicode="&#xe7;" horiz-adv-x="482" 
d="M185 250q0 -136 105 -136q67 0 151 20l26 -120q-88 -23 -170 -24v-41q83 -13 83 -74q0 -37 -27.5 -58.5t-77.5 -21.5q-44 0 -83 12l8 47q20 -5 45 -5q21 0 32.5 9.5t11.5 24.5q0 34 -46 38v72q-116 9 -166.5 75t-50.5 182q0 127 61 193.5t203 66.5q81 0 177 -24v-147
h-123v44q-21 3 -54 3q-105 0 -105 -136z" />
    <glyph glyph-name="egrave" unicode="&#xe8;" horiz-adv-x="530" 
d="M502 216h-317q3 -47 36.5 -74.5t91.5 -27.5q88 0 155 20l18 -120q-86 -24 -195 -24q-141 0 -203 67t-62 193t62 193t202 67q63 0 107.5 -16t67 -43.5t34.5 -65t10 -80.5t-7 -89zM281 395q-88 0 -96 -86h169q13 86 -73 86zM250 560l-97 140h124l53 -140h-80z" />
    <glyph glyph-name="eacute" unicode="&#xe9;" horiz-adv-x="530" 
d="M502 216h-317q3 -47 36.5 -74.5t91.5 -27.5q88 0 155 20l18 -120q-86 -24 -195 -24q-141 0 -203 67t-62 193t62 193t202 67q63 0 107.5 -16t67 -43.5t34.5 -65t10 -80.5t-7 -89zM281 395q-88 0 -96 -86h169q13 86 -73 86zM437 700l-97 -140h-80l53 140h124z" />
    <glyph glyph-name="ecircumflex" unicode="&#xea;" horiz-adv-x="530" 
d="M502 216h-317q3 -47 36.5 -74.5t91.5 -27.5q88 0 155 20l18 -120q-86 -24 -195 -24q-141 0 -203 67t-62 193t62 193t202 67q63 0 107.5 -16t67 -43.5t34.5 -65t10 -80.5t-7 -89zM281 395q-88 0 -96 -86h169q13 86 -73 86zM289 618l-74 -58h-80l109 140h90l109 -140h-80z
" />
    <glyph glyph-name="edieresis" unicode="&#xeb;" horiz-adv-x="530" 
d="M502 216h-317q3 -47 36.5 -74.5t91.5 -27.5q88 0 155 20l18 -120q-86 -24 -195 -24q-141 0 -203 67t-62 193t62 193t202 67q63 0 107.5 -16t67 -43.5t34.5 -65t10 -80.5t-7 -89zM281 395q-88 0 -96 -86h169q13 86 -73 86zM100 700h133v-135h-133v135zM335 700h133v-135
h-133v135z" />
    <glyph glyph-name="igrave" unicode="&#xec;" horiz-adv-x="282" 
d="M12 376v124h204v-376h54v-124h-258v124h54v252h-54zM79 560l-97 140h124l53 -140h-80z" />
    <glyph glyph-name="iacute" unicode="&#xed;" horiz-adv-x="282" 
d="M12 376v124h204v-376h54v-124h-258v124h54v252h-54zM280 700l-97 -140h-80l53 140h124z" />
    <glyph glyph-name="icircumflex" unicode="&#xee;" horiz-adv-x="282" 
d="M124 618l-74 -58h-80l109 140h90l109 -140h-80zM12 376v124h204v-376h54v-124h-258v124h54v252h-54z" />
    <glyph glyph-name="idieresis" unicode="&#xef;" horiz-adv-x="282" 
d="M13 376v124h204v-376h54v-124h-258v124h54v252h-54zM-52 700h133v-135h-133v135zM183 700h133v-135h-133v135z" />
    <glyph glyph-name="eth" unicode="&#xf0;" horiz-adv-x="550" 
d="M370 656l72 72l50 -50l-64 -63q96 -96 96 -315q0 -132 -64.5 -221t-192.5 -89q-108 0 -174.5 62t-66.5 168q0 112 56 173.5t154 61.5q81 0 136 -62l2 1q0 81 -41 125l-48 -49l-50 51l33 33q-33 12 -60 12q-68 0 -143 -29l-18 115q90 38 174 38q87 0 149 -34zM361 284
q-41 41 -85 41q-50 0 -70.5 -31t-20.5 -74q0 -50 25 -78t64 -28t61 26.5t26.5 62.5t-0.5 81z" />
    <glyph glyph-name="ntilde" unicode="&#xf1;" horiz-adv-x="590" 
d="M329 0v124h45v182q0 80 -70 80q-37 0 -88 -29v-233h45v-124h-249v124h54v252h-54v124h204v-63h2q65 73 156 73q73 0 111.5 -45.5t38.5 -123.5v-217h53v-124h-248zM238 594q-30 0 -67 -39l-46 36q23 54 51.5 79.5t57.5 25.5q27 0 72.5 -20t60.5 -20q30 0 49 15q8 6 16 15
l37 -45q-34 -71 -83 -81q-7 -2 -22 -2q-18 1 -62.5 18.5t-63.5 17.5z" />
    <glyph glyph-name="ograve" unicode="&#xf2;" horiz-adv-x="550" 
d="M275 386q-50 0 -70 -33.5t-20 -102.5t20 -102.5t70 -33.5t70 33.5t20 102.5t-20 102.5t-70 33.5zM275 -10q-249 0 -249 260t249 260t249 -260t-249 -260zM244 560l-97 140h124l53 -140h-80z" />
    <glyph glyph-name="oacute" unicode="&#xf3;" horiz-adv-x="550" 
d="M275 386q-50 0 -70 -33.5t-20 -102.5t20 -102.5t70 -33.5t70 33.5t20 102.5t-20 102.5t-70 33.5zM275 -10q-249 0 -249 260t249 260t249 -260t-249 -260zM414 700l-97 -140h-80l53 140h124z" />
    <glyph glyph-name="ocircumflex" unicode="&#xf4;" horiz-adv-x="550" 
d="M275 386q-50 0 -70 -33.5t-20 -102.5t20 -102.5t70 -33.5t70 33.5t20 102.5t-20 102.5t-70 33.5zM275 -10q-249 0 -249 260t249 260t249 -260t-249 -260zM275 618l-74 -58h-80l109 140h90l109 -140h-80z" />
    <glyph glyph-name="otilde" unicode="&#xf5;" horiz-adv-x="550" 
d="M275 386q-50 0 -70 -33.5t-20 -102.5t20 -102.5t70 -33.5t70 33.5t20 102.5t-20 102.5t-70 33.5zM275 -10q-249 0 -249 260t249 260t249 -260t-249 -260zM216 594q-30 0 -67 -39l-46 36q23 54 51.5 79.5t57.5 25.5q27 0 72.5 -20t60.5 -20q30 0 49 15q8 6 16 15l37 -45
q-34 -71 -83 -81q-7 -2 -22 -2q-18 1 -62.5 18.5t-63.5 17.5z" />
    <glyph glyph-name="odieresis" unicode="&#xf6;" horiz-adv-x="550" 
d="M275 386q-50 0 -70 -33.5t-20 -102.5t20 -102.5t70 -33.5t70 33.5t20 102.5t-20 102.5t-70 33.5zM275 -10q-249 0 -249 260t249 260t249 -260t-249 -260zM91 700h133v-135h-133v135zM326 700h133v-135h-133v135z" />
    <glyph glyph-name="divide" unicode="&#xf7;" horiz-adv-x="500" 
d="M36 309h428v-88h-428v88zM184 165h132v-135h-132v135zM184 500h132v-135h-132v135z" />
    <glyph glyph-name="oslash" unicode="&#xf8;" horiz-adv-x="550" 
d="M275 -10q-92 0 -152 38l-56 -66l-45 36l57 67q-53 64 -53 185q0 260 249 260q92 0 151 -38l57 66l44 -36l-57 -67q54 -66 54 -185q0 -260 -249 -260zM275 114q50 0 70 33.5t20 102.5q0 32 -7 54l-144 -170q23 -20 61 -20zM275 386q-50 0 -70 -33.5t-20 -102.5
q0 -36 6 -54l144 169q-23 21 -60 21z" />
    <glyph glyph-name="ugrave" unicode="&#xf9;" horiz-adv-x="590" 
d="M12 376v124h204v-306q0 -80 70 -80q37 0 88 29v233h-58v124h208v-376h53v-124h-203v62h-2q-66 -72 -156 -72q-73 0 -111.5 45t-38.5 124v217h-54zM249 560l-97 140h124l53 -140h-80z" />
    <glyph glyph-name="uacute" unicode="&#xfa;" horiz-adv-x="590" 
d="M12 376v124h204v-306q0 -80 70 -80q37 0 88 29v233h-58v124h208v-376h53v-124h-203v62h-2q-66 -72 -156 -72q-73 0 -111.5 45t-38.5 124v217h-54zM431 700l-97 -140h-80l53 140h124z" />
    <glyph glyph-name="ucircumflex" unicode="&#xfb;" horiz-adv-x="590" 
d="M12 376v124h204v-306q0 -80 70 -80q37 0 88 29v233h-58v124h208v-376h53v-124h-203v62h-2q-66 -72 -156 -72q-73 0 -111.5 45t-38.5 124v217h-54zM293 618l-74 -58h-80l109 140h90l109 -140h-80z" />
    <glyph glyph-name="udieresis" unicode="&#xfc;" horiz-adv-x="590" 
d="M12 376v124h204v-306q0 -80 70 -80q37 0 88 29v233h-58v124h208v-376h53v-124h-203v62h-2q-66 -72 -156 -72q-73 0 -111.5 45t-38.5 124v217h-54zM108 700h133v-135h-133v135zM343 700h133v-135h-133v135z" />
    <glyph glyph-name="yacute" unicode="&#xfd;" horiz-adv-x="580" 
d="M337 376v124h229v-124h-34l-161 -383q-85 -203 -230 -203q-46 0 -95 9l13 120q25 -5 49 -5q34 0 61.5 18.5t39.5 56.5l-157 387h-40v124h254v-124h-48l87 -242h2l76 242h-46zM442 700l-97 -140h-80l53 140h124z" />
    <glyph glyph-name="thorn" unicode="&#xfe;" horiz-adv-x="560" 
d="M12 576v124h204v-250h2q23 27 59.5 43.5t74.5 16.5q182 0 182 -260q0 -75 -17.5 -131t-61.5 -92.5t-111 -36.5q-78 0 -126 56h-2v-122h54v-124h-258v124h54v652h-54zM375 250q0 136 -84 136q-40 0 -75 -25v-222q35 -25 75 -25q84 0 84 136z" />
    <glyph glyph-name="ydieresis" unicode="&#xff;" horiz-adv-x="580" 
d="M337 376v124h229v-124h-34l-161 -383q-85 -203 -230 -203q-46 0 -95 9l13 120q25 -5 49 -5q34 0 61.5 18.5t39.5 56.5l-157 387h-40v124h254v-124h-48l87 -242h2l76 242h-46zM119 700h133v-135h-133v135zM354 700h133v-135h-133v135z" />
    <glyph glyph-name="Amacron" unicode="&#x100;" horiz-adv-x="700" 
d="M206 842h272v-106h-272v106zM147 680h314l172 -556h54v-124h-283v124h56l-22 82h-183l-26 -82h58v-124h-275v124h63l137 432h-65v124zM352 539h-1l-64 -218h124z" />
    <glyph glyph-name="amacron" unicode="&#x101;" horiz-adv-x="535" 
d="M176 339h-124v147q117 24 213 24q106 0 155 -35.5t49 -133.5v-217h53v-124h-203v50h-2q-61 -65 -150 -59q-66 1 -105.5 43.5t-39.5 110.5q0 47 20 80.5t53 50t66 23t70 6.5h88v27q0 32 -21.5 43t-67.5 11q-26 0 -54 -4v-43zM319 131v85h-64q-41 0 -62.5 -11t-21.5 -45
q0 -27 19 -41t45 -14q50 0 84 26zM130 672h272v-106h-272v106z" />
    <glyph glyph-name="Abreve" unicode="&#x102;" horiz-adv-x="700" 
d="M343 819q68 0 91 61h59q-17 -146 -150 -146t-150 146h60q10 -29 34.5 -45t55.5 -16zM147 680h314l172 -556h54v-124h-283v124h56l-22 82h-183l-26 -82h58v-124h-275v124h63l137 432h-65v124zM352 539h-1l-64 -218h124z" />
    <glyph glyph-name="abreve" unicode="&#x103;" horiz-adv-x="535" 
d="M176 339h-124v147q117 24 213 24q106 0 155 -35.5t49 -133.5v-217h53v-124h-203v50h-2q-61 -65 -150 -59q-66 1 -105.5 43.5t-39.5 110.5q0 47 20 80.5t53 50t66 23t70 6.5h88v27q0 32 -21.5 43t-67.5 11q-26 0 -54 -4v-43zM319 131v85h-64q-41 0 -62.5 -11t-21.5 -45
q0 -27 19 -41t45 -14q50 0 84 26zM272 649q68 0 91 61h59q-17 -146 -150 -146t-150 146h60q10 -29 34.5 -45t55.5 -16z" />
    <glyph glyph-name="Aogonek" unicode="&#x104;" horiz-adv-x="700" 
d="M630 -140l4 -35q-37 -29 -97 -29q-48 0 -78 22.5t-30 58.5q0 69 86 123h-111v124h56l-22 82h-183l-26 -82h58v-124h-275v124h63l137 432h-65v124h314l172 -556h54v-124h-101q-57 -46 -57 -96q0 -25 16 -39t44 -14q16 0 41 9zM352 539h-1l-64 -218h124z" />
    <glyph glyph-name="aogonek" unicode="&#x105;" horiz-adv-x="535" 
d="M434 -140l4 -35q-37 -29 -97 -29q-48 0 -78 22.5t-30 58.5q0 70 86 123v50h-2q-56 -60 -143 -60q-72 0 -112.5 44.5t-40.5 112.5q0 37 13.5 65.5t34.5 45.5t50 28t56 15t56 4h88v27q0 32 -21.5 43t-67.5 11q-26 0 -54 -4v-43h-124v147q117 24 213 24q106 0 155 -35.5
t49 -133.5v-217h53v-124h-132q-57 -46 -57 -96q0 -25 16 -39t44 -14q16 0 41 9zM319 131v85h-79q-69 0 -69 -56q0 -27 19 -41t45 -14q50 0 84 26z" />
    <glyph glyph-name="Cacute" unicode="&#x106;" horiz-adv-x="610" 
d="M476 870l-97 -140h-80l53 140h124zM461 199h124v-170q-129 -39 -250 -39q-309 0 -309 355q0 77 14.5 136.5t48.5 108t96 74.5t150 26q121 0 250 -39v-170h-124v74q-59 11 -113 11q-154 0 -154 -221q0 -231 154 -231q60 0 113 11v74z" />
    <glyph glyph-name="cacute" unicode="&#x107;" horiz-adv-x="482" 
d="M467 339h-123v44q-21 3 -54 3q-105 0 -105 -136t105 -136q67 0 151 20l26 -120q-96 -24 -177 -24q-142 0 -203 66.5t-61 193.5t61 193.5t203 66.5q81 0 177 -24v-147zM415 700l-97 -140h-80l53 140h124z" />
    <glyph glyph-name="Ccircumflex" unicode="&#x108;" horiz-adv-x="610" 
d="M356 788l-74 -58h-80l109 140h90l109 -140h-80zM461 199h124v-170q-129 -39 -250 -39q-309 0 -309 355q0 77 14.5 136.5t48.5 108t96 74.5t150 26q121 0 250 -39v-170h-124v74q-59 11 -113 11q-154 0 -154 -221q0 -231 154 -231q60 0 113 11v74z" />
    <glyph glyph-name="ccircumflex" unicode="&#x109;" horiz-adv-x="482" 
d="M467 339h-123v44q-21 3 -54 3q-105 0 -105 -136t105 -136q67 0 151 20l26 -120q-96 -24 -177 -24q-142 0 -203 66.5t-61 193.5t61 193.5t203 66.5q81 0 177 -24v-147zM276 618l-74 -58h-80l109 140h90l109 -140h-80z" />
    <glyph glyph-name="Cdotaccent" unicode="&#x10a;" horiz-adv-x="610" 
d="M280 870h133v-135h-133v135zM461 199h124v-170q-129 -39 -250 -39q-309 0 -309 355q0 77 14.5 136.5t48.5 108t96 74.5t150 26q121 0 250 -39v-170h-124v74q-59 11 -113 11q-154 0 -154 -221q0 -231 154 -231q60 0 113 11v74z" />
    <glyph glyph-name="cdotaccent" unicode="&#x10b;" horiz-adv-x="482" 
d="M467 339h-123v44q-21 3 -54 3q-105 0 -105 -136t105 -136q67 0 151 20l26 -120q-96 -24 -177 -24q-142 0 -203 66.5t-61 193.5t61 193.5t203 66.5q81 0 177 -24v-147zM214 700h133v-135h-133v135z" />
    <glyph glyph-name="Ccaron" unicode="&#x10c;" horiz-adv-x="610" 
d="M274 870l74 -58l74 58h80l-109 -140h-90l-109 140h80zM461 199h124v-170q-129 -39 -250 -39q-309 0 -309 355q0 77 14.5 136.5t48.5 108t96 74.5t150 26q121 0 250 -39v-170h-124v74q-59 11 -113 11q-154 0 -154 -221q0 -231 154 -231q60 0 113 11v74z" />
    <glyph glyph-name="ccaron" unicode="&#x10d;" horiz-adv-x="482" 
d="M467 339h-123v44q-21 3 -54 3q-105 0 -105 -136t105 -136q67 0 151 20l26 -120q-96 -24 -177 -24q-142 0 -203 66.5t-61 193.5t61 193.5t203 66.5q81 0 177 -24v-147zM215 700l74 -58l74 58h80l-109 -140h-90l-109 140h80z" />
    <glyph glyph-name="Dcaron" unicode="&#x10e;" horiz-adv-x="660" 
d="M238 870l74 -58l74 58h80l-109 -140h-90l-109 140h80zM12 680h314q87 0 148.5 -24.5t95.5 -71t49 -104.5t15 -135t-15 -136.5t-49 -108t-95.5 -74.5t-148.5 -26h-314v124h54v432h-54v124zM225 124h101q81 0 110.5 56t29.5 165q0 107 -29 159t-111 52h-101v-432z" />
    <glyph glyph-name="dcaron" unicode="&#x10f;" horiz-adv-x="560" 
d="M290 576v124h204v-576h53v-124h-203v50h-2q-23 -27 -60 -43.5t-75 -16.5q-181 0 -181 260q0 75 17.5 131t61.5 92.5t111 36.5q78 0 126 -56h2v122h-54zM185 250q0 -136 84 -136q40 0 75 25v222q-35 25 -75 25q-84 0 -84 -136zM605 605h-45l27 101h-61v124h150v-124z" />
    <glyph glyph-name="Dcroat" unicode="&#x110;" horiz-adv-x="660" 
d="M12 680h314q87 0 148.5 -24.5t95.5 -71t49 -104.5t15 -135t-15 -136.5t-49 -108t-95.5 -74.5t-148.5 -26h-314v124h54v177h-54v88h54v167h-54v124zM225 124h101q81 0 110.5 56t29.5 165q0 107 -29 159t-111 52h-101v-167h101v-88h-101v-177z" />
    <glyph glyph-name="dcroat" unicode="&#x111;" horiz-adv-x="560" 
d="M344 700h150v-66h52v-88h-52v-422h53v-124h-203v50h-2q-61 -60 -143 -60q-86 0 -129.5 73.5t-43.5 186.5q0 75 17.5 131t61.5 92.5t111 36.5q78 0 126 -56h2v92h-59v88h59v66zM185 250q0 -136 84 -136q40 0 75 25v222q-35 25 -75 25q-84 0 -84 -136z" />
    <glyph glyph-name="Emacron" unicode="&#x112;" horiz-adv-x="570" 
d="M160 842h272v-106h-272v106zM12 680h532v-179h-124v55h-195v-144h269v-123h-269v-165h195v55h124v-179h-532v124h54v432h-54v124z" />
    <glyph glyph-name="emacron" unicode="&#x113;" horiz-adv-x="530" 
d="M502 216h-317q3 -47 36.5 -74.5t91.5 -27.5q88 0 155 20l18 -120q-86 -24 -195 -24q-141 0 -203 67t-62 193t62 193t202 67q63 0 107.5 -16t67 -43.5t34.5 -65t10 -80.5t-7 -89zM281 395q-88 0 -96 -86h169q13 86 -73 86zM147 672h272v-106h-272v106z" />
    <glyph glyph-name="Ebreve" unicode="&#x114;" horiz-adv-x="570" 
d="M321 819q68 0 91 61h59q-17 -146 -150 -146t-150 146h60q10 -29 34.5 -45t55.5 -16zM12 680h532v-179h-124v55h-195v-144h269v-123h-269v-165h195v55h124v-179h-532v124h54v432h-54v124z" />
    <glyph glyph-name="ebreve" unicode="&#x115;" horiz-adv-x="530" 
d="M502 216h-317q3 -47 36.5 -74.5t91.5 -27.5q88 0 155 20l18 -120q-86 -24 -195 -24q-141 0 -203 67t-62 193t62 193t202 67q63 0 107.5 -16t67 -43.5t34.5 -65t10 -80.5t-7 -89zM281 395q-88 0 -96 -86h169q13 86 -73 86zM286 649q68 0 91 61h59q-17 -146 -150 -146
t-150 146h60q10 -29 34.5 -45t55.5 -16z" />
    <glyph glyph-name="Edotaccent" unicode="&#x116;" horiz-adv-x="570" 
d="M232 870h133v-135h-133v135zM12 680h532v-179h-124v55h-195v-144h269v-123h-269v-165h195v55h124v-179h-532v124h54v432h-54v124z" />
    <glyph glyph-name="edotaccent" unicode="&#x117;" horiz-adv-x="530" 
d="M502 216h-317q3 -47 36.5 -74.5t91.5 -27.5q88 0 155 20l18 -120q-86 -24 -195 -24q-141 0 -203 67t-62 193t62 193t202 67q63 0 107.5 -16t67 -43.5t34.5 -65t10 -80.5t-7 -89zM281 395q-88 0 -96 -86h169q13 86 -73 86zM216 700h133v-135h-133v135z" />
    <glyph glyph-name="Eogonek" unicode="&#x118;" horiz-adv-x="570" 
d="M12 680h532v-179h-124v55h-195v-144h269v-123h-269v-165h195v55h124v-179q-58 -47 -58 -96q0 -25 16 -39t44 -14q18 0 41 9l5 -35q-37 -29 -98 -29q-48 0 -78 23t-30 58q0 69 86 123h-460v124h54v432h-54v124z" />
    <glyph glyph-name="eogonek" unicode="&#x119;" horiz-adv-x="530" 
d="M529 -125l5 -35q-37 -29 -97 -29q-48 0 -78 22.5t-30 58.5q0 58 59 103q-41 -5 -97 -5q-141 0 -203 67t-62 193t62 193t202 67q63 0 107.5 -16t67 -43.5t34.5 -65t10 -80.5t-7 -89h-313q4 -48 35 -75t89 -27q88 0 155 20l18 -120q-57 -46 -57 -96q0 -53 59 -53
q19 0 41 10zM281 395q-83 0 -92 -86h165q13 86 -73 86z" />
    <glyph glyph-name="Ecaron" unicode="&#x11a;" horiz-adv-x="570" 
d="M231 870l74 -58l74 58h80l-109 -140h-90l-109 140h80zM12 680h532v-179h-124v55h-195v-144h269v-123h-269v-165h195v55h124v-179h-532v124h54v432h-54v124z" />
    <glyph glyph-name="ecaron" unicode="&#x11b;" horiz-adv-x="530" 
d="M502 216h-317q3 -47 36.5 -74.5t91.5 -27.5q88 0 155 20l18 -120q-86 -24 -195 -24q-141 0 -203 67t-62 193t62 193t202 67q63 0 107.5 -16t67 -43.5t34.5 -65t10 -80.5t-7 -89zM281 395q-88 0 -96 -86h169q13 86 -73 86zM208 700l74 -58l74 58h80l-109 -140h-90
l-109 140h80z" />
    <glyph glyph-name="Gcircumflex" unicode="&#x11c;" horiz-adv-x="620" 
d="M363 788l-74 -58h-80l109 140h90l109 -140h-80zM194 345q0 -223 154 -223q37 0 78 11v98h-92v124h251v-322q-136 -43 -250 -43q-309 0 -309 355q0 77 14.5 136.5t48.5 108t96 74.5t150 26q121 0 250 -39v-170h-124v74q-59 11 -113 11q-154 0 -154 -221z" />
    <glyph glyph-name="gcircumflex" unicode="&#x11d;" horiz-adv-x="555" 
d="M143 -54q0 -18 9.5 -29.5t28 -16.5t35.5 -6.5t42 -1.5q52 0 87.5 13t35.5 42q0 35 -51 40l-165 10q-22 -27 -22 -51zM265 273q69 0 69 67q0 68 -69 68q-70 0 -70 -68q0 -67 70 -67zM89 17v2q-32 21 -39 54t14 67.5t66 57.5v2q-37 19 -59 56.5t-22 83.5q0 85 58 127.5
t158 42.5q41 0 74 -10h190v-89h-72v-2q19 -23 19 -69q0 -85 -57.5 -127t-153.5 -42q-29 0 -59 9q-11 -16 -13.5 -28.5t3.5 -20.5t22 -9l160 -7q76 -3 118.5 -39.5t42.5 -99.5q0 -96 -74 -141t-230 -45q-115 0 -167.5 31.5t-52.5 98.5q0 61 74 97zM280 618l-74 -58h-80
l109 140h90l109 -140h-80z" />
    <glyph glyph-name="Gbreve" unicode="&#x11e;" horiz-adv-x="620" 
d="M352 819q68 0 91 61h59q-17 -146 -150 -146t-150 146h60q10 -29 34.5 -45t55.5 -16zM194 345q0 -223 154 -223q37 0 78 11v98h-92v124h251v-322q-136 -43 -250 -43q-309 0 -309 355q0 77 14.5 136.5t48.5 108t96 74.5t150 26q121 0 250 -39v-170h-124v74q-59 11 -113 11
q-154 0 -154 -221z" />
    <glyph glyph-name="gbreve" unicode="&#x11f;" horiz-adv-x="555" 
d="M143 -54q0 -18 9.5 -29.5t28 -16.5t35.5 -6.5t42 -1.5q52 0 87.5 13t35.5 42q0 35 -51 40l-165 10q-22 -27 -22 -51zM265 273q69 0 69 67q0 68 -69 68q-70 0 -70 -68q0 -67 70 -67zM89 17v2q-32 21 -39 54t14 67.5t66 57.5v2q-37 19 -59 56.5t-22 83.5q0 85 58 127.5
t158 42.5q41 0 74 -10h190v-89h-72v-2q19 -23 19 -69q0 -85 -57.5 -127t-153.5 -42q-29 0 -59 9q-11 -16 -13.5 -28.5t3.5 -20.5t22 -9l160 -7q76 -3 118.5 -39.5t42.5 -99.5q0 -96 -74 -141t-230 -45q-115 0 -167.5 31.5t-52.5 98.5q0 61 74 97zM286 649q68 0 91 61h59
q-17 -146 -150 -146t-150 146h60q10 -29 34.5 -45t55.5 -16z" />
    <glyph glyph-name="Gdotaccent" unicode="&#x120;" horiz-adv-x="620" 
d="M282 870h133v-135h-133v135zM194 345q0 -223 154 -223q37 0 78 11v98h-92v124h251v-322q-136 -43 -250 -43q-309 0 -309 355q0 77 14.5 136.5t48.5 108t96 74.5t150 26q121 0 250 -39v-170h-124v74q-59 11 -113 11q-154 0 -154 -221z" />
    <glyph glyph-name="gdotaccent" unicode="&#x121;" horiz-adv-x="555" 
d="M143 -54q0 -18 9.5 -29.5t28 -16.5t35.5 -6.5t42 -1.5q52 0 87.5 13t35.5 42q0 35 -51 40l-165 10q-22 -27 -22 -51zM265 273q69 0 69 67q0 68 -69 68q-70 0 -70 -68q0 -67 70 -67zM89 17v2q-32 21 -39 54t14 67.5t66 57.5v2q-37 19 -59 56.5t-22 83.5q0 85 58 127.5
t158 42.5q41 0 74 -10h190v-89h-72v-2q19 -23 19 -69q0 -85 -57.5 -127t-153.5 -42q-29 0 -59 9q-11 -16 -13.5 -28.5t3.5 -20.5t22 -9l160 -7q76 -3 118.5 -39.5t42.5 -99.5q0 -96 -74 -141t-230 -45q-115 0 -167.5 31.5t-52.5 98.5q0 61 74 97zM202 700h133v-135h-133v135
z" />
    <glyph glyph-name="Gcommaaccent" unicode="&#x122;" horiz-adv-x="620" 
d="M194 345q0 -223 154 -223q37 0 78 11v98h-92v124h251v-322q-136 -43 -250 -43q-309 0 -309 355q0 77 14.5 136.5t48.5 108t96 74.5t150 26q121 0 250 -39v-170h-124v74q-59 11 -113 11q-154 0 -154 -221zM346 -265h-45l27 101h-61v124h150v-124z" />
    <glyph glyph-name="gcommaaccent" unicode="&#x123;" horiz-adv-x="555" 
d="M143 -54q0 -18 9.5 -29.5t28 -16.5t35.5 -6.5t42 -1.5q52 0 87.5 13t35.5 42q0 35 -51 40l-165 10q-22 -27 -22 -51zM265 273q69 0 69 67q0 68 -69 68q-70 0 -70 -68q0 -67 70 -67zM89 17v2q-32 21 -39 54t14 67.5t66 57.5v2q-37 19 -59 56.5t-22 83.5q0 85 58 127.5
t158 42.5q41 0 74 -10h190v-89h-72v-2q19 -23 19 -69q0 -85 -57.5 -127t-153.5 -42q-29 0 -59 9q-11 -16 -13.5 -28.5t3.5 -20.5t22 -9l160 -7q76 -3 118.5 -39.5t42.5 -99.5q0 -96 -74 -141t-230 -45q-115 0 -167.5 31.5t-52.5 98.5q0 61 74 97zM269 850h45l-27 -130h61
v-153h-150v153z" />
    <glyph glyph-name="Hcircumflex" unicode="&#x124;" horiz-adv-x="680" 
d="M340 788l-74 -58h-80l109 140h90l109 -140h-80zM401 124h54v165h-230v-165h54v-124h-267v124h54v432h-54v124h267v-124h-54v-144h230v144h-54v124h266v-124h-53v-432h53v-124h-266v124z" />
    <glyph glyph-name="hcircumflex" unicode="&#x125;" horiz-adv-x="590" 
d="M329 0v124h45v182q0 80 -70 80q-37 0 -88 -29v-233h45v-124h-249v124h54v452h-54v124h204v-263h2q65 73 156 73q73 0 111.5 -45.5t38.5 -123.5v-217h53v-124h-248zM119 808l-74 -58h-80l109 140h90l109 -140h-80z" />
    <glyph glyph-name="Hbar" unicode="&#x126;" horiz-adv-x="680" 
d="M401 124h54v165h-230v-165h54v-124h-267v124h54v338h-52v45h52v49h-54v124h267v-124h-54v-49h230v49h-54v124h266v-124h-53v-49h52v-45h-52v-338h53v-124h-266v124zM225 412h230v50h-230v-50z" />
    <glyph glyph-name="hbar" unicode="&#x127;" horiz-adv-x="590" 
d="M329 0v124h45v182q0 80 -70 80q-37 0 -88 -29v-233h45v-124h-249v124h54v422h-52v88h52v66h150v-66h59v-88h-59v-109h2q51 57 118 69q28 4 43 3q71 -1 108 -46t37 -122v-217h53v-124h-248z" />
    <glyph glyph-name="Itilde" unicode="&#x128;" horiz-adv-x="291" 
d="M86 764q-30 0 -67 -39l-46 36q23 54 51.5 79.5t57.5 25.5q27 0 72.5 -20t60.5 -20q30 0 49 15q8 6 16 15l37 -45q-34 -71 -83 -81q-7 -2 -22 -2q-18 1 -62.5 18.5t-63.5 17.5zM12 124h54v432h-54v124h267v-124h-54v-432h54v-124h-267v124z" />
    <glyph glyph-name="itilde" unicode="&#x129;" horiz-adv-x="282" 
d="M12 376v124h204v-376h54v-124h-258v124h54v252h-54zM64 594q-30 0 -67 -39l-46 36q23 54 51.5 79.5t57.5 25.5q27 0 72.5 -20t60.5 -20q30 0 49 15q8 6 16 15l37 -45q-34 -71 -83 -81q-7 -2 -22 -2q-18 1 -62.5 18.5t-63.5 17.5z" />
    <glyph glyph-name="Imacron" unicode="&#x12a;" horiz-adv-x="291" 
d="M10 842h272v-106h-272v106zM12 124h54v432h-54v124h267v-124h-54v-432h54v-124h-267v124z" />
    <glyph glyph-name="imacron" unicode="&#x12b;" horiz-adv-x="282" 
d="M12 376v124h204v-376h54v-124h-258v124h54v252h-54zM-17 672h272v-106h-272v106z" />
    <glyph glyph-name="Ibreve" unicode="&#x12c;" horiz-adv-x="291" 
d="M145 819q68 0 91 61h59q-17 -146 -150 -146t-150 146h60q10 -29 34.5 -45t55.5 -16zM12 124h54v432h-54v124h267v-124h-54v-432h54v-124h-267v124z" />
    <glyph glyph-name="ibreve" unicode="&#x12d;" horiz-adv-x="282" 
d="M12 376v124h204v-376h54v-124h-258v124h54v252h-54zM124 649q68 0 91 61h59q-17 -146 -150 -146t-150 146h60q10 -29 34.5 -45t55.5 -16z" />
    <glyph glyph-name="Iogonek" unicode="&#x12e;" horiz-adv-x="291" 
d="M231 -140l5 -35q-37 -29 -98 -29q-48 0 -77.5 22.5t-29.5 58.5q0 70 85 123h-104v124h54v432h-54v124h267v-124h-54v-432h54v-124h-91q-57 -46 -57 -96q0 -53 59 -53q18 0 41 9z" />
    <glyph glyph-name="iogonek" unicode="&#x12f;" horiz-adv-x="282" 
d="M230 -140l5 -35q-37 -29 -98 -29q-48 0 -78 23t-30 58q0 69 86 123h-103v124h54v252h-54v124h204v-376h54v-124h-83q-58 -47 -58 -96q0 -25 16 -39t44 -14q18 0 41 9zM66 700h150v-144h-150v144z" />
    <glyph glyph-name="Idotaccent" unicode="&#x130;" horiz-adv-x="291" 
d="M79 870h133v-135h-133v135zM12 124h54v432h-54v124h267v-124h-54v-432h54v-124h-267v124z" />
    <glyph glyph-name="dotlessi" unicode="&#x131;" horiz-adv-x="282" 
d="M12 376v124h204v-376h54v-124h-258v124h54v252h-54z" />
    <glyph glyph-name="IJ" unicode="&#x132;" horiz-adv-x="670" 
d="M12 124h54v432h-54v124h267v-124h-54v-432h54v-124h-267v124zM391 680h266v-124h-53v-370q0 -196 -190 -196q-61 0 -113 9l13 124q32 -5 56 -5q75 0 75 68v370h-54v124z" />
    <glyph glyph-name="ij" unicode="&#x133;" horiz-adv-x="505" 
d="M12 376v124h204v-376h54v-124h-258v124h54v252h-54zM66 700h150v-144h-150v144zM255 376v124h214v-556q0 -79 -35 -116.5t-129 -37.5q-39 0 -91 9l13 115q28 -5 43 -5q28 0 38.5 9.5t10.5 36.5v421h-64zM319 700h150v-144h-150v144z" />
    <glyph glyph-name="Jcircumflex" unicode="&#x134;" horiz-adv-x="381" 
d="M236 788l-74 -58h-80l109 140h90l109 -140h-80zM102 680h267v-124h-54v-370q0 -196 -190 -196q-61 0 -113 9l13 124q32 -5 56 -5q75 0 75 68v370h-54v124z" />
    <glyph glyph-name="jcircumflex" unicode="&#x135;" horiz-adv-x="262" 
d="M12 376v124h214v-556q0 -79 -35 -116.5t-129 -37.5q-39 0 -91 9l14 115q27 -5 42 -5q28 0 38.5 9.5t10.5 36.5v421h-64zM129 618l-74 -58h-80l109 140h90l109 -140h-80z" />
    <glyph glyph-name="Kcommaaccent" unicode="&#x136;" horiz-adv-x="680" 
d="M330 -258h-45l27 101h-61v124h150v-124zM12 680h267v-124h-54v-194l186 194h-42v124h288v-124h-56l-170 -168l188 -264h48v-124h-297v124h48l-107 153l-86 -83v-70h54v-124h-267v124h54v432h-54v124z" />
    <glyph glyph-name="kcommaaccent" unicode="&#x137;" horiz-adv-x="600" 
d="M12 576v124h204v-427l138 103h-37v124h260v-124h-55l-97 -72l123 -180h39v-124h-260v124h32l-61 98l-82 -63v-35h54v-124h-258v124h54v452h-54zM304 -265h-45l27 101h-61v124h150v-124z" />
    <glyph glyph-name="kgreenlandic" unicode="&#x138;" horiz-adv-x="600" 
d="M12 376v124h204v-227l138 103h-28v124h251v-124h-55l-97 -72l123 -180h39v-124h-260v124h32l-61 98l-82 -63v-35h54v-124h-258v124h54v252h-54z" />
    <glyph glyph-name="Lacute" unicode="&#x139;" horiz-adv-x="550" 
d="M280 870l-97 -140h-80l53 140h124zM411 179h124v-179h-523v124h54v432h-54v124h267v-124h-54v-432h186v55z" />
    <glyph glyph-name="lacute" unicode="&#x13a;" horiz-adv-x="290" 
d="M12 576v124h204v-576h54v-124h-258v124h54v452h-54zM276 890l-97 -140h-80l53 140h124z" />
    <glyph glyph-name="Lcommaaccent" unicode="&#x13b;" horiz-adv-x="550" 
d="M291 -258h-45l27 101h-61v124h150v-124zM411 179h124v-179h-523v124h54v432h-54v124h267v-124h-54v-432h186v55z" />
    <glyph glyph-name="lcommaaccent" unicode="&#x13c;" horiz-adv-x="290" 
d="M12 576v124h204v-576h54v-124h-258v124h54v452h-54zM145 -265h-45l27 101h-61v124h150v-124z" />
    <glyph glyph-name="Lcaron" unicode="&#x13d;" horiz-adv-x="550" 
d="M400 455h-45l27 101h-61v124h150v-124zM411 179h124v-179h-523v124h54v432h-54v124h267v-124h-54v-432h186v55z" />
    <glyph glyph-name="lcaron" unicode="&#x13e;" horiz-adv-x="290" 
d="M12 576v124h204v-576h54v-124h-258v124h54v452h-54zM322 605h-45l27 101h-61v124h150v-124z" />
    <glyph glyph-name="Ldot" unicode="&#x13f;" horiz-adv-x="550" 
d="M306 442h133v-135h-133v135zM411 179h124v-179h-523v124h54v432h-54v124h267v-124h-54v-432h186v55z" />
    <glyph glyph-name="ldot" unicode="&#x140;" horiz-adv-x="386" 
d="M12 576v124h204v-576h54v-124h-258v124h54v452h-54zM243 427h133v-135h-133v135z" />
    <glyph glyph-name="Lslash" unicode="&#x141;" horiz-adv-x="550" 
d="M12 334l54 15v207h-54v124h267v-124h-54v-161l54 16v-72l-54 -15v-200h186v55h124v-179h-523v124h54v154l-54 -15v71z" />
    <glyph glyph-name="lslash" unicode="&#x142;" horiz-adv-x="290" 
d="M12 576v124h204v-288l54 16v-71l-54 -16v-217h54v-124h-258v124h54v173l-54 -16v71l54 16v208h-54z" />
    <glyph glyph-name="Nacute" unicode="&#x143;" horiz-adv-x="690" 
d="M480 870l-97 -140h-80l53 140h124zM420 680h257v-124h-53v-556h-163l-247 393h-2v-269h58v-124h-258v124h54v432h-54v124h209l255 -415h2v291h-58v124z" />
    <glyph glyph-name="nacute" unicode="&#x144;" horiz-adv-x="590" 
d="M329 0v124h45v182q0 80 -70 80q-37 0 -88 -29v-233h45v-124h-249v124h54v252h-54v124h204v-63h2q65 73 156 73q73 0 111.5 -45.5t38.5 -123.5v-217h53v-124h-248zM422 700l-97 -140h-80l53 140h124z" />
    <glyph glyph-name="Ncommaaccent" unicode="&#x145;" horiz-adv-x="690" 
d="M356 -265h-45l27 101h-61v124h150v-124zM420 680h257v-124h-53v-556h-163l-247 393h-2v-269h58v-124h-258v124h54v432h-54v124h209l255 -415h2v291h-58v124z" />
    <glyph glyph-name="ncommaaccent" unicode="&#x146;" horiz-adv-x="590" 
d="M329 0v124h45v182q0 80 -70 80q-37 0 -88 -29v-233h45v-124h-249v124h54v252h-54v124h204v-63h2q65 73 156 73q73 0 111.5 -45.5t38.5 -123.5v-217h53v-124h-248zM302 -265h-45l27 101h-61v124h150v-124z" />
    <glyph glyph-name="Ncaron" unicode="&#x147;" horiz-adv-x="690" 
d="M278 870l74 -58l74 58h80l-109 -140h-90l-109 140h80zM420 680h257v-124h-53v-556h-163l-247 393h-2v-269h58v-124h-258v124h54v432h-54v124h209l255 -415h2v291h-58v124z" />
    <glyph glyph-name="ncaron" unicode="&#x148;" horiz-adv-x="590" 
d="M329 0v124h45v182q0 80 -70 80q-37 0 -88 -29v-233h45v-124h-249v124h54v252h-54v124h204v-63h2q65 73 156 73q73 0 111.5 -45.5t38.5 -123.5v-217h53v-124h-248zM223 700l74 -58l74 58h80l-109 -140h-90l-109 140h80z" />
    <glyph glyph-name="napostrophe" unicode="&#x149;" horiz-adv-x="590" 
d="M329 0v124h45v182q0 80 -70 80q-37 0 -88 -29v-233h45v-124h-249v124h54v252h-54v124h204v-63h2q65 73 156 73q73 0 111.5 -45.5t38.5 -123.5v-217h53v-124h-248zM143 556h-45l27 101h-61v124h150v-124z" />
    <glyph glyph-name="Eng" unicode="&#x14a;" horiz-adv-x="690" 
d="M624 556v-571q0 -168 -133 -191q-32 -4 -52 -4q-69 0 -118 9l13 133q32 -5 56 -5q75 0 75 67l-25 43l-226 343h-2v-256h58v-124h-258v124h54v432h-54v124h213l251 -397h2v273h-58v124h257v-124h-53z" />
    <glyph glyph-name="eng" unicode="&#x14b;" horiz-adv-x="560" 
d="M374 -33v339q0 80 -70 80q-37 0 -88 -29v-233h45v-124h-249v124h54v252h-54v124h204v-63h2q65 73 156 73q73 0 111.5 -45.5t38.5 -123.5v-374q0 -86 -35.5 -131.5t-128.5 -45.5q-39 0 -91 9l13 115q28 -5 43 -5q27 0 38 14t11 44z" />
    <glyph glyph-name="Omacron" unicode="&#x14c;" horiz-adv-x="670" 
d="M202 842h272v-106h-272v106zM335 566q-43 0 -72 -15.5t-43.5 -47t-20 -68.5t-5.5 -90t5.5 -91.5t20 -72t43.5 -50.5t72 -17t72 17t43.5 50.5t20 72t5.5 91.5t-5.5 90t-20 68.5t-43.5 47t-72 15.5zM335 -10q-309 0 -309 355q0 77 14.5 136.5t48.5 108t96 74.5t150 26
t150 -26t96 -74.5t48.5 -108t14.5 -136.5q0 -355 -309 -355z" />
    <glyph glyph-name="omacron" unicode="&#x14d;" horiz-adv-x="550" 
d="M275 386q-50 0 -70 -33.5t-20 -102.5t20 -102.5t70 -33.5t70 33.5t20 102.5t-20 102.5t-70 33.5zM275 -10q-249 0 -249 260t249 260t249 -260t-249 -260zM139 672h272v-106h-272v106z" />
    <glyph glyph-name="Obreve" unicode="&#x14e;" horiz-adv-x="670" 
d="M335 819q68 0 91 61h59q-17 -146 -150 -146t-150 146h60q10 -29 34.5 -45t55.5 -16zM335 566q-43 0 -72 -15.5t-43.5 -47t-20 -68.5t-5.5 -90t5.5 -91.5t20 -72t43.5 -50.5t72 -17t72 17t43.5 50.5t20 72t5.5 91.5t-5.5 90t-20 68.5t-43.5 47t-72 15.5zM335 -10
q-309 0 -309 355q0 77 14.5 136.5t48.5 108t96 74.5t150 26t150 -26t96 -74.5t48.5 -108t14.5 -136.5q0 -355 -309 -355z" />
    <glyph glyph-name="obreve" unicode="&#x14f;" horiz-adv-x="550" 
d="M275 386q-50 0 -70 -33.5t-20 -102.5t20 -102.5t70 -33.5t70 33.5t20 102.5t-20 102.5t-70 33.5zM275 -10q-249 0 -249 260t249 260t249 -260t-249 -260zM275 649q68 0 91 61h59q-17 -146 -150 -146t-150 146h60q10 -29 34.5 -45t55.5 -16z" />
    <glyph glyph-name="Ohungarumlaut" unicode="&#x150;" horiz-adv-x="670" 
d="M382 870l-97 -140h-80l53 140h124zM552 870l-97 -140h-80l53 140h124zM335 566q-43 0 -72 -15.5t-43.5 -47t-20 -68.5t-5.5 -90t5.5 -91.5t20 -72t43.5 -50.5t72 -17t72 17t43.5 50.5t20 72t5.5 91.5t-5.5 90t-20 68.5t-43.5 47t-72 15.5zM335 -10q-309 0 -309 355
q0 77 14.5 136.5t48.5 108t96 74.5t150 26t150 -26t96 -74.5t48.5 -108t14.5 -136.5q0 -355 -309 -355z" />
    <glyph glyph-name="ohungarumlaut" unicode="&#x151;" horiz-adv-x="550" 
d="M275 386q-50 0 -70 -33.5t-20 -102.5t20 -102.5t70 -33.5t70 33.5t20 102.5t-20 102.5t-70 33.5zM275 -10q-249 0 -249 260t249 260t249 -260t-249 -260zM314 700l-97 -140h-80l53 140h124zM484 700l-97 -140h-80l53 140h124z" />
    <glyph glyph-name="OE" unicode="&#x152;" horiz-adv-x="989" 
d="M335 566q-43 0 -72 -15.5t-43.5 -47t-20 -68.5t-5.5 -90t5.5 -91.5t20 -72t43.5 -50.5t72 -17q82 0 111.5 60t29.5 172q0 53 -5.5 90t-20 68t-43.5 46.5t-72 15.5zM962 0h-511v26q-48 -36 -116 -36q-88 0 -150.5 27.5t-96 78t-48 111t-14.5 138.5q0 77 14.5 136.5
t48.5 108t96 74.5t150 26q70 0 118 -36v26h509v-179h-123v55h-195v-144h268v-123h-268v-165h195v55h123v-179z" />
    <glyph glyph-name="oe" unicode="&#x153;" horiz-adv-x="870" 
d="M842 216h-313q3 -48 34.5 -75t89.5 -27q88 0 155 20l18 -120q-86 -24 -195 -24q-122 0 -185 61q-59 -61 -171 -61q-249 0 -249 260t249 260q111 0 171 -62q62 62 184 62q63 0 107.5 -16t67 -43.5t34.5 -65t10 -80.5t-7 -89zM275 386q-50 0 -70 -33.5t-20 -102.5
t20 -102.5t70 -33.5t70 33.5t20 102.5t-20 102.5t-70 33.5zM621 395q-84 0 -92 -86h165q13 86 -73 86z" />
    <glyph glyph-name="Racute" unicode="&#x154;" horiz-adv-x="650" 
d="M441 870l-97 -140h-80l53 140h124zM12 680h349q110 0 171.5 -56t61.5 -160q0 -68 -31.5 -118.5t-87.5 -70.5l119 -151h43v-124h-276v124h32l-93 125h-75v-125h54v-124h-267v124h54v432h-54v124zM225 556v-184h117q39 0 64 23t25 69t-24 69t-63 23h-119z" />
    <glyph glyph-name="racute" unicode="&#x155;" horiz-adv-x="400" 
d="M12 376v124h204v-80h2q24 38 67 64t99 26v-141q-105 0 -168 -30v-215h56v-124h-260v124h54v252h-54zM280 700l-97 -140h-80l53 140h124z" />
    <glyph glyph-name="Rcommaaccent" unicode="&#x156;" horiz-adv-x="650" 
d="M329 -259h-45l27 101h-61v124h150v-124zM12 680h349q110 0 171.5 -56t61.5 -160q0 -68 -31.5 -118.5t-87.5 -70.5l119 -151h43v-124h-276v124h32l-93 125h-75v-125h54v-124h-267v124h54v432h-54v124zM225 556v-184h117q39 0 64 23t25 69t-24 69t-63 23h-119z" />
    <glyph glyph-name="rcommaaccent" unicode="&#x157;" horiz-adv-x="400" 
d="M12 376v124h204v-80h2q24 38 67 64t99 26v-141q-105 0 -168 -30v-215h56v-124h-260v124h54v252h-54zM145 -265h-45l27 101h-61v124h150v-124z" />
    <glyph glyph-name="Rcaron" unicode="&#x158;" horiz-adv-x="650" 
d="M239 870l74 -58l74 58h80l-109 -140h-90l-109 140h80zM12 680h349q110 0 171.5 -56t61.5 -160q0 -68 -31.5 -118.5t-87.5 -70.5l119 -151h43v-124h-276v124h32l-93 125h-75v-125h54v-124h-267v124h54v432h-54v124zM225 556v-184h117q39 0 64 23t25 69t-24 69t-63 23h-119
z" />
    <glyph glyph-name="rcaron" unicode="&#x159;" horiz-adv-x="400" 
d="M12 376v124h204v-80h2q24 38 67 64t99 26v-141q-105 0 -168 -30v-215h56v-124h-260v124h54v252h-54zM135 700l74 -58l74 58h80l-109 -140h-90l-109 140h80z" />
    <glyph glyph-name="Sacute" unicode="&#x15a;" horiz-adv-x="580" 
d="M424 870l-97 -140h-80l53 140h124zM26 207h124v-67q90 -18 140 -18q96 0 96 65q0 9 -2 16.5t-8 14.5t-11 12t-15.5 10l-17.5 8.5t-21.5 8l-23 7l-26 7.5t-26.5 8q-208 60 -208 216q0 99 71 147t183 48q116 0 245 -39v-179h-124v73q-62 12 -121 12q-41 0 -63.5 -15.5
t-22.5 -42.5q0 -31 36.5 -51t108.5 -37q214 -50 214 -206q0 -107 -73.5 -161t-190.5 -54q-135 0 -264 39v178z" />
    <glyph glyph-name="sacute" unicode="&#x15b;" horiz-adv-x="480" 
d="M441 339h-124v45q-39 7 -82 7q-63 0 -63 -32q0 -14 14 -21.5t54 -16.5q104 -23 141 -43q78 -41 78 -122q0 -84 -54 -125t-150 -41q-138 0 -234 24v147h124v-45q43 -7 92 -7q35 0 53.5 10.5t18.5 25.5q0 14 -17 21t-56 14q-101 17 -157.5 56t-56.5 119q0 155 204 155
q119 0 215 -24v-147zM377 700l-97 -140h-80l53 140h124z" />
    <glyph glyph-name="Scircumflex" unicode="&#x15c;" horiz-adv-x="580" 
d="M299 788l-74 -58h-80l109 140h90l109 -140h-80zM26 207h124v-67q90 -18 140 -18q96 0 96 65q0 9 -2 16.5t-8 14.5t-11 12t-15.5 10l-17.5 8.5t-21.5 8l-23 7l-26 7.5t-26.5 8q-208 60 -208 216q0 99 71 147t183 48q116 0 245 -39v-179h-124v73q-62 12 -121 12
q-41 0 -63.5 -15.5t-22.5 -42.5q0 -31 36.5 -51t108.5 -37q214 -50 214 -206q0 -107 -73.5 -161t-190.5 -54q-135 0 -264 39v178z" />
    <glyph glyph-name="scircumflex" unicode="&#x15d;" horiz-adv-x="480" 
d="M441 339h-124v45q-39 7 -82 7q-63 0 -63 -32q0 -14 14 -21.5t54 -16.5q104 -23 141 -43q78 -41 78 -122q0 -84 -54 -125t-150 -41q-138 0 -234 24v147h124v-45q43 -7 92 -7q35 0 53.5 10.5t18.5 25.5q0 14 -17 21t-56 14q-101 17 -157.5 56t-56.5 119q0 155 204 155
q119 0 215 -24v-147zM246 618l-74 -58h-80l109 140h90l109 -140h-80z" />
    <glyph glyph-name="Scedilla" unicode="&#x15e;" horiz-adv-x="580" 
d="M251 -79v70q-120 5 -225 38v178h124v-67q90 -18 140 -18q96 0 96 65q0 9 -2 16.5t-8 14.5t-11 12t-15.5 10l-17.5 8.5t-21.5 8l-23 7l-26 7.5t-26.5 8q-208 60 -208 216q0 99 71 147t183 48q116 0 245 -39v-179h-124v73q-62 12 -121 12q-41 0 -63.5 -15.5t-22.5 -42.5
q0 -31 36.5 -51t108.5 -37q214 -50 214 -206q0 -104 -69 -158t-181 -57v-41q83 -13 83 -74q0 -37 -27.5 -58.5t-76.5 -21.5q-43 0 -84 12l8 47q20 -5 46 -5q43 0 43 34q0 29 -45 38z" />
    <glyph glyph-name="scedilla" unicode="&#x15f;" horiz-adv-x="480" 
d="M209 -79v70q-114 5 -188 23v147h124v-45q43 -7 92 -7q35 0 53.5 10.5t18.5 25.5q0 14 -17 21t-56 14q-101 17 -157.5 56t-56.5 119q0 155 204 155q119 0 215 -24v-147h-124v45q-39 7 -82 7q-63 0 -63 -32q0 -14 14 -21.5t54 -16.5q104 -23 141 -43q78 -41 78 -122
q0 -82 -51.5 -123t-144.5 -43v-41q83 -13 83 -74q0 -37 -27.5 -58.5t-77.5 -21.5q-44 0 -83 12l8 47q20 -5 45 -5q21 0 32.5 9.5t11.5 24.5q0 29 -46 38z" />
    <glyph glyph-name="Scaron" unicode="&#x160;" horiz-adv-x="580" 
d="M216 870l74 -58l74 58h80l-109 -140h-90l-109 140h80zM26 207h124v-67q90 -18 140 -18q96 0 96 65q0 9 -2 16.5t-8 14.5t-11 12t-15.5 10l-17.5 8.5t-21.5 8l-23 7l-26 7.5t-26.5 8q-208 60 -208 216q0 99 71 147t183 48q116 0 245 -39v-179h-124v73q-62 12 -121 12
q-41 0 -63.5 -15.5t-22.5 -42.5q0 -31 36.5 -51t108.5 -37q214 -50 214 -206q0 -107 -73.5 -161t-190.5 -54q-135 0 -264 39v178z" />
    <glyph glyph-name="scaron" unicode="&#x161;" horiz-adv-x="480" 
d="M441 339h-124v45q-39 7 -82 7q-63 0 -63 -32q0 -14 14 -21.5t54 -16.5q104 -23 141 -43q78 -41 78 -122q0 -84 -54 -125t-150 -41q-138 0 -234 24v147h124v-45q43 -7 92 -7q35 0 53.5 10.5t18.5 25.5q0 14 -17 21t-56 14q-101 17 -157.5 56t-56.5 119q0 155 204 155
q119 0 215 -24v-147zM175 700l74 -58l74 58h80l-109 -140h-90l-109 140h80z" />
    <glyph glyph-name="Tcommaaccent" unicode="&#x162;" horiz-adv-x="580" 
d="M294 -265h-45l27 101h-61v124h150v-124zM17 680h545v-179h-123v55h-70v-432h54v-124h-266v124h54v432h-70v-55h-124v179z" />
    <glyph glyph-name="tcommaaccent" unicode="&#x163;" horiz-adv-x="375" 
d="M76 142v252h-64v97l64 9l18 140h132v-140h118v-106h-118v-226q0 -59 66 -59q16 0 43 5l14 -115q-52 -9 -109 -9q-88 0 -126 37t-38 115zM203 -265h-45l27 101h-61v124h150v-124z" />
    <glyph glyph-name="Tcaron" unicode="&#x164;" horiz-adv-x="580" 
d="M218 870l74 -58l74 58h80l-109 -140h-90l-109 140h80zM17 680h545v-179h-123v55h-70v-432h54v-124h-266v124h54v432h-70v-55h-124v179z" />
    <glyph glyph-name="tcaron" unicode="&#x165;" horiz-adv-x="375" 
d="M76 142v252h-64v97l64 9l18 140h132v-140h118v-106h-118v-226q0 -59 66 -59q16 0 43 5l14 -115q-52 -9 -109 -9q-88 0 -126 37t-38 115zM325 585h-45l27 101h-61v124h150v-124z" />
    <glyph glyph-name="Tbar" unicode="&#x166;" horiz-adv-x="580" 
d="M17 680h545v-179h-123v55h-70v-202h74v-88h-74v-142h54v-124h-266v124h54v142h-74v88h74v202h-70v-55h-124v179z" />
    <glyph glyph-name="tbar" unicode="&#x167;" horiz-adv-x="375" 
d="M76 226h-60v89h60v79h-64v97l64 9l18 140h132v-140h118v-106h-118v-79h108v-89h-108v-58q0 -59 66 -59q16 0 43 5l14 -115q-52 -9 -109 -9q-88 0 -126 37t-38 115v84z" />
    <glyph glyph-name="Utilde" unicode="&#x168;" horiz-adv-x="680" 
d="M281 764q-30 0 -67 -39l-46 36q23 54 51.5 79.5t57.5 25.5q27 0 72.5 -20t60.5 -20q30 0 49 15q8 6 16 15l37 -45q-34 -71 -83 -81q-7 -2 -22 -2q-18 1 -62.5 18.5t-63.5 17.5zM401 680h266v-124h-53v-316q0 -129 -73 -189.5t-201 -60.5t-201 60.5t-73 189.5v316h-54v124
h267v-124h-54v-316q0 -126 116 -126q114 0 114 126v316h-54v124z" />
    <glyph glyph-name="utilde" unicode="&#x169;" horiz-adv-x="590" 
d="M12 376v124h204v-306q0 -80 70 -80q37 0 88 29v233h-58v124h208v-376h53v-124h-203v62h-2q-66 -72 -156 -72q-73 0 -111.5 45t-38.5 124v217h-54zM234 594q-30 0 -67 -39l-46 36q23 54 51.5 79.5t57.5 25.5q27 0 72.5 -20t60.5 -20q30 0 49 15q8 6 16 15l37 -45
q-34 -71 -83 -81q-7 -2 -22 -2q-18 1 -62.5 18.5t-63.5 17.5z" />
    <glyph glyph-name="Umacron" unicode="&#x16a;" horiz-adv-x="680" 
d="M204 842h272v-106h-272v106zM401 680h266v-124h-53v-316q0 -129 -73 -189.5t-201 -60.5t-201 60.5t-73 189.5v316h-54v124h267v-124h-54v-316q0 -126 116 -126q114 0 114 126v316h-54v124z" />
    <glyph glyph-name="umacron" unicode="&#x16b;" horiz-adv-x="590" 
d="M12 376v124h204v-306q0 -80 70 -80q37 0 88 29v233h-58v124h208v-376h53v-124h-203v62h-2q-66 -72 -156 -72q-73 0 -111.5 45t-38.5 124v217h-54zM149 672h272v-106h-272v106z" />
    <glyph glyph-name="Ubreve" unicode="&#x16c;" horiz-adv-x="680" 
d="M341 819q68 0 91 61h59q-17 -146 -150 -146t-150 146h60q10 -29 34.5 -45t55.5 -16zM401 680h266v-124h-53v-316q0 -129 -73 -189.5t-201 -60.5t-201 60.5t-73 189.5v316h-54v124h267v-124h-54v-316q0 -126 116 -126q114 0 114 126v316h-54v124z" />
    <glyph glyph-name="ubreve" unicode="&#x16d;" horiz-adv-x="590" 
d="M12 376v124h204v-306q0 -80 70 -80q37 0 88 29v233h-58v124h208v-376h53v-124h-203v62h-2q-66 -72 -156 -72q-73 0 -111.5 45t-38.5 124v217h-54zM293 649q68 0 91 61h59q-17 -146 -150 -146t-150 146h60q10 -29 34.5 -45t55.5 -16z" />
    <glyph glyph-name="Uring" unicode="&#x16e;" horiz-adv-x="680" 
d="M244 820q0 40 29 69t69 29t69 -29t29 -69t-29 -69t-69 -29t-69 29t-29 69zM299 820q0 -18 12.5 -30.5t30.5 -12.5t30.5 12.5t12.5 30.5t-12.5 30.5t-30.5 12.5t-30.5 -12.5t-12.5 -30.5zM401 680h266v-124h-53v-316q0 -129 -73 -189.5t-201 -60.5t-201 60.5t-73 189.5
v316h-54v124h267v-124h-54v-316q0 -126 116 -126q114 0 114 126v316h-54v124z" />
    <glyph glyph-name="uring" unicode="&#x16f;" horiz-adv-x="590" 
d="M12 376v124h204v-306q0 -80 70 -80q37 0 88 29v233h-58v124h208v-376h53v-124h-203v62h-2q-66 -72 -156 -72q-73 0 -111.5 45t-38.5 124v217h-54zM197 650q0 40 28.5 69t69.5 29t69.5 -29t28.5 -69t-28.5 -69t-69.5 -29t-69.5 29t-28.5 69zM252 650q0 -18 12.5 -30.5
t30.5 -12.5t30.5 12.5t12.5 30.5t-12.5 30.5t-30.5 12.5t-30.5 -12.5t-12.5 -30.5z" />
    <glyph glyph-name="Uhungarumlaut" unicode="&#x170;" horiz-adv-x="680" 
d="M385 870l-97 -140h-80l53 140h124zM555 870l-97 -140h-80l53 140h124zM401 680h266v-124h-53v-316q0 -129 -73 -189.5t-201 -60.5t-201 60.5t-73 189.5v316h-54v124h267v-124h-54v-316q0 -126 116 -126q114 0 114 126v316h-54v124z" />
    <glyph glyph-name="uhungarumlaut" unicode="&#x171;" horiz-adv-x="590" 
d="M12 376v124h204v-306q0 -80 70 -80q37 0 88 29v233h-58v124h208v-376h53v-124h-203v62h-2q-66 -72 -156 -72q-73 0 -111.5 45t-38.5 124v217h-54zM343 700l-97 -140h-80l53 140h124zM513 700l-97 -140h-80l53 140h124z" />
    <glyph glyph-name="Uogonek" unicode="&#x172;" horiz-adv-x="680" 
d="M401 680h266v-124h-53v-316q0 -121 -65.5 -182t-180.5 -67q-46 -43 -46 -87q0 -53 59 -53q18 0 41 9l5 -35q-37 -29 -97 -29q-48 0 -78 22.5t-30 58.5q0 65 74 116q-109 9 -169.5 69.5t-60.5 177.5v316h-54v124h267v-124h-54v-316q0 -126 116 -126q114 0 114 126v316h-54
v124z" />
    <glyph glyph-name="uogonek" unicode="&#x173;" horiz-adv-x="590" 
d="M524 124h53v-124h-132q-57 -46 -57 -96q0 -25 16 -39t44 -14q16 0 41 9l4 -35q-37 -29 -97 -29q-48 0 -78 22.5t-30 58.5q0 70 86 123v62h-2q-66 -72 -156 -72q-73 0 -111.5 45t-38.5 124v217h-54v124h204v-306q0 -80 70 -80q37 0 88 29v233h-58v124h208v-376z" />
    <glyph glyph-name="Wcircumflex" unicode="&#x174;" horiz-adv-x="980" 
d="M489 788l-74 -58h-80l109 140h90l109 -140h-80zM12 680h287v-124h-61l77 -370h1l103 494h168l111 -494h1l70 370h-62v124h260v-124h-44l-131 -561h-212l-89 394h-2l-80 -394h-212l-139 561h-46v124z" />
    <glyph glyph-name="wcircumflex" unicode="&#x175;" horiz-adv-x="810" 
d="M567 376v124h229v-124h-38l-113 -381h-161l-80 250h-2l-68 -250h-161l-125 381h-36v124h254v-124h-57l59 -214h2l84 338h124l90 -347h2l43 223h-46zM414 618l-74 -58h-80l109 140h90l109 -140h-80z" />
    <glyph glyph-name="Ycircumflex" unicode="&#x176;" horiz-adv-x="660" 
d="M344 788l-74 -58h-80l109 140h90l109 -140h-80zM409 124h54v-124h-266v124h54v81l-178 351h-61v124h296v-124h-67l101 -205h2l100 205h-65v124h268v-124h-52l-186 -351v-81z" />
    <glyph glyph-name="ycircumflex" unicode="&#x177;" horiz-adv-x="580" 
d="M337 376v124h229v-124h-34l-161 -383q-85 -203 -230 -203q-46 0 -95 9l13 120q25 -5 49 -5q34 0 61.5 18.5t39.5 56.5l-157 387h-40v124h254v-124h-48l87 -242h2l76 242h-46zM304 618l-74 -58h-80l109 140h90l109 -140h-80z" />
    <glyph glyph-name="Ydieresis" unicode="&#x178;" horiz-adv-x="660" 
d="M159 870h133v-135h-133v135zM394 870h133v-135h-133v135zM409 124h54v-124h-266v124h54v81l-178 351h-61v124h296v-124h-67l101 -205h2l100 205h-65v124h268v-124h-52l-186 -351v-81z" />
    <glyph glyph-name="Zacute" unicode="&#x179;" horiz-adv-x="560" 
d="M412 870l-97 -140h-80l53 140h124zM44 680h481v-115l-306 -439v-2h193v55h124v-179h-511v115l310 439v2h-168v-55h-123v179z" />
    <glyph glyph-name="zacute" unicode="&#x17a;" horiz-adv-x="470" 
d="M24 500h418v-115l-242 -268v-2h132v46h124v-161h-442v115l247 268v2h-114v-46h-123v161zM362 700l-97 -140h-80l53 140h124z" />
    <glyph glyph-name="Zdotaccent" unicode="&#x17b;" horiz-adv-x="560" 
d="M211 870h133v-135h-133v135zM44 680h481v-115l-306 -439v-2h193v55h124v-179h-511v115l310 439v2h-168v-55h-123v179z" />
    <glyph glyph-name="zdotaccent" unicode="&#x17c;" horiz-adv-x="470" 
d="M24 500h418v-115l-242 -268v-2h132v46h124v-161h-442v115l247 268v2h-114v-46h-123v161zM173 700h133v-135h-133v135z" />
    <glyph glyph-name="Zcaron" unicode="&#x17d;" horiz-adv-x="560" 
d="M215 870l74 -58l74 58h80l-109 -140h-90l-109 140h80zM44 680h481v-115l-306 -439v-2h193v55h124v-179h-511v115l310 439v2h-168v-55h-123v179z" />
    <glyph glyph-name="zcaron" unicode="&#x17e;" horiz-adv-x="470" 
d="M24 500h418v-115l-242 -268v-2h132v46h124v-161h-442v115l247 268v2h-114v-46h-123v161zM178 700l74 -58l74 58h80l-109 -140h-90l-109 140h80z" />
    <glyph glyph-name="longs" unicode="&#x17f;" horiz-adv-x="326" 
d="M76 -32v580q0 78 38 115t126 37q39 0 91 -9l-13 -115q-28 5 -43 5q-27 0 -38 -14.5t-11 -44.5v-555q0 -86 -35.5 -131.5t-128.5 -45.5q-39 0 -91 9l14 115q27 -5 42 -5q27 0 38 14.5t11 44.5z" />
    <glyph glyph-name="florin" unicode="&#x192;" horiz-adv-x="460" 
d="M151 -32v426h-64v97l64 9v48q0 78 38 115t126 37q39 0 91 -9l-13 -115q-28 5 -43 5q-27 0 -38 -14.5t-11 -44.5v-22h100v-106h-100v-427q0 -86 -35.5 -131.5t-128.5 -45.5q-39 0 -91 9l14 115q27 -5 42 -5q27 0 38 14.5t11 44.5z" />
    <glyph glyph-name="AEacute" unicode="&#x1fc;" horiz-adv-x="916" 
d="M636 870l-97 -140h-80l53 140h124zM277 556h-66v124h679v-179h-124v55h-195v-144h269v-123h-269v-165h195v55h124v-179h-478v162h-167l-55 -121h11l-15 -41h-176v124h62zM410 538l-112 -252h114v252h-2z" />
    <glyph glyph-name="aeacute" unicode="&#x1fd;" horiz-adv-x="822" 
d="M574 700l-97 -140h-80l53 140h124zM230 386q-26 0 -54 -4v-43h-124v147q120 24 203 24q110 0 164 -48q59 48 163 48q63 0 107.5 -16t67 -43.5t34.5 -65t10 -80.5t-7 -89h-312q3 -48 34.5 -75t89.5 -27q88 0 155 20l18 -120q-86 -24 -195 -24q-162 0 -224 92
q-47 -53 -91 -72.5t-95 -19.5q-72 0 -112.5 44.5t-40.5 112.5q0 45 20 78t53 49.5t67 23.5t71 7h87v19q0 38 -19.5 50t-69.5 12zM235 105q52 0 88 29q-4 35 -4 82h-79q-69 0 -69 -56q0 -27 19 -41t45 -14zM574 395q-84 0 -92 -86h164q14 86 -72 86z" />
    <glyph glyph-name="Oslashacute" unicode="&#x1fe;" horiz-adv-x="670" 
d="M468 870l-97 -140h-80l53 140h124zM335 -10q-124 0 -200 58l-68 -86l-45 36l72 90q-68 87 -68 257q0 77 14.5 136.5t48.5 108t96 74.5t150 26q119 0 194 -52l73 92l45 -36l-75 -94q72 -86 72 -255q0 -355 -309 -355zM335 122q43 0 72 16t43.5 47.5t20 69t5.5 90.5
q0 76 -14 117l-232 -294q32 -46 105 -46zM335 557q-83 0 -112 -52t-29 -160q0 -76 11 -116l231 291q-32 37 -101 37z" />
    <glyph glyph-name="oslashacute" unicode="&#x1ff;" horiz-adv-x="550" 
d="M412 700l-97 -140h-80l53 140h124zM275 -10q-92 0 -152 38l-56 -66l-45 36l57 67q-53 64 -53 185q0 260 249 260q92 0 151 -38l57 66l44 -36l-57 -67q54 -66 54 -185q0 -260 -249 -260zM275 114q50 0 70 33.5t20 102.5q0 32 -7 54l-144 -170q23 -20 61 -20zM275 386
q-50 0 -70 -33.5t-20 -102.5q0 -36 6 -54l144 169q-23 21 -60 21z" />
    <glyph glyph-name="Scommaaccent" unicode="&#x218;" horiz-adv-x="580" 
d="M295 -265h-45l27 101h-61v124h150v-124zM26 207h124v-67q90 -18 140 -18q96 0 96 65q0 9 -2 16.5t-8 14.5t-11 12t-15.5 10l-17.5 8.5t-21.5 8l-23 7l-26 7.5t-26.5 8q-208 60 -208 216q0 99 71 147t183 48q116 0 245 -39v-179h-124v73q-62 12 -121 12q-41 0 -63.5 -15.5
t-22.5 -42.5q0 -31 36.5 -51t108.5 -37q214 -50 214 -206q0 -107 -73.5 -161t-190.5 -54q-135 0 -264 39v178z" />
    <glyph glyph-name="scommaaccent" unicode="&#x219;" horiz-adv-x="480" 
d="M441 339h-124v45q-39 7 -82 7q-63 0 -63 -32q0 -14 14 -21.5t54 -16.5q104 -23 141 -43q78 -41 78 -122q0 -84 -54 -125t-150 -41q-138 0 -234 24v147h124v-45q43 -7 92 -7q35 0 53.5 10.5t18.5 25.5q0 14 -17 21t-56 14q-101 17 -157.5 56t-56.5 119q0 155 204 155
q119 0 215 -24v-147zM244 -265h-45l27 101h-61v124h150v-124z" />
    <glyph glyph-name="uni021A" unicode="&#x21a;" horiz-adv-x="580" 
d="M293 -262h-45l27 101h-61v124h150v-124zM17 680h545v-179h-123v55h-70v-432h54v-124h-266v124h54v432h-70v-55h-124v179z" />
    <glyph glyph-name="uni021B" unicode="&#x21b;" horiz-adv-x="375" 
d="M76 142v252h-64v97l64 9l18 140h132v-140h118v-106h-118v-226q0 -59 66 -59q16 0 43 5l14 -115q-52 -9 -109 -9q-88 0 -126 37t-38 115zM214 -267h-45l27 101h-61v124h150v-124z" />
    <glyph glyph-name="circumflex" unicode="&#x2c6;" horiz-adv-x="420" 
d="M210 618l-74 -58h-80l109 140h90l109 -140h-80z" />
    <glyph glyph-name="caron" unicode="&#x2c7;" horiz-adv-x="420" 
d="M136 700l74 -58l74 58h80l-109 -140h-90l-109 140h80z" />
    <glyph glyph-name="uni02C9" unicode="&#x2c9;" horiz-adv-x="440" 
d="M54 672h332v-106h-332v106z" />
    <glyph glyph-name="breve" unicode="&#x2d8;" horiz-adv-x="408" 
d="M204 649q68 0 91 61h59q-17 -146 -150 -146t-150 146h60q10 -29 34.5 -45t55.5 -16z" />
    <glyph glyph-name="dotaccent" unicode="&#x2d9;" horiz-adv-x="250" 
d="M56 700h133v-135h-133v135z" />
    <glyph glyph-name="ring" unicode="&#x2da;" horiz-adv-x="300" 
d="M52 650q0 40 29 69t69 29t69 -29t29 -69t-29 -69t-69 -29t-69 29t-29 69zM107 650q0 -18 12.5 -30.5t30.5 -12.5t30.5 12.5t12.5 30.5t-12.5 30.5t-30.5 12.5t-30.5 -12.5t-12.5 -30.5z" />
    <glyph glyph-name="ogonek" unicode="&#x2db;" horiz-adv-x="314" 
d="M256 -140l5 -35q-37 -29 -98 -29q-48 0 -77.5 22.5t-29.5 58.5q0 70 85 123h72q-57 -46 -57 -96q0 -53 59 -53q18 0 41 9z" />
    <glyph glyph-name="tilde" unicode="&#x2dc;" horiz-adv-x="450" 
d="M166 594q-30 0 -67 -39l-46 36q23 54 51.5 79.5t57.5 25.5q27 0 72.5 -20t60.5 -20q30 0 49 15q8 6 16 15l37 -45q-34 -71 -83 -81q-7 -2 -22 -2q-18 1 -62.5 18.5t-63.5 17.5z" />
    <glyph glyph-name="hungarumlaut" unicode="&#x2dd;" horiz-adv-x="460" 
d="M231 700l-97 -140h-80l53 140h124zM401 700l-97 -140h-80l53 140h124z" />
    <glyph glyph-name="uni037E" unicode="&#x37e;" horiz-adv-x="222" 
d="M36 326h150v-152h-150v152z" />
    <glyph glyph-name="tonos" unicode="&#x384;" horiz-adv-x="290" 
d="M231 680l-97 -140h-80l53 140h124z" />
    <glyph glyph-name="dieresistonos" unicode="&#x385;" horiz-adv-x="625" 
d="M411 730l-107 -170h-80l54 170h133zM56 700h133v-135h-133v135zM436 700h133v-135h-133v135z" />
    <glyph glyph-name="anoteleia" unicode="&#x387;" horiz-adv-x="480" 
d="M56 700h133v-135h-133v135zM291 700h133v-135h-133v135z" />
    <glyph glyph-name="uni03BC" unicode="&#x3bc;" horiz-adv-x="590" 
d="M12 376v124h204v-306q0 -80 70 -80q37 0 88 29v233h-58v124h208v-376h53v-124h-203v62h-2q-35 -36 -77 -53q-44 -16 -79 -7v-29q0 -88 -33.5 -135t-124.5 -48q-21 0 -33 1q-46 5 -64 8l14 115q27 -5 42 -5q27 0 38 14.5t11 44.5v408h-54z" />
    <glyph glyph-name="pi" unicode="&#x3c0;" horiz-adv-x="590" 
d="M329 124h45v252h-158v-252h45v-124h-249v124h54v252h-54v124h565v-124h-53v-252h53v-124h-248v124z" />
    <glyph glyph-name="uni03C2" unicode="&#x3c2;" horiz-adv-x="513" 
d="M100 249q0 68 48 114l-78 90l8 8l79 -90q44 36 100 36q55 0 99 -36l78 90l9 -8l-78 -89q50 -47 50 -115t-49 -114l76 -86l-9 -9l-77 87q-43 -35 -99 -35q-57 0 -100 35l-76 -87l-9 9l76 86q-48 46 -48 114zM112 249q0 -59 43 -102t102 -43t102.5 43t43.5 102t-43.5 102.5
t-102.5 43.5t-102 -43.5t-43 -102.5z" />
    <glyph glyph-name="sigma" unicode="&#x3c3;" horiz-adv-x="513" 
d="M100 249q0 68 48 114l-78 90l8 8l79 -90q44 36 100 36q55 0 99 -36l78 90l9 -8l-78 -89q50 -47 50 -115t-49 -114l76 -86l-9 -9l-77 87q-43 -35 -99 -35q-57 0 -100 35l-76 -87l-9 9l76 86q-48 46 -48 114zM112 249q0 -59 43 -102t102 -43t102.5 43t43.5 102t-43.5 102.5
t-102.5 43.5t-102 -43.5t-43 -102.5z" />
    <glyph glyph-name="Wgrave" unicode="&#x1e80;" horiz-adv-x="980" 
d="M464 730l-97 140h124l53 -140h-80zM12 680h287v-124h-61l77 -370h1l103 494h168l111 -494h1l70 370h-62v124h260v-124h-44l-131 -561h-212l-89 394h-2l-80 -394h-212l-139 561h-46v124z" />
    <glyph glyph-name="wgrave" unicode="&#x1e81;" horiz-adv-x="810" 
d="M567 376v124h229v-124h-38l-113 -381h-161l-80 250h-2l-68 -250h-161l-125 381h-36v124h254v-124h-57l59 -214h2l84 338h124l90 -347h2l43 223h-46zM370 560l-97 140h124l53 -140h-80z" />
    <glyph glyph-name="Wacute" unicode="&#x1e82;" horiz-adv-x="980" 
d="M632 870l-97 -140h-80l53 140h124zM12 680h287v-124h-61l77 -370h1l103 494h168l111 -494h1l70 370h-62v124h260v-124h-44l-131 -561h-212l-89 394h-2l-80 -394h-212l-139 561h-46v124z" />
    <glyph glyph-name="wacute" unicode="&#x1e83;" horiz-adv-x="810" 
d="M567 376v124h229v-124h-38l-113 -381h-161l-80 250h-2l-68 -250h-161l-125 381h-36v124h254v-124h-57l59 -214h2l84 338h124l90 -347h2l43 223h-46zM554 698l-97 -140h-80l53 140h124z" />
    <glyph glyph-name="Wdieresis" unicode="&#x1e84;" horiz-adv-x="980" 
d="M318 870h133v-135h-133v135zM553 870h133v-135h-133v135zM12 680h287v-124h-61l77 -370h1l103 494h168l111 -494h1l70 370h-62v124h260v-124h-44l-131 -561h-212l-89 394h-2l-80 -394h-212l-139 561h-46v124z" />
    <glyph glyph-name="wdieresis" unicode="&#x1e85;" horiz-adv-x="810" 
d="M567 376v124h229v-124h-38l-113 -381h-161l-80 250h-2l-68 -250h-161l-125 381h-36v124h254v-124h-57l59 -214h2l84 338h124l90 -347h2l43 223h-46zM230 700h133v-135h-133v135zM465 700h133v-135h-133v135z" />
    <glyph glyph-name="Ygrave" unicode="&#x1ef2;" horiz-adv-x="660" 
d="M307 730l-97 140h124l53 -140h-80zM409 124h54v-124h-266v124h54v81l-178 351h-61v124h296v-124h-67l101 -205h2l100 205h-65v124h268v-124h-52l-186 -351v-81z" />
    <glyph glyph-name="ygrave" unicode="&#x1ef3;" horiz-adv-x="580" 
d="M337 376v124h229v-124h-34l-161 -383q-85 -203 -230 -203q-46 0 -95 9l13 120q25 -5 49 -5q34 0 61.5 18.5t39.5 56.5l-157 387h-40v124h254v-124h-48l87 -242h2l76 242h-46zM258 560l-97 140h124l53 -140h-80z" />
    <glyph glyph-name="figuredash" unicode="&#x2012;" horiz-adv-x="600" 
d="M36 327h528v-124h-528v124z" />
    <glyph glyph-name="endash" unicode="&#x2013;" horiz-adv-x="600" 
d="M36 327h528v-124h-528v124z" />
    <glyph glyph-name="emdash" unicode="&#x2014;" horiz-adv-x="700" 
d="M36 327h628v-124h-628v124z" />
    <glyph glyph-name="quoteleft" unicode="&#x2018;" horiz-adv-x="222" 
d="M107 680h45l-27 -130h61v-153h-150v153z" />
    <glyph glyph-name="quoteright" unicode="&#x2019;" horiz-adv-x="222" 
d="M115 397h-45l27 130h-61v153h150v-153z" />
    <glyph glyph-name="quotesinglbase" unicode="&#x201a;" horiz-adv-x="222" 
d="M115 -130h-45l27 130h-61v152h150v-152z" />
    <glyph glyph-name="quotedblleft" unicode="&#x201c;" horiz-adv-x="442" 
d="M327 680h45l-27 -130h61v-153h-150v153zM107 680h45l-27 -130h61v-153h-150v153z" />
    <glyph glyph-name="quotedblright" unicode="&#x201d;" horiz-adv-x="442" 
d="M115 397h-45l27 130h-61v153h150v-153zM335 397h-45l27 130h-61v153h150v-153z" />
    <glyph glyph-name="quotedblbase" unicode="&#x201e;" horiz-adv-x="442" 
d="M115 -130h-45l27 130h-61v152h150v-152zM335 -130h-45l27 130h-61v152h150v-152z" />
    <glyph glyph-name="dagger" unicode="&#x2020;" horiz-adv-x="580" 
d="M544 359l-183 8l8 -367h-158l8 367l-183 -8v141l183 -9l-8 209h158l-8 -209l183 9v-141z" />
    <glyph glyph-name="daggerdbl" unicode="&#x2021;" horiz-adv-x="580" 
d="M219 292v115l-183 -8v141l183 -9l-8 169h158l-8 -169l183 9v-141l-183 8v-115l183 9v-141l-183 9l8 -169h-158l8 169l-183 -9v141z" />
    <glyph glyph-name="bullet" unicode="&#x2022;" horiz-adv-x="230" 
d="M36 326h150v-152h-150v152z" />
    <glyph glyph-name="onedotenleader" unicode="&#x2024;" horiz-adv-x="222" 
d="M36 152h150v-152h-150v152z" />
    <glyph glyph-name="twodotenleader" unicode="&#x2025;" horiz-adv-x="422" 
d="M36 152h150v-152h-150v152zM236 152h150v-152h-150v152z" />
    <glyph glyph-name="ellipsis" unicode="&#x2026;" horiz-adv-x="662" 
d="M56 152h150v-152h-150v152zM256 152h150v-152h-150v152zM456 152h150v-152h-150v152z" />
    <glyph glyph-name="perthousand" unicode="&#x2030;" horiz-adv-x="1110" 
d="M614 680l-370 -680h-98l370 680h98zM180 385q-70 0 -108 40t-38 111t38 110.5t108 39.5q71 0 109 -39.5t38 -110.5t-38 -111t-109 -40zM180 460q54 0 54 76t-54 76q-53 0 -53 -76t53 -76zM580 -6q-71 0 -109 39.5t-38 110.5t38 110.5t109 39.5q70 0 108 -39.5t38 -110.5
t-38 -110.5t-108 -39.5zM580 68q53 0 53 76t-53 76q-54 0 -54 -76t54 -76zM930 -6q-71 0 -109 39.5t-38 110.5t38 110.5t109 39.5q70 0 108 -39.5t38 -110.5t-38 -110.5t-108 -39.5zM930 68q53 0 53 76t-53 76q-54 0 -54 -76t54 -76z" />
    <glyph glyph-name="guilsinglleft" unicode="&#x2039;" horiz-adv-x="380" 
d="M36 294l308 201v-159l-149 -86l149 -86v-159l-308 201v88z" />
    <glyph glyph-name="guilsinglright" unicode="&#x203a;" horiz-adv-x="380" 
d="M36 495l308 -201v-88l-308 -201v159l149 86l-149 86v159z" />
    <glyph glyph-name="exclamdbl" unicode="&#x203c;" horiz-adv-x="422" 
d="M36 152h150v-152h-150v152zM36 700h150l-9 -480h-132zM236 152h150v-152h-150v152zM236 700h150l-9 -480h-132z" />
    <glyph glyph-name="fraction" unicode="&#x2044;" horiz-adv-x="540" 
d="M521 680l-370 -680h-132l370 680h132z" />
    <glyph glyph-name="zerosuperior" unicode="&#x2070;" horiz-adv-x="286" 
d="M143 820q-48 0 -48 -107q0 -113 48 -113t48 113q0 107 -48 107zM143 535q-74 0 -102.5 47.5t-28.5 130.5q0 81 28.5 126.5t102.5 45.5q73 0 101.5 -45.5t28.5 -126.5q0 -83 -28.5 -130.5t-101.5 -47.5z" />
    <glyph glyph-name="foursuperior" unicode="&#x2074;" horiz-adv-x="296" 
d="M92 696h71v103h-1q-32 -57 -70 -103zM163 605v26h-151v65l53 59t41 55.5t40 72.5h96v-187h41v-65h-41v-26h26v-65h-131v65h26z" />
    <glyph glyph-name="fivesuperior" unicode="&#x2075;" horiz-adv-x="271" 
d="M248 880v-91h-64v22h-92l-3 -63h1q26 17 63 17q49 0 77.5 -28.5t28.5 -82.5q0 -58 -35 -88.5t-98 -30.5q-56 0 -114 25v68h65v-24q20 -4 45 -4q27 0 40.5 14t13.5 35t-12 35.5t-39 14.5t-51 -18l-55 5l5 194h224z" />
    <glyph glyph-name="sixsuperior" unicode="&#x2076;" horiz-adv-x="276" 
d="M90 739l1 -1q27 30 67 30q49 0 77 -31t28 -87q0 -53 -33 -84t-88 -31q-64 0 -97 44.5t-33 110.5q0 195 153 195q46 0 88 -15v-81h-65v31h-17q-32 0 -56.5 -19.5t-24.5 -61.5zM97 681q-8 -81 41 -81q18 0 30.5 13t12.5 37q0 50 -44 50q-19 0 -40 -19z" />
    <glyph glyph-name="sevensuperior" unicode="&#x2077;" horiz-adv-x="255" 
d="M12 880h231v-55q-29 -52 -45.5 -84.5t-35.5 -87.5t-28 -113h-87q11 64 41 137.5t69 132.5v1h-81v-22h-64v91z" />
    <glyph glyph-name="eightsuperior" unicode="&#x2078;" horiz-adv-x="286" 
d="M211 720v-1q62 -35 62 -85t-38 -74.5t-94 -24.5q-55 0 -92 22t-37 69q0 57 62 81v1q-52 30 -52 83q0 46 36.5 70t86.5 24q47 0 82.5 -23.5t35.5 -66.5q0 -47 -52 -75zM93 634q0 -17 13 -29t40 -12q47 0 47 34q0 6 -2 11.5t-6.5 10.5t-8 8t-11 6.5t-11 5.5t-12.5 5t-11 4
q-38 -15 -38 -44zM141 827q-18 0 -29.5 -10t-11.5 -23q0 -34 52 -47q33 13 33 42q0 16 -12 27t-32 11z" />
    <glyph glyph-name="ninesuperior" unicode="&#x2079;" horiz-adv-x="276" 
d="M185 681l-1 1q-26 -29 -67 -29q-49 0 -77 30.5t-28 86.5q0 53 33.5 84t88.5 31q64 0 96.5 -44.5t32.5 -110.5q0 -195 -152 -195q-44 0 -88 14v82h64v-31h17q32 0 57 19.5t24 61.5zM178 739q10 81 -40 81q-19 0 -31 -13t-12 -37q0 -50 43 -50q21 0 40 19z" />
    <glyph glyph-name="parenleftsuperior" unicode="&#x207d;" horiz-adv-x="165" 
d="M12 710q0 134 89 240h51q-62 -112 -62 -240q0 -123 62 -240h-51q-89 106 -89 240z" />
    <glyph glyph-name="parenrightsuperior" unicode="&#x207e;" horiz-adv-x="165" 
d="M152 710q0 -136 -89 -240h-51q62 115 62 240q0 131 -62 240h51q89 -104 89 -240z" />
    <glyph glyph-name="nsuperior" unicode="&#x207f;" horiz-adv-x="307" 
d="M170 430v65h21v87q0 38 -34 38q-17 0 -41 -13v-112h22v-65h-126v65h26v120h-26v65h104v-31h1q31 36 77 36q37 0 56 -22.5t19 -61.5v-106h26v-65h-125z" />
    <glyph glyph-name="zeroinferior" unicode="&#x2080;" horiz-adv-x="286" 
d="M143 80q-48 0 -48 -107q0 -113 48 -113t48 113q0 107 -48 107zM143 -205q-74 0 -102.5 47.5t-28.5 130.5q0 81 28.5 126.5t102.5 45.5q73 0 101.5 -45.5t28.5 -126.5q0 -83 -28.5 -130.5t-101.5 -47.5z" />
    <glyph glyph-name="oneinferior" unicode="&#x2081;" horiz-adv-x="207" 
d="M143 -135h51v-65h-181v65h52v202l-52 -1v55l93 22h37v-278z" />
    <glyph glyph-name="twoinferior" unicode="&#x2082;" horiz-adv-x="275" 
d="M199 -109h64v-91h-251v74q89 55 121.5 88.5t32.5 62.5q0 49 -54 49q-19 0 -35 -5v-21h-65v72q61 25 118 25q58 0 88 -29t30 -75q0 -49 -31.5 -88.5t-93.5 -82.5v-1h76v22z" />
    <glyph glyph-name="threeinferior" unicode="&#x2083;" horiz-adv-x="271" 
d="M12 -180v72h65v-27q20 -5 49 -5q26 0 39 11.5t13 27.5q0 39 -57 39h-47v64h43q54 0 54 44q0 15 -11.5 24.5t-33.5 9.5t-46 -6v-26h-65v72q56 25 125 25q46 0 77.5 -23.5t31.5 -67.5q0 -52 -56 -75v-1q66 -19 66 -84q0 -47 -34 -73t-94 -26q-64 0 -119 25z" />
    <glyph glyph-name="fourinferior" unicode="&#x2084;" horiz-adv-x="296" 
d="M92 -44h71v103h-1q-32 -57 -70 -103zM163 -135v26h-151v65l53 59t41 55.5t40 72.5h96v-187h41v-65h-41v-26h26v-65h-131v65h26z" />
    <glyph glyph-name="fiveinferior" unicode="&#x2085;" horiz-adv-x="271" 
d="M248 140v-91h-64v22h-92l-3 -63h1q26 17 63 17q49 0 77.5 -28.5t28.5 -82.5q0 -58 -35 -88.5t-98 -30.5q-56 0 -114 25v68h65v-24q20 -4 45 -4q27 0 40.5 14t13.5 35t-12 35.5t-39 14.5t-51 -18l-55 5l5 194h224z" />
    <glyph glyph-name="sixinferior" unicode="&#x2086;" horiz-adv-x="276" 
d="M90 -1l1 -1q27 30 67 30q49 0 77 -31t28 -87q0 -53 -33 -84t-88 -31q-64 0 -97 44.5t-33 110.5q0 195 153 195q46 0 88 -15v-81h-65v31h-17q-32 0 -56.5 -19.5t-24.5 -61.5zM97 -59q-8 -81 41 -81q18 0 30.5 13t12.5 37q0 50 -44 50q-19 0 -40 -19z" />
    <glyph glyph-name="seveninferior" unicode="&#x2087;" horiz-adv-x="255" 
d="M12 140h231v-55q-29 -52 -45.5 -84.5t-35.5 -87.5t-28 -113h-87q11 64 41 137.5t69 132.5v1h-81v-22h-64v91z" />
    <glyph glyph-name="eightinferior" unicode="&#x2088;" horiz-adv-x="286" 
d="M211 -20v-1q62 -35 62 -85t-38 -74.5t-94 -24.5q-55 0 -92 22t-37 69q0 57 62 81v1q-52 30 -52 83q0 46 36.5 70t86.5 24q47 0 82.5 -23.5t35.5 -66.5q0 -47 -52 -75zM93 -106q0 -17 13 -29t40 -12q47 0 47 34q0 6 -2 11.5t-6.5 10.5t-8 8t-11 6.5t-11 5.5t-12.5 5t-11 4
q-38 -15 -38 -44zM141 87q-18 0 -29.5 -10t-11.5 -23q0 -34 52 -47q33 13 33 42q0 16 -12 27t-32 11z" />
    <glyph glyph-name="nineinferior" unicode="&#x2089;" horiz-adv-x="276" 
d="M185 -59l-1 1q-26 -29 -67 -29q-49 0 -77 30.5t-28 86.5q0 53 33.5 84t88.5 31q64 0 96.5 -44.5t32.5 -110.5q0 -195 -152 -195q-44 0 -88 14v82h64v-31h17q32 0 57 19.5t24 61.5zM178 -1q10 81 -40 81q-19 0 -31 -13t-12 -37q0 -50 43 -50q21 0 40 19z" />
    <glyph glyph-name="parenleftinferior" unicode="&#x208d;" horiz-adv-x="165" 
d="M12 -30q0 134 89 240h51q-62 -112 -62 -240q0 -123 62 -240h-51q-89 106 -89 240z" />
    <glyph glyph-name="parenrightinferior" unicode="&#x208e;" horiz-adv-x="165" 
d="M152 -30q0 -136 -89 -240h-51q62 115 62 240q0 131 -62 240h51q89 -104 89 -240z" />
    <glyph glyph-name="colonmonetary" unicode="&#x20a1;" horiz-adv-x="610" 
d="M461 199h124v-170q-70 -21 -125 -30v-99h-63v92q-40 -2 -62 -2q-14 0 -25 1v-91h-63v99q-221 44 -221 346q0 293 221 337v98h63v-92q14 2 25 2q22 0 62 -2v92h63v-99q67 -12 125 -30v-170h-124v74q-59 11 -113 11q-154 0 -154 -221q0 -231 154 -231q60 0 113 11v74z" />
    <glyph glyph-name="franc" unicode="&#x20a3;" horiz-adv-x="650" 
d="M14 301h53q-1 14 -1 44v34h-52v71h60q41 240 301 240q121 0 250 -39v-170h-124v74q-59 11 -113 11q-108 0 -141 -116h139v-71h-151q-1 -12 -1 -34q0 -30 1 -44h151v-71h-138q33 -116 140 -116q60 0 113 11v74h124v-170q-129 -39 -250 -39q-256 0 -299 240h-62v71z" />
    <glyph glyph-name="lira" unicode="&#x20a4;" horiz-adv-x="650" 
d="M14 301h53q-1 14 -1 44v34h-52v71h60q41 240 301 240q121 0 250 -39v-170h-124v74q-59 11 -113 11q-108 0 -141 -116h139v-71h-151q-1 -12 -1 -34q0 -30 1 -44h151v-71h-138q33 -116 140 -116q60 0 113 11v74h124v-170q-129 -39 -250 -39q-256 0 -299 240h-62v71z" />
    <glyph glyph-name="peseta" unicode="&#x20a7;" horiz-adv-x="650" 
d="M14 301h53q-1 14 -1 44v34h-52v71h60q41 240 301 240q121 0 250 -39v-170h-124v74q-59 11 -113 11q-108 0 -141 -116h139v-71h-151q-1 -12 -1 -34q0 -30 1 -44h151v-71h-138q33 -116 140 -116q60 0 113 11v74h124v-170q-129 -39 -250 -39q-256 0 -299 240h-62v71z" />
    <glyph glyph-name="Euro" unicode="&#x20ac;" horiz-adv-x="650" 
d="M14 301h53q-1 14 -1 44v34h-52v71h60q41 240 301 240q121 0 250 -39v-170h-124v74q-59 11 -113 11q-108 0 -141 -116h139v-71h-151q-1 -12 -1 -34q0 -30 1 -44h151v-71h-138q33 -116 140 -116q60 0 113 11v74h124v-170q-129 -39 -250 -39q-256 0 -299 240h-62v71z" />
    <glyph glyph-name="litre" unicode="&#x2113;" horiz-adv-x="449" 
d="M42 156l-12 11l94 99v243q0 102 40 151q42 50 100 50q44 0 70 -27t26 -72q0 -51 -31 -112q-31 -63 -129 -176v-168q0 -75 23 -106q22 -29 60 -29q35 0 64 29q32 29 54 103h18q-21 -83 -68 -127q-37 -35 -89 -35q-43 0 -77.5 24.5t-49.5 65.5q-11 33 -11 107v52zM200 543
v-193q134 155 134 242q0 41 -19 65t-48 24t-48 -28t-19 -110z" />
    <glyph glyph-name="afii61352" unicode="&#x2116;" horiz-adv-x="1044" 
d="M867 350q-81 0 -124 45t-43 125t43 125t124 45t124 -45t43 -125t-43 -125t-124 -45zM700 315h334v-89h-334v89zM867 432q63 0 63 88t-63 88t-63 -88t63 -88zM420 680h257v-124h-53v-556h-168l-242 380h-2v-256h58v-124h-258v124h54v432h-54v124h213l251 -397h2v273h-58
v124z" />
    <glyph glyph-name="trademark" unicode="&#x2122;" horiz-adv-x="800" 
d="M9 680h311v-102h-73v23h-38v-191h34v-74h-156v74h34v191h-38v-23h-74v102zM632 680h158v-74h-33v-196h33v-74h-156v74h29v127h-1l-73 -201h-63l-76 201h-1v-127h31v-74h-145v74h33v196h-33v74h159l72 -195z" />
    <glyph glyph-name="Omega" unicode="&#x2126;" horiz-adv-x="670" 
d="M335 690q148 0 228.5 -84t80.5 -216q0 -83 -43 -153.5t-128 -98.5v-32h171v-106h-277v201q54 14 81.5 57t27.5 132q0 167 -141 167t-141 -167q0 -89 27.5 -132t81.5 -57v-201h-277v106h171v32q-85 28 -128 98.5t-43 153.5q0 132 80.5 216t228.5 84z" />
    <glyph glyph-name="estimated" unicode="&#x212e;" horiz-adv-x="736" 
d="M706 349h-528v-235q81 -78 190 -78q163 0 252 157l46 -26q-64 -91 -130 -134q-67 -43 -168 -43q-153 0 -244 103q-94 100 -94 256q0 158 94 259q94 102 244 102q135 0 234 -91q98 -94 104 -270zM178 397h380v189q-82 77 -191 77q-110 0 -189 -77v-189z" />
    <glyph glyph-name="onethird" unicode="&#x2153;" horiz-adv-x="800" 
d="M594 680l-370 -680h-45l370 680h45zM193 405h51v-65h-181v65h52v202l-52 -1v55l93 22h37v-278zM491 20v72h65v-27q20 -5 49 -5q26 0 39 11.5t13 27.5q0 39 -57 39h-47v64h43q54 0 54 44q0 15 -12 24.5t-33 9.5q-22 0 -46 -6v-26h-65v72q55 25 125 25q46 0 77 -23.5
t31 -67.5q0 -52 -55 -75v-1q33 -9 49 -32t16 -52q0 -48 -33.5 -73.5t-94.5 -25.5q-64 0 -118 25z" />
    <glyph glyph-name="twothirds" unicode="&#x2154;" horiz-adv-x="800" 
d="M614 680l-370 -680h-45l370 680h45zM491 20v72h65v-27q20 -5 49 -5q26 0 39 11.5t13 27.5q0 39 -57 39h-47v64h43q54 0 54 44q0 15 -12 24.5t-33 9.5q-22 0 -46 -6v-26h-65v72q55 25 125 25q46 0 77 -23.5t31 -67.5q0 -52 -55 -75v-1q33 -9 49 -32t16 -52
q0 -48 -33.5 -73.5t-94.5 -25.5q-64 0 -118 25zM249 431h64v-91h-251v74q89 55 121.5 88.5t32.5 62.5q0 49 -54 49q-19 0 -35 -5v-21h-65v72q61 25 118 25q58 0 88 -29t30 -75q0 -49 -31.5 -88.5t-93.5 -82.5v-1h76v22z" />
    <glyph glyph-name="oneeighth" unicode="&#x215b;" horiz-adv-x="800" 
d="M594 680l-370 -680h-45l370 680h45zM193 405h51v-65h-181v65h52v202l-52 -1v55l93 22h37v-278zM675 180v-1q62 -34 62 -85q0 -50 -37.5 -74.5t-94.5 -24.5q-55 0 -91.5 22t-36.5 69q0 57 61 81v1q-51 30 -51 83q0 46 36 70t86 24q47 0 82.5 -23.5t35.5 -66.5
q0 -47 -52 -75zM557 94q0 -17 13.5 -29t39.5 -12q47 0 47 34q0 6 -2 11.5t-6.5 10.5t-8 8t-11 6.5t-11 5.5t-12.5 5t-11 4q-38 -15 -38 -44zM605 287q-17 0 -28.5 -10t-11.5 -23q0 -34 51 -47q33 13 33 42q0 16 -12 27t-32 11z" />
    <glyph glyph-name="threeeighths" unicode="&#x215c;" horiz-adv-x="800" 
d="M604 680l-370 -680h-45l370 680h45zM675 180v-1q62 -34 62 -85q0 -50 -37.5 -74.5t-94.5 -24.5q-55 0 -91.5 22t-36.5 69q0 57 61 81v1q-51 30 -51 83q0 46 36 70t86 24q47 0 82.5 -23.5t35.5 -66.5q0 -47 -52 -75zM557 94q0 -17 13.5 -29t39.5 -12q47 0 47 34
q0 6 -2 11.5t-6.5 10.5t-8 8t-11 6.5t-11 5.5t-12.5 5t-11 4q-38 -15 -38 -44zM605 287q-17 0 -28.5 -10t-11.5 -23q0 -34 51 -47q33 13 33 42q0 16 -12 27t-32 11zM62 360v72h65v-27q20 -5 49 -5q26 0 39 11.5t13 27.5q0 39 -57 39h-47v64h43q54 0 54 44q0 15 -11.5 24.5
t-33.5 9.5t-46 -6v-26h-65v72q56 25 125 25q46 0 77.5 -23.5t31.5 -67.5q0 -52 -56 -75v-1q66 -19 66 -84q0 -47 -34 -73t-94 -26q-64 0 -119 25z" />
    <glyph glyph-name="fiveeighths" unicode="&#x215d;" horiz-adv-x="800" 
d="M604 680l-370 -680h-45l370 680h45zM675 180v-1q62 -34 62 -85q0 -50 -37.5 -74.5t-94.5 -24.5q-55 0 -91.5 22t-36.5 69q0 57 61 81v1q-51 30 -51 83q0 46 36 70t86 24q47 0 82.5 -23.5t35.5 -66.5q0 -47 -52 -75zM557 94q0 -17 13.5 -29t39.5 -12q47 0 47 34
q0 6 -2 11.5t-6.5 10.5t-8 8t-11 6.5t-11 5.5t-12.5 5t-11 4q-38 -15 -38 -44zM605 287q-17 0 -28.5 -10t-11.5 -23q0 -34 51 -47q33 13 33 42q0 16 -12 27t-32 11zM298 680v-91h-64v22h-92l-3 -63h1q26 17 63 17q49 0 77.5 -28.5t28.5 -82.5q0 -58 -35 -88.5t-98 -30.5
q-56 0 -114 25v68h65v-24q20 -4 45 -4q27 0 40.5 14t13.5 35t-12 35.5t-39 14.5t-51 -18l-55 5l5 194h224z" />
    <glyph glyph-name="seveneighths" unicode="&#x215e;" horiz-adv-x="800" 
d="M563 680l-370 -680h-45l370 680h45zM675 180v-1q62 -34 62 -85q0 -50 -37.5 -74.5t-94.5 -24.5q-55 0 -91.5 22t-36.5 69q0 57 61 81v1q-51 30 -51 83q0 46 36 70t86 24q47 0 82.5 -23.5t35.5 -66.5q0 -47 -52 -75zM557 94q0 -17 13.5 -29t39.5 -12q47 0 47 34
q0 6 -2 11.5t-6.5 10.5t-8 8t-11 6.5t-11 5.5t-12.5 5t-11 4q-38 -15 -38 -44zM605 287q-17 0 -28.5 -10t-11.5 -23q0 -34 51 -47q33 13 33 42q0 16 -12 27t-32 11zM62 680h231v-55q-29 -52 -45.5 -84.5t-35.5 -87.5t-28 -113h-87q11 64 41 137.5t69 132.5v1h-81v-22h-64v91
z" />
    <glyph glyph-name="partialdiff" unicode="&#x2202;" horiz-adv-x="573" 
d="M398 393l3 1q12 85 -32 128.5t-110 43.5q-67 0 -147 -29l-1 115q94 38 179 38q301 0 248 -390q-19 -132 -96 -221t-205 -89q-108 0 -165.5 61.5t-42.5 168.5q16 112 80.5 173.5t162.5 61.5q81 0 126 -62zM372 284q-36 41 -79 41q-50 0 -75 -31t-30 -74q-7 -50 14 -78
t60 -28q57 0 82.5 49t27.5 121z" />
    <glyph glyph-name="Delta" unicode="&#x2206;" horiz-adv-x="628" 
d="M294 710l284 -710h-528zM265 479l-142 -417h302z" />
    <glyph glyph-name="product" unicode="&#x220f;" horiz-adv-x="680" 
d="M401 124h54v432h-230v-432h54v-124h-267v124h54v432h-54v124h655v-124h-53v-432h53v-124h-266v124z" />
    <glyph glyph-name="summation" unicode="&#x2211;" horiz-adv-x="520" 
d="M495 179v-179h-480v115l149 225l-149 225v115h480v-179h-124v55h-158v-2l150 -214l-149 -214v-2h157v55h124z" />
    <glyph glyph-name="minus" unicode="&#x2212;" horiz-adv-x="500" 
d="M36 327h428v-124h-428v124z" />
    <glyph glyph-name="uni2215" unicode="&#x2215;" horiz-adv-x="540" 
d="M521 680l-370 -680h-132l370 680h132z" />
    <glyph glyph-name="uni2219" unicode="&#x2219;" horiz-adv-x="222" 
d="M36 326h150v-152h-150v152z" />
    <glyph glyph-name="radical" unicode="&#x221a;" horiz-adv-x="800" 
d="M56 301v89h299l67 -231h2l162 541h159l-234 -705h-184l-109 306h-162z" />
    <glyph glyph-name="infinity" unicode="&#x221e;" horiz-adv-x="679" 
d="M180 184q31 0 59 19.5t44 44.5q-16 23 -45.5 42.5t-55.5 19.5q-32 0 -48 -18t-16 -44q0 -27 15 -45.5t47 -18.5zM335 189q-23 -34 -67.5 -61t-99.5 -27q-65 0 -104.5 41.5t-39.5 107.5t41.5 107.5t114.5 41.5q54 0 91 -22t75 -64q67 86 165 86q65 0 104.5 -41.5
t39.5 -107.5q0 -62 -42.5 -105.5t-112.5 -43.5q-47 0 -86 18.5t-79 69.5zM499 315q-59 0 -103 -65q14 -23 44.5 -42t58.5 -19q30 0 46 18t16 44q0 27 -15 45.5t-47 18.5z" />
    <glyph glyph-name="integral" unicode="&#x222b;" horiz-adv-x="360" 
d="M105 -32v581q0 79 38 115.5t126 36.5q39 0 91 -9l-13 -115q-28 5 -43 5q-27 0 -38 -14.5t-11 -44.5v-556q0 -86 -35.5 -131.5t-128.5 -45.5q-39 0 -91 9l13 115q28 -5 43 -5q27 0 38 14.5t11 44.5z" />
    <glyph glyph-name="approxequal" unicode="&#x2248;" horiz-adv-x="500" 
d="M166 334q-30 0 -67 -39l-46 36q23 54 51.5 79.5t57.5 25.5q27 0 97.5 -20t85.5 -20q30 0 49 15q8 6 16 15l37 -45q-34 -71 -83 -81q-7 -2 -22 -2q-19 1 -88 18.5t-88 17.5zM166 134q-30 0 -67 -39l-46 36q23 54 51.5 79.5t57.5 25.5q27 0 97.5 -20t85.5 -20q30 0 49 15
q8 6 16 15l37 -45q-34 -71 -83 -81q-7 -2 -22 -2q-19 1 -88 18.5t-88 17.5z" />
    <glyph glyph-name="notequal" unicode="&#x2260;" horiz-adv-x="500" 
d="M36 227h161l42 76h-203v124h270l98 178h62l-97 -178h95v-124h-162l-42 -76h204v-124h-271l-97 -178h-62l96 178h-94v124z" />
    <glyph glyph-name="lessequal" unicode="&#x2264;" horiz-adv-x="480" 
d="M36 344l408 161v-106l-249 -90l249 -90v-107l-408 161v71zM36 95h408v-89h-408v89z" />
    <glyph glyph-name="greaterequal" unicode="&#x2265;" horiz-adv-x="480" 
d="M36 505l408 -161v-71l-408 -161v107l249 90l-249 90v106zM36 95h408v-89h-408v89z" />
    <glyph glyph-name="lozenge" unicode="&#x25ca;" horiz-adv-x="472" 
d="M229 -30l-199 374l199 374h14l199 -374l-199 -374h-14zM151 344l85 -158l85 158l-85 158z" />
    <glyph glyph-name="undercommaaccent" unicode="&#xf005;" horiz-adv-x="230" 
d="M115 -265h-45l27 101h-61v124h150v-124z" />
    <glyph glyph-name="Abreve.small" unicode="&#xf66d;" horiz-adv-x="639" 
d="M320 729q68 0 91 61h59q-17 -146 -150 -146t-150 146h60q10 -29 34.5 -45t55.5 -16zM127 585h299l149 -466h50v-119h-265v119h48l-16 58h-153l-18 -58h49v-119h-256v119h56l113 347h-56v119zM321 440h-2l-49 -153h95z" />
    <glyph glyph-name="Amacron.small" unicode="&#xf66e;" horiz-adv-x="639" 
d="M185 752h272v-106h-272v106zM127 585h299l149 -466h50v-119h-265v119h48l-16 58h-153l-18 -58h49v-119h-256v119h56l113 347h-56v119zM321 440h-2l-49 -153h95z" />
    <glyph glyph-name="AEacute.small" unicode="&#xf670;" horiz-adv-x="833" 
d="M240 466h-58v119h626v-164h-120v45h-161v-105h236v-120h-236v-122h161v44h120v-163h-437v118h-153l-55 -118h-150v119h56zM370 448l-96 -211h97v211h-1zM588 780l-97 -140h-80l53 140h124z" />
    <glyph glyph-name="Cacute.small" unicode="&#xf671;" horiz-adv-x="558" 
d="M413 179h120v-154q-118 -35 -227 -35q-282 0 -282 307q0 139 64 218.5t218 79.5q112 0 227 -34v-155h-120v62q-53 8 -94 8q-66 0 -98.5 -47.5t-32.5 -131.5q0 -188 131 -188q44 0 94 10v60zM457 780l-97 -140h-80l53 140h124z" />
    <glyph glyph-name="Ccaron.small" unicode="&#xf672;" horiz-adv-x="558" 
d="M413 179h120v-154q-118 -35 -227 -35q-282 0 -282 307q0 139 64 218.5t218 79.5q112 0 227 -34v-155h-120v62q-53 8 -94 8q-66 0 -98.5 -47.5t-32.5 -131.5q0 -188 131 -188q44 0 94 10v60zM253 780l74 -58l74 58h80l-109 -140h-90l-109 140h80z" />
    <glyph glyph-name="Ccircumflex.small" unicode="&#xf673;" horiz-adv-x="558" 
d="M413 179h120v-154q-118 -35 -227 -35q-282 0 -282 307q0 139 64 218.5t218 79.5q112 0 227 -34v-155h-120v62q-53 8 -94 8q-66 0 -98.5 -47.5t-32.5 -131.5q0 -188 131 -188q44 0 94 10v60zM318 688l-74 -58h-80l109 140h90l109 -140h-80z" />
    <glyph glyph-name="Cdotaccent.small" unicode="&#xf674;" horiz-adv-x="558" 
d="M413 179h120v-154q-118 -35 -227 -35q-282 0 -282 307q0 139 64 218.5t218 79.5q112 0 227 -34v-155h-120v62q-53 8 -94 8q-66 0 -98.5 -47.5t-32.5 -131.5q0 -188 131 -188q44 0 94 10v60zM251 780h133v-135h-133v135z" />
    <glyph glyph-name="Dcaron.small" unicode="&#xf675;" horiz-adv-x="603" 
d="M14 585h283q154 0 217.5 -75.5t63.5 -212.5q0 -139 -64 -218t-217 -79h-283v119h46v347h-46v119zM216 119h81q69 0 93.5 44t24.5 134q0 88 -24.5 128.5t-93.5 40.5h-81v-347zM217 780l74 -58l74 58h80l-109 -140h-90l-109 140h80z" />
    <glyph glyph-name="Ebreve.small" unicode="&#xf677;" horiz-adv-x="522" 
d="M14 585h483v-164h-120v45h-161v-105h236v-120h-236v-122h161v45h120v-164h-483v119h46v347h-46v119zM273 729q68 0 91 61h59q-17 -146 -150 -146t-150 146h60q10 -29 34.5 -45t55.5 -16z" />
    <glyph glyph-name="Ecaron.small" unicode="&#xf678;" horiz-adv-x="522" 
d="M14 585h483v-164h-120v45h-161v-105h236v-120h-236v-122h161v45h120v-164h-483v119h46v347h-46v119zM196 780l74 -58l74 58h80l-109 -140h-90l-109 140h80z" />
    <glyph glyph-name="Edotaccent.small" unicode="&#xf679;" horiz-adv-x="522" 
d="M14 585h483v-164h-120v45h-161v-105h236v-120h-236v-122h161v45h120v-164h-483v119h46v347h-46v119zM196 780h133v-135h-133v135z" />
    <glyph glyph-name="Emacron.small" unicode="&#xf67a;" horiz-adv-x="522" 
d="M14 585h483v-164h-120v45h-161v-105h236v-120h-236v-122h161v45h120v-164h-483v119h46v347h-46v119zM136 752h272v-106h-272v106z" />
    <glyph glyph-name="Gbreve.small" unicode="&#xf67d;" horiz-adv-x="567" 
d="M188 297q0 -179 131 -179q29 0 60 10v61h-76v119h230v-283q-117 -35 -227 -35q-282 0 -282 307q0 139 64 218.5t218 79.5q112 0 227 -34v-155h-120v62q-53 8 -94 8q-66 0 -98.5 -47.5t-32.5 -131.5zM319 729q68 0 91 61h59q-17 -146 -150 -146t-150 146h60
q10 -29 34.5 -45t55.5 -16z" />
    <glyph glyph-name="Gcircumflex.small" unicode="&#xf67e;" horiz-adv-x="567" 
d="M188 297q0 -179 131 -179q29 0 60 10v61h-76v119h230v-283q-117 -35 -227 -35q-282 0 -282 307q0 139 64 218.5t218 79.5q112 0 227 -34v-155h-120v62q-53 8 -94 8q-66 0 -98.5 -47.5t-32.5 -131.5zM319 688l-74 -58h-80l109 140h90l109 -140h-80z" />
    <glyph glyph-name="Gcommaaccent.small" unicode="&#xf67f;" horiz-adv-x="567" 
d="M188 297q0 -179 131 -179q29 0 60 10v61h-76v119h230v-283q-117 -35 -227 -35q-282 0 -282 307q0 139 64 218.5t218 79.5q112 0 227 -34v-155h-120v62q-53 8 -94 8q-66 0 -98.5 -47.5t-32.5 -131.5zM318 -265h-45l27 101h-61v124h150v-124z" />
    <glyph glyph-name="Gdotaccent.small" unicode="&#xf680;" horiz-adv-x="567" 
d="M188 297q0 -179 131 -179q29 0 60 10v61h-76v119h230v-283q-117 -35 -227 -35q-282 0 -282 307q0 139 64 218.5t218 79.5q112 0 227 -34v-155h-120v62q-53 8 -94 8q-66 0 -98.5 -47.5t-32.5 -131.5zM250 780h133v-135h-133v135z" />
    <glyph glyph-name="Hcircumflex.small" unicode="&#xf682;" horiz-adv-x="621" 
d="M359 119h46v122h-189v-122h45v-119h-247v119h46v347h-46v119h247v-119h-45v-105h189v105h-46v119h248v-119h-47v-347h47v-119h-248v119zM317 688l-74 -58h-80l109 140h90l109 -140h-80z" />
    <glyph glyph-name="Ibreve.small" unicode="&#xf683;" horiz-adv-x="275" 
d="M14 119h46v347h-46v119h247v-119h-45v-347h45v-119h-247v119zM137 729q68 0 91 61h59q-17 -146 -150 -146t-150 146h60q10 -29 34.5 -45t55.5 -16z" />
    <glyph glyph-name="Imacron.small" unicode="&#xf685;" horiz-adv-x="275" 
d="M14 119h46v347h-46v119h247v-119h-45v-347h45v-119h-247v119zM1 752h272v-106h-272v106z" />
    <glyph glyph-name="Itilde.small" unicode="&#xf687;" horiz-adv-x="275" 
d="M14 119h46v347h-46v119h247v-119h-45v-347h45v-119h-247v119zM78 674q-30 0 -67 -39l-46 36q23 54 51.5 79.5t57.5 25.5q27 0 72.5 -20t60.5 -20q30 0 49 15q8 6 16 15l37 -45q-34 -71 -83 -81q-7 -2 -22 -2q-18 1 -62.5 18.5t-63.5 17.5z" />
    <glyph glyph-name="Jcircumflex.small" unicode="&#xf688;" horiz-adv-x="356" 
d="M95 585h247v-119h-45v-303q0 -88 -47 -130.5t-131 -42.5q-58 0 -105 9l13 119q34 -4 50 -4q64 0 64 49v303h-46v119zM216 688l-74 -58h-80l109 140h90l109 -140h-80z" />
    <glyph glyph-name="Kcommaaccent.small" unicode="&#xf689;" horiz-adv-x="621" 
d="M14 585h247v-119h-45v-150l148 150h-33v119h267v-119h-48l-152 -139l169 -208h40v-119h-275v119h34l-84 107l-66 -64v-43h45v-119h-247v119h46v347h-46v119zM305 -265h-45l27 101h-61v124h150v-124z" />
    <glyph glyph-name="Lacute.small" unicode="&#xf68a;" horiz-adv-x="504" 
d="M368 164h120v-164h-474v119h46v347h-46v119h247v-119h-45v-347h152v45zM271 780l-97 -140h-80l53 140h124z" />
    <glyph glyph-name="Lcaron.small" unicode="&#xf68b;" horiz-adv-x="504" 
d="M368 164h120v-164h-474v119h46v347h-46v119h247v-119h-45v-347h152v45zM386 360h-45l27 101h-61v124h150v-124z" />
    <glyph glyph-name="Lcommaaccent.small" unicode="&#xf68c;" horiz-adv-x="504" 
d="M368 164h120v-164h-474v119h46v347h-46v119h247v-119h-45v-347h152v45zM274 -265h-45l27 101h-61v124h150v-124z" />
    <glyph glyph-name="Ldot.small" unicode="&#xf68d;" horiz-adv-x="504" 
d="M368 164h120v-164h-474v119h46v347h-46v119h247v-119h-45v-347h152v45zM287 399h133v-135h-133v135z" />
    <glyph glyph-name="Nacute.small" unicode="&#xf68e;" horiz-adv-x="630" 
d="M377 585h239v-119h-47v-466h-137l-227 322l-2 -9v-194h50v-119h-239v119h46v347h-46v119h175l236 -338l2 8v211h-50v119zM465 780l-97 -140h-80l53 140h124z" />
    <glyph glyph-name="Ncaron.small" unicode="&#xf68f;" horiz-adv-x="630" 
d="M377 585h239v-119h-47v-466h-137l-227 322l-2 -9v-194h50v-119h-239v119h46v347h-46v119h175l236 -338l2 8v211h-50v119zM242 780l74 -58l74 58h80l-109 -140h-90l-109 140h80z" />
    <glyph glyph-name="Ncommaaccent.small" unicode="&#xf690;" horiz-adv-x="630" 
d="M377 585h239v-119h-47v-466h-137l-227 322l-2 -9v-194h50v-119h-239v119h46v347h-46v119h175l236 -338l2 8v211h-50v119zM316 -265h-45l27 101h-61v124h150v-124z" />
    <glyph glyph-name="Obreve.small" unicode="&#xf691;" horiz-adv-x="612" 
d="M306 476q-70 0 -94 -44.5t-24 -134.5q0 -92 24.5 -140t93.5 -48q36 0 60 13.5t36.5 40.5t17 58.5t4.5 75.5q0 90 -24.5 134.5t-93.5 44.5zM306 -10q-282 0 -282 307q0 139 64 218.5t218 79.5q80 0 136 -22.5t87 -64.5t44.5 -93t13.5 -118q0 -307 -281 -307zM305 729
q68 0 91 61h59q-17 -146 -150 -146t-150 146h60q10 -29 34.5 -45t55.5 -16z" />
    <glyph glyph-name="Ohungarumlaut.small" unicode="&#xf692;" horiz-adv-x="612" 
d="M306 476q-70 0 -94 -44.5t-24 -134.5q0 -92 24.5 -140t93.5 -48q36 0 60 13.5t36.5 40.5t17 58.5t4.5 75.5q0 90 -24.5 134.5t-93.5 44.5zM306 -10q-282 0 -282 307q0 139 64 218.5t218 79.5q80 0 136 -22.5t87 -64.5t44.5 -93t13.5 -118q0 -307 -281 -307zM361 780
l-97 -140h-80l53 140h124zM531 780l-97 -140h-80l53 140h124z" />
    <glyph glyph-name="Omacron.small" unicode="&#xf693;" horiz-adv-x="612" 
d="M306 476q-70 0 -94 -44.5t-24 -134.5q0 -92 24.5 -140t93.5 -48q36 0 60 13.5t36.5 40.5t17 58.5t4.5 75.5q0 90 -24.5 134.5t-93.5 44.5zM306 -10q-282 0 -282 307q0 139 64 218.5t218 79.5q80 0 136 -22.5t87 -64.5t44.5 -93t13.5 -118q0 -307 -281 -307zM169 752h272
v-106h-272v106z" />
    <glyph glyph-name="Oslashacute.small" unicode="&#xf694;" horiz-adv-x="612" 
d="M458 780l-97 -140h-80l53 140h124zM306 -10q-108 0 -179 48l-60 -72l-44 34l63 75q-62 77 -62 222q0 139 64 218.5t218 79.5q102 0 174 -43l64 77l44 -34l-67 -79q66 -73 66 -219q0 -307 -281 -307zM306 118q69 0 93.5 44.5t24.5 134.5q0 52 -10 86l-195 -230
q29 -35 87 -35zM306 468q-70 0 -94 -41t-24 -130q0 -56 7 -85l194 227q-29 29 -83 29z" />
    <glyph glyph-name="Racute.small" unicode="&#xf695;" 
d="M406 780l-97 -140h-80l53 140h124zM14 585h315q102 0 157.5 -48.5t55.5 -140.5q0 -58 -27 -101t-75 -62l102 -114h38v-119h-261v119h44l-76 88h-71v-88h43v-119h-245v119h46v347h-46v119zM216 466v-139h95q72 0 72 69q0 36 -20 53t-51 17h-96z" />
    <glyph glyph-name="Rcaron.small" unicode="&#xf696;" 
d="M216 780l74 -58l74 58h80l-109 -140h-90l-109 140h80zM14 585h315q102 0 157.5 -48.5t55.5 -140.5q0 -58 -27 -101t-75 -62l102 -114h38v-119h-261v119h44l-76 88h-71v-88h43v-119h-245v119h46v347h-46v119zM216 466v-139h95q72 0 72 69q0 36 -20 53t-51 17h-96z" />
    <glyph glyph-name="Rcommaaccent.small" unicode="&#xf697;" 
d="M296 -265h-45l27 101h-61v124h150v-124zM14 585h315q102 0 157.5 -48.5t55.5 -140.5q0 -58 -27 -101t-75 -62l102 -114h38v-119h-261v119h44l-76 88h-71v-88h43v-119h-245v119h46v347h-46v119zM216 466v-139h95q72 0 72 69q0 36 -20 53t-51 17h-96z" />
    <glyph glyph-name="Sacute.small" unicode="&#xf698;" horiz-adv-x="531" 
d="M24 188h121v-56q79 -14 120 -14q78 0 78 45q0 8 -3 15t-10.5 12.5t-14.5 9.5t-21.5 8.5l-24 7.5t-29 8l-30.5 8q-185 53 -185 190q0 87 65.5 130t166.5 43q107 0 223 -34v-164h-121v62q-66 9 -102 9q-31 0 -49.5 -11.5t-18.5 -30.5q0 -22 29.5 -36t94.5 -29
q193 -43 193 -181q0 -95 -66.5 -142.5t-174.5 -47.5q-118 0 -241 36v162zM400 780l-97 -140h-80l53 140h124z" />
    <glyph glyph-name="Scircumflex.small" unicode="&#xf69a;" horiz-adv-x="531" 
d="M24 188h121v-56q79 -14 120 -14q78 0 78 45q0 8 -3 15t-10.5 12.5t-14.5 9.5t-21.5 8.5l-24 7.5t-29 8l-30.5 8q-185 53 -185 190q0 87 65.5 130t166.5 43q107 0 223 -34v-164h-121v62q-66 9 -102 9q-31 0 -49.5 -11.5t-18.5 -30.5q0 -22 29.5 -36t94.5 -29
q193 -43 193 -181q0 -95 -66.5 -142.5t-174.5 -47.5q-118 0 -241 36v162zM277 688l-74 -58h-80l109 140h90l109 -140h-80z" />
    <glyph glyph-name="Scommaaccent.small" unicode="&#xf69b;" horiz-adv-x="531" 
d="M24 188h121v-56q79 -14 120 -14q78 0 78 45q0 8 -3 15t-10.5 12.5t-14.5 9.5t-21.5 8.5l-24 7.5t-29 8l-30.5 8q-185 53 -185 190q0 87 65.5 130t166.5 43q107 0 223 -34v-164h-121v62q-66 9 -102 9q-31 0 -49.5 -11.5t-18.5 -30.5q0 -22 29.5 -36t94.5 -29
q193 -43 193 -181q0 -95 -66.5 -142.5t-174.5 -47.5q-118 0 -241 36v162zM277 -265h-45l27 101h-61v124h150v-124z" />
    <glyph glyph-name="Tcaron.small" unicode="&#xf69d;" horiz-adv-x="531" 
d="M16 585h499v-164h-121v45h-51v-347h46v-119h-247v119h46v347h-51v-45h-121v164zM191 780l74 -58l74 58h80l-109 -140h-90l-109 140h80z" />
    <glyph glyph-name="Tcommaaccent.small" unicode="&#xf69e;" horiz-adv-x="531" 
d="M16 585h499v-164h-121v45h-51v-347h46v-119h-247v119h46v347h-51v-45h-121v164zM269 -265h-45l27 101h-61v124h150v-124z" />
    <glyph glyph-name="Ubreve.small" unicode="&#xf69f;" horiz-adv-x="621" 
d="M359 585h248v-119h-47v-260q0 -111 -67.5 -163.5t-182.5 -52.5t-182.5 52.5t-67.5 163.5v260h-46v119h247v-119h-45v-260q0 -97 95 -97q94 0 94 97v260h-46v119zM310 729q68 0 91 61h59q-17 -146 -150 -146t-150 146h60q10 -29 34.5 -45t55.5 -16z" />
    <glyph glyph-name="Uhungarumlaut.small" unicode="&#xf6a0;" horiz-adv-x="621" 
d="M359 585h248v-119h-47v-260q0 -111 -67.5 -163.5t-182.5 -52.5t-182.5 52.5t-67.5 163.5v260h-46v119h247v-119h-45v-260q0 -97 95 -97q94 0 94 97v260h-46v119zM376 780l-97 -140h-80l53 140h124zM546 780l-97 -140h-80l53 140h124z" />
    <glyph glyph-name="Umacron.small" unicode="&#xf6a1;" horiz-adv-x="621" 
d="M359 585h248v-119h-47v-260q0 -111 -67.5 -163.5t-182.5 -52.5t-182.5 52.5t-67.5 163.5v260h-46v119h247v-119h-45v-260q0 -97 95 -97q94 0 94 97v260h-46v119zM174 752h272v-106h-272v106z" />
    <glyph glyph-name="Uring.small" unicode="&#xf6a3;" horiz-adv-x="621" 
d="M359 585h248v-119h-47v-260q0 -111 -67.5 -163.5t-182.5 -52.5t-182.5 52.5t-67.5 163.5v260h-46v119h247v-119h-45v-260q0 -97 95 -97q94 0 94 97v260h-46v119zM212 730q0 40 29 69t69 29t69 -29t29 -69t-29 -69t-69 -29t-69 29t-29 69zM267 730q0 -18 12.5 -30.5
t30.5 -12.5t30.5 12.5t12.5 30.5t-12.5 30.5t-30.5 12.5t-30.5 -12.5t-12.5 -30.5z" />
    <glyph glyph-name="Utilde.small" unicode="&#xf6a4;" horiz-adv-x="621" 
d="M359 585h248v-119h-47v-260q0 -111 -67.5 -163.5t-182.5 -52.5t-182.5 52.5t-67.5 163.5v260h-46v119h247v-119h-45v-260q0 -97 95 -97q94 0 94 97v260h-46v119zM251 674q-30 0 -67 -39l-46 36q23 54 51.5 79.5t57.5 25.5q27 0 72.5 -20t60.5 -20q30 0 49 15q8 6 16 15
l37 -45q-34 -71 -83 -81q-7 -2 -22 -2q-18 1 -62.5 18.5t-63.5 17.5z" />
    <glyph glyph-name="Wacute.small" unicode="&#xf6a5;" horiz-adv-x="891" 
d="M14 585h265v-119h-56l67 -287h1l85 406h164l93 -406h1l60 287h-57v119h240v-119h-44l-108 -470h-203l-74 316h-2l-69 -316h-202l-118 470h-43v119zM590 780l-97 -140h-80l53 140h124z" />
    <glyph glyph-name="Wcircumflex.small" unicode="&#xf6a6;" horiz-adv-x="891" 
d="M14 585h265v-119h-56l67 -287h1l85 406h164l93 -406h1l60 287h-57v119h240v-119h-44l-108 -470h-203l-74 316h-2l-69 -316h-202l-118 470h-43v119zM445 688l-74 -58h-80l109 140h90l109 -140h-80z" />
    <glyph glyph-name="Wdieresis.small" unicode="&#xf6a7;" horiz-adv-x="891" 
d="M14 585h265v-119h-56l67 -287h1l85 406h164l93 -406h1l60 287h-57v119h240v-119h-44l-108 -470h-203l-74 316h-2l-69 -316h-202l-118 470h-43v119zM261 780h133v-135h-133v135zM496 780h133v-135h-133v135z" />
    <glyph glyph-name="Wgrave.small" unicode="&#xf6a8;" horiz-adv-x="891" 
d="M14 585h265v-119h-56l67 -287h1l85 406h164l93 -406h1l60 287h-57v119h240v-119h-44l-108 -470h-203l-74 316h-2l-69 -316h-202l-118 470h-43v119zM406 640l-97 140h124l53 -140h-80z" />
    <glyph glyph-name="Ycircumflex.small" unicode="&#xf6a9;" horiz-adv-x="603" 
d="M379 119h46v-119h-247v119h46v58l-159 289h-51v119h274v-119h-50l75 -154h2l71 154h-46v119h249v-119h-48l-162 -289v-58zM301 688l-74 -58h-80l109 140h90l109 -140h-80z" />
    <glyph glyph-name="Ygrave.small" unicode="&#xf6aa;" horiz-adv-x="603" 
d="M379 119h46v-119h-247v119h46v58l-159 289h-51v119h274v-119h-50l75 -154h2l71 154h-46v119h249v-119h-48l-162 -289v-58zM266 640l-97 140h124l53 -140h-80z" />
    <glyph glyph-name="Zacute.small" unicode="&#xf6ab;" horiz-adv-x="513" 
d="M42 585h437v-111l-266 -353v-2h155v44h121v-163h-465v111l271 353v1h-133v-44h-120v164zM386 780l-97 -140h-80l53 140h124z" />
    <glyph glyph-name="Zdotaccent.small" unicode="&#xf6ac;" horiz-adv-x="513" 
d="M42 585h437v-111l-266 -353v-2h155v44h121v-163h-465v111l271 353v1h-133v-44h-120v164zM190 780h133v-135h-133v135z" />
    <glyph glyph-name="Idotaccent.small" unicode="&#xf6ad;" horiz-adv-x="275" 
d="M14 119h46v347h-46v119h247v-119h-45v-347h45v-119h-247v119zM71 780h133v-135h-133v135z" />
    <glyph glyph-name="dotlessj" unicode="&#xf6be;" horiz-adv-x="262" 
d="M12 376v124h214v-556q0 -79 -35 -116.5t-129 -37.5q-39 0 -91 9l14 115q27 -5 42 -5q28 0 38.5 9.5t10.5 36.5v421h-64z" />
    <glyph glyph-name="commaaccent" unicode="&#xf6c3;" horiz-adv-x="230" 
d="M115 -265h-45l27 101h-61v124h150v-124z" />
    <glyph glyph-name="Acute" unicode="&#xf6c9;" horiz-adv-x="290" 
d="M231 870l-97 -140h-80l53 140h124z" />
    <glyph glyph-name="Caron" unicode="&#xf6ca;" horiz-adv-x="420" 
d="M136 870l74 -58l74 58h80l-109 -140h-90l-109 140h80z" />
    <glyph glyph-name="Dieresis" unicode="&#xf6cb;" horiz-adv-x="480" 
d="M56 870h133v-135h-133v135zM291 870h133v-135h-133v135z" />
    <glyph glyph-name="DieresisAcute" unicode="&#xf6cc;" horiz-adv-x="630" 
d="M411 900l-107 -170h-80l54 170h133zM56 870h133v-135h-133v135zM436 870h133v-135h-133v135z" />
    <glyph glyph-name="DieresisGrave" unicode="&#xf6cd;" horiz-adv-x="630" 
d="M324 730l-107 170h133l54 -170h-80zM436 870h133v-135h-133v135zM56 870h133v-135h-133v135z" />
    <glyph glyph-name="Grave" unicode="&#xf6ce;" horiz-adv-x="290" 
d="M155 730l-97 140h124l53 -140h-80z" />
    <glyph glyph-name="Hungarumlaut" unicode="&#xf6cf;" horiz-adv-x="460" 
d="M231 870l-97 -140h-80l53 140h124zM401 870l-97 -140h-80l53 140h124z" />
    <glyph glyph-name="Macron" unicode="&#xf6d0;" horiz-adv-x="380" 
d="M54 842h272v-106h-272v106z" />
    <glyph glyph-name="cyrBreve" unicode="&#xf6d1;" horiz-adv-x="408" 
d="M204 819q68 0 91 61h59q-17 -146 -150 -146t-150 146h60q10 -29 34.5 -45t55.5 -16z" />
    <glyph glyph-name="cyrFlex" unicode="&#xf6d2;" horiz-adv-x="420" 
d="M210 788l-74 -58h-80l109 140h90l109 -140h-80z" />
    <glyph glyph-name="dblGrave" unicode="&#xf6d3;" horiz-adv-x="460" 
d="M325 730l-97 140h125l52 -140h-80zM155 730l-97 140h125l52 -140h-80z" />
    <glyph glyph-name="cyrbreve" unicode="&#xf6d4;" horiz-adv-x="408" 
d="M204 649q68 0 91 61h59q-17 -146 -150 -146t-150 146h60q10 -29 34.5 -45t55.5 -16z" />
    <glyph glyph-name="cyrflex" unicode="&#xf6d5;" horiz-adv-x="420" 
d="M210 618l-74 -58h-80l109 140h90l109 -140h-80z" />
    <glyph glyph-name="dblgrave" unicode="&#xf6d6;" horiz-adv-x="460" 
d="M325 560l-97 140h125l52 -140h-80zM155 560l-97 140h125l52 -140h-80z" />
    <glyph glyph-name="dieresisacute" unicode="&#xf6d7;" horiz-adv-x="630" 
d="M411 730l-107 -170h-80l54 170h133zM56 700h133v-135h-133v135zM436 700h133v-135h-133v135z" />
    <glyph glyph-name="dieresisgrave" unicode="&#xf6d8;" horiz-adv-x="630" 
d="M324 560l-107 170h133l54 -170h-80zM436 700h133v-135h-133v135zM56 700h133v-135h-133v135z" />
    <glyph glyph-name="rupiah" unicode="&#xf6dd;" horiz-adv-x="1170" 
d="M630 376v124h204v-50h2q23 27 59.5 43.5t74.5 16.5q181 0 181 -260q0 -75 -17.5 -131t-61.5 -92.5t-111 -36.5q-77 0 -125 56h-2v-122h53v-124h-257v124h54v76h-323v124h32l-93 125h-75v-125h54v-124h-267v124h54v432h-54v124h349q110 0 171.5 -56t61.5 -160
q0 -68 -31.5 -118.5t-87.5 -70.5l119 -151h90v252h-54zM992 250q0 136 -83 136q-43 0 -75 -25v-222q32 -25 75 -25q83 0 83 136zM225 556v-184h117q39 0 64 23t25 69t-24 69t-63 23h-119z" />
    <glyph glyph-name="threequartersemdash" unicode="&#xf6de;" horiz-adv-x="700" 
d="M36 327h628v-124h-628v124z" />
    <glyph glyph-name="asuperior" unicode="&#xf6e9;" horiz-adv-x="277" 
d="M92 598h-64v74q60 13 108 13q53 0 78 -18t25 -66v-106h26v-65h-105v25h-1q-24 -25 -51 -28q-14 -2 -22 -2q-28 1 -46.5 16.5t-23.5 39.5q-3 12 -3 25q1 42 32.5 59.5t71.5 17.5h43v13q0 15 -10 19.5t-32 4.5q-16 0 -26 -1v-21zM160 497v40h-29q-20 0 -30 -5t-10 -22
q0 -13 9 -19.5t21 -6.5q24 0 39 13z" />
    <glyph glyph-name="bsuperior" unicode="&#xf6ea;" horiz-adv-x="287" 
d="M12 715v65h104v-125h1q25 30 66 30q91 0 91 -130q0 -58 -23 -94t-72 -36q-39 0 -66 27h-1l-14 -22h-86v65h26v220h-26zM192 555q0 65 -40 65q-22 0 -36 -12v-106q14 -12 36 -12q40 0 40 65z" />
    <glyph glyph-name="dsuperior" unicode="&#xf6eb;" horiz-adv-x="287" 
d="M143 715v65h105v-285h26v-65h-104v25h-1q-26 -30 -66 -30q-91 0 -91 130q0 58 23 94t72 36q38 0 62 -27h1v57h-27zM95 555q0 -65 40 -65q21 0 35 12v106q-14 12 -35 12q-40 0 -40 -65z" />
    <glyph glyph-name="esuperior" unicode="&#xf6ec;" horiz-adv-x="268" 
d="M252 537h-155q5 -47 60 -47q44 0 78 10l9 -62q-41 -13 -98 -13q-134 0 -134 130t133 130q52 0 78.5 -21t29.5 -53.5t-1 -73.5zM141 625q-38 0 -44 -40h78q5 40 -34 40z" />
    <glyph glyph-name="isuperior" unicode="&#xf6ed;" horiz-adv-x="156" 
d="M12 615v65h104v-185h27v-65h-131v65h26v120h-26zM38 780h78v-73h-78v73z" />
    <glyph glyph-name="lsuperior" unicode="&#xf6ee;" horiz-adv-x="156" 
d="M12 715v65h104v-285h27v-65h-131v65h26v220h-26z" />
    <glyph glyph-name="msuperior" unicode="&#xf6ef;" horiz-adv-x="457" 
d="M168 430v65h21v91q-1 34 -33 34q-16 0 -40 -13v-112h22v-65h-126v65h26v120h-26v65h104v-31h1q25 29 56 33q11 3 22 3q46 -1 64 -40q36 40 85 40q37 0 56 -22.5t19 -61.5v-106h26v-65h-125v65h21v87q0 38 -34 38q-17 0 -39 -13v-21v-91h22v-65h-122z" />
    <glyph glyph-name="osuperior" unicode="&#xf6f0;" horiz-adv-x="276" 
d="M138 620q-24 0 -33.5 -16t-9.5 -49t9.5 -49t33.5 -16t33.5 16t9.5 49t-9.5 49t-33.5 16zM138 425q-126 0 -126 130t126 130q125 0 125 -130t-125 -130z" />
    <glyph glyph-name="rsuperior" unicode="&#xf6f1;" horiz-adv-x="212" 
d="M12 615v65h104v-40h1q25 45 82 45v-74q-54 0 -83 -13v-103h27v-65h-131v65h26v120h-26z" />
    <glyph glyph-name="ssuperior" unicode="&#xf6f2;" horiz-adv-x="246" 
d="M224 598h-64v22q-24 3 -39 3q-29 0 -29 -14q0 -6 6 -9t25 -8q66 -15 87 -32q24 -19 24 -51q0 -84 -103 -84q-70 0 -119 13v74h65v-22q27 -3 44 -3q34 0 34 16q0 10 -34 15q-51 9 -79.5 28.5t-28.5 59.5q0 79 103 79q59 0 108 -13v-74z" />
    <glyph glyph-name="tsuperior" unicode="&#xf6f3;" horiz-adv-x="194" 
d="M43 501v124h-31v50l31 5l9 70h69v-70h58v-55h-58v-110q0 -28 32 -28q10 0 22 3l7 -60q-25 -5 -56 -5q-44 0 -63.5 18.5t-19.5 57.5z" />
    <glyph glyph-name="Brevesmall" unicode="&#xf6f4;" horiz-adv-x="408" 
d="M204 729q68 0 91 61h59q-17 -146 -150 -146t-150 146h60q10 -29 34.5 -45t55.5 -16z" />
    <glyph glyph-name="Caronsmall" unicode="&#xf6f5;" horiz-adv-x="420" 
d="M136 780l74 -58l74 58h80l-109 -140h-90l-109 140h80z" />
    <glyph glyph-name="Circumflexsmall" unicode="&#xf6f6;" horiz-adv-x="420" 
d="M210 688l-74 -58h-80l109 140h90l109 -140h-80z" />
    <glyph glyph-name="Dotaccentsmall" unicode="&#xf6f7;" horiz-adv-x="250" 
d="M56 780h133v-135h-133v135z" />
    <glyph glyph-name="Hungarumlautsmall" unicode="&#xf6f8;" horiz-adv-x="460" 
d="M231 780l-97 -140h-80l53 140h124zM401 780l-97 -140h-80l53 140h124z" />
    <glyph glyph-name="Lslashsmall" unicode="&#xf6f9;" horiz-adv-x="504" 
d="M14 288l46 12v166h-46v119h247v-119h-45v-121l45 12v-69l-45 -12v-157h152v44h120v-163h-474v119h46v113l-46 -12v68z" />
    <glyph glyph-name="OEsmall" unicode="&#xf6fa;" horiz-adv-x="893" 
d="M306 474q-70 0 -94 -43.5t-24 -133.5q0 -92 24.5 -139.5t93.5 -47.5t93.5 47.5t24.5 138.5q0 90 -24.5 134t-93.5 44zM869 0h-418v39q-31 -24 -72.5 -36.5t-72.5 -12.5q-282 0 -282 307q0 139 64 218.5t218 79.5q33 0 74.5 -12.5t70.5 -35.5v38h418v-164h-120v45h-162
v-105h237v-120h-237v-122h162v44h120v-163z" />
    <glyph glyph-name="Ogoneksmall" unicode="&#xf6fb;" horiz-adv-x="314" 
d="M256 -140l5 -35q-37 -29 -98 -29q-48 0 -77.5 22.5t-29.5 58.5q0 70 85 123h72q-57 -46 -57 -96q0 -53 59 -53q18 0 41 9z" />
    <glyph glyph-name="Ringsmall" unicode="&#xf6fc;" horiz-adv-x="300" 
d="M52 730q0 40 29 69t69 29t69 -29t29 -69t-29 -69t-69 -29t-69 29t-29 69zM107 730q0 -18 12.5 -30.5t30.5 -12.5t30.5 12.5t12.5 30.5t-12.5 30.5t-30.5 12.5t-30.5 -12.5t-12.5 -30.5z" />
    <glyph glyph-name="Scaronsmall" unicode="&#xf6fd;" horiz-adv-x="531" 
d="M24 188h121v-56q79 -14 120 -14q78 0 78 45q0 8 -3 15t-10.5 12.5t-14.5 9.5t-21.5 8.5l-24 7.5t-29 8l-30.5 8q-185 53 -185 190q0 87 65.5 130t166.5 43q107 0 223 -34v-164h-121v62q-66 9 -102 9q-31 0 -49.5 -11.5t-18.5 -30.5q0 -22 29.5 -36t94.5 -29
q193 -43 193 -181q0 -95 -66.5 -142.5t-174.5 -47.5q-118 0 -241 36v162zM196 780l74 -58l74 58h80l-109 -140h-90l-109 140h80z" />
    <glyph glyph-name="Tildesmall" unicode="&#xf6fe;" horiz-adv-x="450" 
d="M166 674q-30 0 -67 -39l-46 36q23 54 51.5 79.5t57.5 25.5q27 0 72.5 -20t60.5 -20q30 0 49 15q8 6 16 15l37 -45q-34 -71 -83 -81q-7 -2 -22 -2q-18 1 -62.5 18.5t-63.5 17.5z" />
    <glyph glyph-name="Zcaronsmall" unicode="&#xf6ff;" horiz-adv-x="513" 
d="M42 585h437v-111l-266 -353v-2h155v44h121v-163h-465v111l271 353v1h-133v-44h-120v164zM182 780l74 -58l74 58h80l-109 -140h-90l-109 140h80z" />
    <glyph glyph-name="exclamsmall" unicode="&#xf721;" horiz-adv-x="222" 
d="M36 152h150v-152h-150v152zM36 600h150l-9 -380h-132z" />
    <glyph glyph-name="dollaroldstyle" unicode="&#xf724;" horiz-adv-x="510" 
d="M295 -130h-80v100h80v-100zM295 530h-80v100h80v-100zM443 339h-124v45q-39 7 -82 7q-63 0 -63 -32q0 -14 14 -21.5t54 -16.5q104 -23 141 -43q78 -41 78 -122q0 -84 -54 -125t-150 -41q-138 0 -234 24v147h124v-45q43 -7 92 -7q35 0 53.5 10.5t18.5 25.5q0 14 -17 21
t-57 14q-100 17 -156.5 56t-56.5 119q0 155 204 155q119 0 215 -24v-147z" />
    <glyph glyph-name="ampersandsmall" unicode="&#xf726;" horiz-adv-x="905" 
d="M596 142v74h-397q18 -102 124 -102q59 0 147 30l17 -115q-92 -39 -186 -39q-122 0 -193.5 70.5t-71.5 189.5t71.5 189.5t192.5 70.5q106 0 157.5 -55.5t58.5 -145.5h80l18 191h132v-191h118v-93h-118v-48q0 -59 66 -59q16 0 43 5l14 -115q-52 -9 -109 -9q-88 0 -126 37
t-38 115zM291 395q-36 0 -62 -23t-30 -63h165q6 38 -12.5 62t-60.5 24z" />
    <glyph glyph-name="questionsmall" unicode="&#xf73f;" horiz-adv-x="480" 
d="M150 467v-41h-124v127q43 23 104.5 40t113.5 17q114 0 162 -45.5t48 -110.5q0 -39 -12.5 -68t-31 -44t-40 -28t-40 -22t-31 -24.5t-12.5 -36.5v-21h-132v30q0 46 15 75.5t36 42t42 21t36 21t15 32.5q0 45 -86 45q-23 0 -63 -10zM146 0v152h150v-152h-150z" />
    <glyph glyph-name="Gravesmall" unicode="&#xf760;" horiz-adv-x="290" 
d="M155 640l-97 140h124l53 -140h-80z" />
    <glyph glyph-name="Asmall" unicode="&#xf761;" horiz-adv-x="639" 
d="M127 585h299l149 -466h50v-119h-265v119h48l-16 58h-153l-18 -58h49v-119h-256v119h56l113 347h-56v119zM321 440h-2l-49 -153h95z" />
    <glyph glyph-name="Bsmall" unicode="&#xf762;" horiz-adv-x="576" 
d="M446 305v-1q105 -34 105 -141q0 -78 -52.5 -120.5t-152.5 -42.5h-332v119h46v347h-46v119h314q100 0 152.5 -38t52.5 -112q0 -45 -24 -79t-63 -51zM320 241h-104v-122h105q67 0 67 62q0 60 -68 60zM370 413q0 24 -15.5 38.5t-43.5 14.5h-95v-105h95q29 0 44 14t15 38z
" />
    <glyph glyph-name="Csmall" unicode="&#xf763;" horiz-adv-x="558" 
d="M413 179h120v-154q-118 -35 -227 -35q-282 0 -282 307q0 139 64 218.5t218 79.5q112 0 227 -34v-155h-120v62q-53 8 -94 8q-66 0 -98.5 -47.5t-32.5 -131.5q0 -188 131 -188q44 0 94 10v60z" />
    <glyph glyph-name="Dsmall" unicode="&#xf764;" horiz-adv-x="603" 
d="M14 585h283q154 0 217.5 -75.5t63.5 -212.5q0 -139 -64 -218t-217 -79h-283v119h46v347h-46v119zM216 119h81q69 0 93.5 44t24.5 134q0 88 -24.5 128.5t-93.5 40.5h-81v-347z" />
    <glyph glyph-name="Esmall" unicode="&#xf765;" horiz-adv-x="522" 
d="M14 585h483v-164h-120v45h-161v-105h236v-120h-236v-122h161v45h120v-164h-483v119h46v347h-46v119z" />
    <glyph glyph-name="Fsmall" unicode="&#xf766;" horiz-adv-x="508" 
d="M14 585h474v-164h-120v45h-152v-122h227v-120h-227v-105h45v-119h-247v119h46v347h-46v119z" />
    <glyph glyph-name="Gsmall" unicode="&#xf767;" horiz-adv-x="567" 
d="M188 297q0 -179 131 -179q29 0 60 10v61h-76v119h230v-283q-117 -35 -227 -35q-282 0 -282 307q0 139 64 218.5t218 79.5q112 0 227 -34v-155h-120v62q-53 8 -94 8q-66 0 -98.5 -47.5t-32.5 -131.5z" />
    <glyph glyph-name="Hsmall" unicode="&#xf768;" horiz-adv-x="621" 
d="M359 119h46v122h-189v-122h45v-119h-247v119h46v347h-46v119h247v-119h-45v-105h189v105h-46v119h248v-119h-47v-347h47v-119h-248v119z" />
    <glyph glyph-name="Ismall" unicode="&#xf769;" horiz-adv-x="275" 
d="M14 119h46v347h-46v119h247v-119h-45v-347h45v-119h-247v119z" />
    <glyph glyph-name="Jsmall" unicode="&#xf76a;" horiz-adv-x="356" 
d="M95 585h247v-119h-45v-303q0 -88 -47 -130.5t-131 -42.5q-58 0 -105 9l13 119q34 -4 50 -4q64 0 64 49v303h-46v119z" />
    <glyph glyph-name="Ksmall" unicode="&#xf76b;" horiz-adv-x="621" 
d="M14 585h247v-119h-45v-150l148 150h-33v119h267v-119h-48l-152 -139l169 -208h40v-119h-275v119h34l-84 107l-66 -64v-43h45v-119h-247v119h46v347h-46v119z" />
    <glyph glyph-name="Lsmall" unicode="&#xf76c;" horiz-adv-x="504" 
d="M368 164h120v-164h-474v119h46v347h-46v119h247v-119h-45v-347h152v45z" />
    <glyph glyph-name="Msmall" unicode="&#xf76d;" horiz-adv-x="765" 
d="M523 585h228v-119h-47v-347h47v-119h-241v119h39v211h-1l-126 -330h-80l-137 330h-2v-211h42v-119h-231v119h46v347h-46v119h231l146 -348h2z" />
    <glyph glyph-name="Nsmall" unicode="&#xf76e;" horiz-adv-x="630" 
d="M377 585h239v-119h-47v-466h-137l-227 322l-2 -9v-194h50v-119h-239v119h46v347h-46v119h175l236 -338l2 8v211h-50v119z" />
    <glyph glyph-name="Osmall" unicode="&#xf76f;" horiz-adv-x="612" 
d="M306 476q-70 0 -94 -44.5t-24 -134.5q0 -92 24.5 -140t93.5 -48q36 0 60 13.5t36.5 40.5t17 58.5t4.5 75.5q0 90 -24.5 134.5t-93.5 44.5zM306 -10q-282 0 -282 307q0 139 64 218.5t218 79.5q80 0 136 -22.5t87 -64.5t44.5 -93t13.5 -118q0 -307 -281 -307z" />
    <glyph glyph-name="Psmall" unicode="&#xf770;" horiz-adv-x="567" 
d="M14 585h315q101 0 157 -50t56 -143t-56 -143t-157 -50h-113v-80h45v-119h-247v119h46v347h-46v119zM216 466v-148h96q31 0 51 18.5t20 55.5q0 36 -20 55t-51 19h-96z" />
    <glyph glyph-name="Qsmall" unicode="&#xf771;" horiz-adv-x="612" 
d="M24 297q0 139 64 218.5t218 79.5q80 0 136 -22.5t87 -64.5t44.5 -93t13.5 -118q0 -112 -47.5 -176t-130.5 -74q2 -20 160 -5v-137q-103 -11 -181 11t-112 75q-69 5 -119 31t-78.5 68.5t-41.5 93.5t-13 113zM306 476q-70 0 -94 -44.5t-24 -134.5q0 -92 24.5 -139.5
t93.5 -47.5t93.5 47.5t24.5 139.5q0 90 -24.5 134.5t-93.5 44.5z" />
    <glyph glyph-name="Rsmall" unicode="&#xf772;" 
d="M14 585h315q102 0 157.5 -48.5t55.5 -140.5q0 -58 -27 -101t-75 -62l102 -114h38v-119h-261v119h44l-76 88h-71v-88h43v-119h-245v119h46v347h-46v119zM216 466v-139h95q72 0 72 69q0 36 -20 53t-51 17h-96z" />
    <glyph glyph-name="Ssmall" unicode="&#xf773;" horiz-adv-x="531" 
d="M24 188h121v-56q79 -14 120 -14q78 0 78 45q0 8 -3 15t-10.5 12.5t-14.5 9.5t-21.5 8.5l-24 7.5t-29 8l-30.5 8q-185 53 -185 190q0 87 65.5 130t166.5 43q107 0 223 -34v-164h-121v62q-66 9 -102 9q-31 0 -49.5 -11.5t-18.5 -30.5q0 -22 29.5 -36t94.5 -29
q193 -43 193 -181q0 -95 -66.5 -142.5t-174.5 -47.5q-118 0 -241 36v162z" />
    <glyph glyph-name="Tsmall" unicode="&#xf774;" horiz-adv-x="531" 
d="M16 585h499v-164h-121v45h-51v-347h46v-119h-247v119h46v347h-51v-45h-121v164z" />
    <glyph glyph-name="Usmall" unicode="&#xf775;" horiz-adv-x="621" 
d="M359 585h248v-119h-47v-260q0 -111 -67.5 -163.5t-182.5 -52.5t-182.5 52.5t-67.5 163.5v260h-46v119h247v-119h-45v-260q0 -97 95 -97q94 0 94 97v260h-46v119z" />
    <glyph glyph-name="Vsmall" unicode="&#xf776;" horiz-adv-x="630" 
d="M359 585h257v-119h-47l-155 -470h-194l-159 470h-47v119h265v-119h-53l97 -314h1l88 314h-53v119z" />
    <glyph glyph-name="Wsmall" unicode="&#xf777;" horiz-adv-x="891" 
d="M14 585h265v-119h-56l67 -287h1l85 406h164l93 -406h1l60 287h-57v119h240v-119h-44l-108 -470h-203l-74 316h-2l-69 -316h-202l-118 470h-43v119z" />
    <glyph glyph-name="Xsmall" unicode="&#xf778;" horiz-adv-x="639" 
d="M376 585h240v-119h-43l-142 -174l140 -173h54v-119h-296v119h40l-70 98l-73 -98h37v-119h-249v119h51l143 173l-138 174h-47v119h287v-119h-39l71 -95l70 95h-36v119z" />
    <glyph glyph-name="Ysmall" unicode="&#xf779;" horiz-adv-x="603" 
d="M379 119h46v-119h-247v119h46v58l-159 289h-51v119h274v-119h-50l75 -154h2l71 154h-46v119h249v-119h-48l-162 -289v-58z" />
    <glyph glyph-name="Zsmall" unicode="&#xf77a;" horiz-adv-x="513" 
d="M42 585h437v-111l-266 -353v-2h155v44h121v-163h-465v111l271 353v1h-133v-44h-120v164z" />
    <glyph glyph-name="exclamdownsmall" unicode="&#xf7a1;" horiz-adv-x="222" 
d="M186 447h-150v153h150v-153zM186 0h-150l9 380h132z" />
    <glyph glyph-name="centoldstyle" unicode="&#xf7a2;" horiz-adv-x="510" 
d="M335 -130h-80v100h80v-100zM335 530h-80v100h80v-100zM354 339v44q-27 3 -54 3q-49 0 -77 -34.5t-28 -101.5q0 -68 28.5 -102t76.5 -34q67 0 151 22l26 -120q-96 -26 -177 -26q-141 0 -202.5 67t-61.5 193q0 125 61 192.5t203 67.5q79 0 177 -24v-147h-123z" />
    <glyph glyph-name="Dieresissmall" unicode="&#xf7a8;" horiz-adv-x="480" 
d="M56 780h133v-135h-133v135zM291 780h133v-135h-133v135z" />
    <glyph glyph-name="Macronsmall" unicode="&#xf7af;" horiz-adv-x="380" 
d="M54 752h272v-106h-272v106z" />
    <glyph glyph-name="Acutesmall" unicode="&#xf7b4;" horiz-adv-x="290" 
d="M231 780l-97 -140h-80l53 140h124z" />
    <glyph glyph-name="Cedillasmall" unicode="&#xf7b8;" horiz-adv-x="294" 
d="M104 -79v79h54v-51q83 -13 83 -74q0 -37 -27.5 -58.5t-77.5 -21.5q-44 0 -84 12l9 47q20 -5 45 -5q21 0 32.5 9.5t11.5 24.5q0 29 -46 38z" />
    <glyph glyph-name="questiondownsmall" unicode="&#xf7bf;" horiz-adv-x="480" 
d="M330 133v41h124v-127q-43 -23 -104.5 -40t-113.5 -17q-114 0 -162 45.5t-48 110.5q0 39 12.5 68t30.5 44t40 28t40 22t30.5 24.5t12.5 36.5v21h133v-30q0 -46 -15 -75.5t-36 -42t-42 -21t-36 -21t-15 -32.5q0 -46 86 -46q19 0 63 11zM334 600v-153h-150v153h150z" />
    <glyph glyph-name="Agravesmall" unicode="&#xf7e0;" horiz-adv-x="639" 
d="M257 640l-97 140h124l53 -140h-80zM127 585h299l149 -466h50v-119h-265v119h48l-16 58h-153l-18 -58h49v-119h-256v119h56l113 347h-56v119zM321 440h-2l-49 -153h95z" />
    <glyph glyph-name="Aacutesmall" unicode="&#xf7e1;" horiz-adv-x="639" 
d="M436 780l-97 -140h-80l53 140h124zM127 585h299l149 -466h50v-119h-265v119h48l-16 58h-153l-18 -58h49v-119h-256v119h56l113 347h-56v119zM321 440h-2l-49 -153h95z" />
    <glyph glyph-name="Acircumflexsmall" unicode="&#xf7e2;" horiz-adv-x="639" 
d="M315 688l-74 -58h-80l109 140h90l109 -140h-80zM127 585h299l149 -466h50v-119h-265v119h48l-16 58h-153l-18 -58h49v-119h-256v119h56l113 347h-56v119zM321 440h-2l-49 -153h95z" />
    <glyph glyph-name="Atildesmall" unicode="&#xf7e3;" horiz-adv-x="639" 
d="M260 674q-30 0 -67 -39l-46 36q23 54 51.5 79.5t57.5 25.5q27 0 72.5 -20t60.5 -20q30 0 49 15q8 6 16 15l37 -45q-34 -71 -83 -81q-7 -2 -22 -2q-18 1 -62.5 18.5t-63.5 17.5zM127 585h299l149 -466h50v-119h-265v119h48l-16 58h-153l-18 -58h49v-119h-256v119h56
l113 347h-56v119zM321 440h-2l-49 -153h95z" />
    <glyph glyph-name="Adieresissmall" unicode="&#xf7e4;" horiz-adv-x="639" 
d="M137 780h133v-135h-133v135zM372 780h133v-135h-133v135zM127 585h299l149 -466h50v-119h-265v119h48l-16 58h-153l-18 -58h49v-119h-256v119h56l113 347h-56v119zM321 440h-2l-49 -153h95z" />
    <glyph glyph-name="Aringsmall" unicode="&#xf7e5;" horiz-adv-x="639" 
d="M223 730q0 40 28.5 69t69.5 29t69.5 -29t28.5 -69t-28.5 -69t-69.5 -29t-69.5 29t-28.5 69zM278 730q0 -18 12.5 -30.5t30.5 -12.5t30.5 12.5t12.5 30.5t-12.5 30.5t-30.5 12.5t-30.5 -12.5t-12.5 -30.5zM127 585h299l149 -466h50v-119h-265v119h48l-16 58h-153l-18 -58
h49v-119h-256v119h56l113 347h-56v119zM321 440h-2l-49 -153h95z" />
    <glyph glyph-name="AEsmall" unicode="&#xf7e6;" horiz-adv-x="833" 
d="M240 466h-58v119h626v-164h-120v45h-161v-105h236v-120h-236v-122h161v44h120v-163h-437v118h-153l-55 -118h-150v119h56zM370 448l-96 -211h97v211h-1z" />
    <glyph glyph-name="Ccedillasmall" unicode="&#xf7e7;" horiz-adv-x="558" 
d="M281 -69v61q-257 14 -257 305q0 139 64 218.5t218 79.5q112 0 227 -34v-155h-120v62q-53 8 -94 8q-66 0 -98.5 -47.5t-32.5 -131.5q0 -187 131 -187q43 0 94 9v60h120v-153q-105 -31 -200 -34v-35q74 -14 74 -64q0 -32 -25 -50.5t-70 -18.5q-43 0 -77 10l8 45
q19 -4 39 -4q36 0 36 26q0 21 -37 30z" />
    <glyph glyph-name="Egravesmall" unicode="&#xf7e8;" horiz-adv-x="522" 
d="M14 585h483v-164h-120v45h-161v-105h236v-120h-236v-122h161v45h120v-164h-483v119h46v347h-46v119zM221 640l-97 140h124l53 -140h-80z" />
    <glyph glyph-name="Eacutesmall" unicode="&#xf7e9;" horiz-adv-x="522" 
d="M14 585h483v-164h-120v45h-161v-105h236v-120h-236v-122h161v45h120v-164h-483v119h46v347h-46v119zM388 780l-97 -140h-80l53 140h124z" />
    <glyph glyph-name="Ecircumflexsmall" unicode="&#xf7ea;" horiz-adv-x="522" 
d="M14 585h483v-164h-120v45h-161v-105h236v-120h-236v-122h161v45h120v-164h-483v119h46v347h-46v119zM267 688l-74 -58h-80l109 140h90l109 -140h-80z" />
    <glyph glyph-name="Edieresissmall" unicode="&#xf7eb;" horiz-adv-x="522" 
d="M14 585h483v-164h-120v45h-161v-105h236v-120h-236v-122h161v45h120v-164h-483v119h46v347h-46v119zM84 780h133v-135h-133v135zM319 780h133v-135h-133v135z" />
    <glyph glyph-name="Igravesmall" unicode="&#xf7ec;" horiz-adv-x="275" 
d="M14 119h46v347h-46v119h247v-119h-45v-347h45v-119h-247v119zM109 640l-97 140h124l53 -140h-80z" />
    <glyph glyph-name="Iacutesmall" unicode="&#xf7ed;" horiz-adv-x="275" 
d="M14 119h46v347h-46v119h247v-119h-45v-347h45v-119h-247v119zM265 780l-97 -140h-80l53 140h124z" />
    <glyph glyph-name="Icircumflexsmall" unicode="&#xf7ee;" horiz-adv-x="275" 
d="M14 119h46v347h-46v119h247v-119h-45v-347h45v-119h-247v119zM137 688l-74 -58h-80l109 140h90l109 -140h-80z" />
    <glyph glyph-name="Idieresissmall" unicode="&#xf7ef;" horiz-adv-x="275" 
d="M14 119h46v347h-46v119h247v-119h-45v-347h45v-119h-247v119zM-47 780h133v-135h-133v135zM188 780h133v-135h-133v135z" />
    <glyph glyph-name="Ntildesmall" unicode="&#xf7f1;" horiz-adv-x="630" 
d="M377 585h239v-119h-47v-466h-137l-227 322l-2 -9v-194h50v-119h-239v119h46v347h-46v119h175l236 -338l2 8v211h-50v119zM266 674q-30 0 -67 -39l-46 36q23 54 51.5 79.5t57.5 25.5q27 0 72.5 -20t60.5 -20h3q35 0 62 30l37 -45q-34 -71 -83 -81q-7 -2 -22 -2
q-18 1 -62.5 18.5t-63.5 17.5z" />
    <glyph glyph-name="Ogravesmall" unicode="&#xf7f2;" horiz-adv-x="612" 
d="M306 476q-70 0 -94 -44.5t-24 -134.5q0 -92 24.5 -140t93.5 -48q36 0 60 13.5t36.5 40.5t17 58.5t4.5 75.5q0 90 -24.5 134.5t-93.5 44.5zM306 -10q-282 0 -282 307q0 139 64 218.5t218 79.5q80 0 136 -22.5t87 -64.5t44.5 -93t13.5 -118q0 -307 -281 -307zM259 640
l-97 140h124l53 -140h-80z" />
    <glyph glyph-name="Oacutesmall" unicode="&#xf7f3;" horiz-adv-x="612" 
d="M306 476q-70 0 -94 -44.5t-24 -134.5q0 -92 24.5 -140t93.5 -48q36 0 60 13.5t36.5 40.5t17 58.5t4.5 75.5q0 90 -24.5 134.5t-93.5 44.5zM306 -10q-282 0 -282 307q0 139 64 218.5t218 79.5q80 0 136 -22.5t87 -64.5t44.5 -93t13.5 -118q0 -307 -281 -307zM445 780
l-97 -140h-80l53 140h124z" />
    <glyph glyph-name="Ocircumflexsmall" unicode="&#xf7f4;" horiz-adv-x="612" 
d="M306 476q-70 0 -94 -44.5t-24 -134.5q0 -92 24.5 -140t93.5 -48q36 0 60 13.5t36.5 40.5t17 58.5t4.5 75.5q0 90 -24.5 134.5t-93.5 44.5zM306 -10q-282 0 -282 307q0 139 64 218.5t218 79.5q80 0 136 -22.5t87 -64.5t44.5 -93t13.5 -118q0 -307 -281 -307zM305 688
l-74 -58h-80l109 140h90l109 -140h-80z" />
    <glyph glyph-name="Otildesmall" unicode="&#xf7f5;" horiz-adv-x="612" 
d="M306 476q-70 0 -94 -44.5t-24 -134.5q0 -92 24.5 -140t93.5 -48q36 0 60 13.5t36.5 40.5t17 58.5t4.5 75.5q0 90 -24.5 134.5t-93.5 44.5zM306 -10q-282 0 -282 307q0 139 64 218.5t218 79.5q80 0 136 -22.5t87 -64.5t44.5 -93t13.5 -118q0 -307 -281 -307zM246 674
q-30 0 -67 -39l-46 36q23 54 51.5 79.5t57.5 25.5q27 0 72.5 -20t60.5 -20h3q35 0 62 30l37 -45q-34 -71 -83 -81q-7 -2 -22 -2q-18 1 -62.5 18.5t-63.5 17.5z" />
    <glyph glyph-name="Odieresissmall" unicode="&#xf7f6;" horiz-adv-x="612" 
d="M306 476q-70 0 -94 -44.5t-24 -134.5q0 -92 24.5 -140t93.5 -48q36 0 60 13.5t36.5 40.5t17 58.5t4.5 75.5q0 90 -24.5 134.5t-93.5 44.5zM306 -10q-282 0 -282 307q0 139 64 218.5t218 79.5q80 0 136 -22.5t87 -64.5t44.5 -93t13.5 -118q0 -307 -281 -307zM121 780h133
v-135h-133v135zM356 780h133v-135h-133v135z" />
    <glyph glyph-name="Oslashsmall" unicode="&#xf7f8;" horiz-adv-x="612" 
d="M306 -10q-108 0 -179 48l-60 -72l-44 34l63 75q-62 77 -62 222q0 139 64 218.5t218 79.5q102 0 174 -43l64 77l44 -34l-67 -79q66 -73 66 -219q0 -307 -281 -307zM306 118q69 0 93.5 44.5t24.5 134.5q0 52 -10 86l-195 -230q29 -35 87 -35zM306 468q-70 0 -94 -41
t-24 -130q0 -56 7 -85l194 227q-29 29 -83 29z" />
    <glyph glyph-name="Ugravesmall" unicode="&#xf7f9;" horiz-adv-x="621" 
d="M359 585h248v-119h-47v-260q0 -111 -67.5 -163.5t-182.5 -52.5t-182.5 52.5t-67.5 163.5v260h-46v119h247v-119h-45v-260q0 -97 95 -97q94 0 94 97v260h-46v119zM276 640l-97 140h124l53 -140h-80z" />
    <glyph glyph-name="Uacutesmall" unicode="&#xf7fa;" horiz-adv-x="621" 
d="M359 585h248v-119h-47v-260q0 -111 -67.5 -163.5t-182.5 -52.5t-182.5 52.5t-67.5 163.5v260h-46v119h247v-119h-45v-260q0 -97 95 -97q94 0 94 97v260h-46v119zM460 780l-97 -140h-80l53 140h124z" />
    <glyph glyph-name="Ucircumflexsmall" unicode="&#xf7fb;" horiz-adv-x="621" 
d="M359 585h248v-119h-47v-260q0 -111 -67.5 -163.5t-182.5 -52.5t-182.5 52.5t-67.5 163.5v260h-46v119h247v-119h-45v-260q0 -97 95 -97q94 0 94 97v260h-46v119zM310 688l-74 -58h-80l109 140h90l109 -140h-80z" />
    <glyph glyph-name="Udieresissmall" unicode="&#xf7fc;" horiz-adv-x="621" 
d="M359 585h248v-119h-47v-260q0 -111 -67.5 -163.5t-182.5 -52.5t-182.5 52.5t-67.5 163.5v260h-46v119h247v-119h-45v-260q0 -97 95 -97q94 0 94 97v260h-46v119zM126 780h133v-135h-133v135zM361 780h133v-135h-133v135z" />
    <glyph glyph-name="Yacutesmall" unicode="&#xf7fd;" horiz-adv-x="603" 
d="M379 119h46v-119h-247v119h46v58l-159 289h-51v119h274v-119h-50l75 -154h2l71 154h-46v119h249v-119h-48l-162 -289v-58zM448 780l-97 -140h-80l53 140h124z" />
    <glyph glyph-name="Ydieresissmall" unicode="&#xf7ff;" horiz-adv-x="603" 
d="M379 119h46v-119h-247v119h46v58l-159 289h-51v119h274v-119h-50l75 -154h2l71 154h-46v119h249v-119h-48l-162 -289v-58zM117 780h133v-135h-133v135zM352 780h133v-135h-133v135z" />
    <glyph glyph-name="Breve" horiz-adv-x="408" 
d="M204 819q68 0 91 61h59q-17 -146 -150 -146t-150 146h60q10 -29 34.5 -45t55.5 -16z" />
    <glyph glyph-name="Cedilla" horiz-adv-x="294" 
d="M104 -79v79h54v-51q83 -13 83 -74q0 -37 -27.5 -58.5t-77.5 -21.5q-44 0 -84 12l9 47q20 -5 45 -5q21 0 32.5 9.5t11.5 24.5q0 29 -46 38z" />
    <glyph glyph-name="Circumflex" horiz-adv-x="420" 
d="M210 788l-74 -58h-80l109 140h90l109 -140h-80z" />
    <glyph glyph-name="commaaccent.cap" horiz-adv-x="230" 
d="M115 -265h-45l27 101h-61v124h150v-124z" />
    <glyph glyph-name="Dotaccent" horiz-adv-x="250" 
d="M56 870h133v-135h-133v135z" />
    <glyph glyph-name="Ogonek" horiz-adv-x="314" 
d="M256 -140l5 -35q-37 -29 -98 -29q-48 0 -77.5 22.5t-29.5 58.5q0 70 85 123h72q-57 -46 -57 -96q0 -53 59 -53q18 0 41 9z" />
    <glyph glyph-name="Ring" horiz-adv-x="300" 
d="M52 820q0 40 29 69t69 29t69 -29t29 -69t-29 -69t-69 -29t-69 29t-29 69zM107 820q0 -18 12.5 -30.5t30.5 -12.5t30.5 12.5t12.5 30.5t-12.5 30.5t-30.5 12.5t-30.5 -12.5t-12.5 -30.5z" />
    <glyph glyph-name="Tilde" horiz-adv-x="450" 
d="M166 764q-30 0 -67 -39l-46 36q23 54 51.5 79.5t57.5 25.5q27 0 72.5 -20t60.5 -20q30 0 49 15q8 6 16 15l37 -45q-34 -71 -83 -81q-7 -2 -22 -2q-18 1 -62.5 18.5t-63.5 17.5z" />
    <glyph glyph-name="commaaccent.small" horiz-adv-x="230" 
d="M115 -265h-45l27 101h-61v124h150v-124z" />
    <glyph glyph-name="DieresisAcute.small" horiz-adv-x="630" 
d="M411 810l-107 -170h-80l54 170h133zM56 780h133v-135h-133v135zM436 780h133v-135h-133v135z" />
    <glyph glyph-name="DieresisGrave.small" horiz-adv-x="630" 
d="M324 640l-107 170h133l54 -170h-80zM436 780h133v-135h-133v135zM56 780h133v-135h-133v135z" />
    <glyph glyph-name="dblGrave.small" horiz-adv-x="460" 
d="M325 640l-97 140h125l52 -140h-80zM155 640l-97 140h125l52 -140h-80z" />
    <glyph glyph-name="middot" horiz-adv-x="250" 
d="M56 377h133v-135h-133v135z" />
    <glyph glyph-name="Aogonek.small" horiz-adv-x="639" 
d="M569 -118l4 -33q-33 -25 -90 -25q-45 0 -72.5 20.5t-27.5 51.5q0 59 76 104h-99v119h48l-16 58h-153l-18 -58h49v-119h-256v119h56l113 347h-56v119h299l149 -466h50v-119h-95q-49 -39 -49 -79q0 -45 53 -45q17 0 35 6zM321 440h-2l-49 -153h95z" />
    <glyph glyph-name="Dcroat.small" horiz-adv-x="603" 
d="M14 585h283q154 0 217.5 -75.5t63.5 -212.5q0 -139 -64 -218t-217 -79h-283v119h46v135h-46v86h46v126h-46v119zM216 119h81q69 0 93.5 44t24.5 134q0 88 -24.5 128.5t-93.5 40.5h-81v-126h90v-86h-90v-135z" />
    <glyph glyph-name="Eogonek.small" horiz-adv-x="522" 
d="M14 585h483v-164h-120v45h-161v-105h236v-120h-236v-122h161v44h120v-163q-49 -39 -49 -79q0 -21 14.5 -33t39.5 -12q16 0 34 6l4 -33q-31 -25 -88 -25q-46 0 -73.5 20.5t-27.5 51.5q0 60 77 104h-414v119h46v347h-46v119z" />
    <glyph glyph-name="Hbar.small" horiz-adv-x="621" 
d="M359 119h46v122h-189v-122h45v-119h-247v119h46v273h-45v34h45v40h-46v119h247v-119h-45v-40h189v40h-46v119h248v-119h-47v-40h46v-34h-46v-273h47v-119h-248v119zM216 343h189v49h-189v-49z" />
    <glyph glyph-name="Iogonek.small" horiz-adv-x="275" 
d="M217 -118l5 -33q-33 -25 -90 -25q-45 0 -72.5 20.5t-27.5 51.5q0 59 76 104h-94v119h46v347h-46v119h247v-119h-45v-347h45v-119h-83q-49 -40 -49 -79q0 -21 14.5 -33t39.5 -12q16 0 34 6z" />
    <glyph glyph-name="IJ.small" horiz-adv-x="622" 
d="M14 119h46v347h-46v119h247v-119h-45v-347h45v-119h-247v119zM362 585h247v-119h-46v-302q0 -88 -47 -131t-130 -43q-57 0 -106 9l14 119q32 -4 49 -4q64 0 64 50v302h-45v119z" />
    <glyph glyph-name="Scedilla.small" horiz-adv-x="531" 
d="M227 -69v60q-102 5 -203 35v162h121v-55q85 -15 120 -15q78 0 78 45q0 8 -3 15t-10.5 12.5t-14.5 9.5t-21.5 8.5l-24 7.5t-29 8l-30.5 8q-185 53 -185 190q0 87 65.5 130t166.5 43q107 0 223 -34v-165h-121v63q-66 9 -102 9q-31 0 -49.5 -11.5t-18.5 -30.5
q0 -22 29.5 -36t94.5 -29q193 -43 193 -181q0 -92 -62.5 -139.5t-164.5 -50.5v-33q75 -14 75 -64q0 -32 -25 -50.5t-71 -18.5q-43 0 -77 10l8 45q19 -4 40 -4q36 0 36 26q0 21 -38 30z" />
    <glyph glyph-name="Tbar.small" horiz-adv-x="531" 
d="M16 585h499v-164h-121v45h-51v-156h64v-86h-64v-105h46v-119h-247v119h46v105h-64v86h64v156h-51v-45h-121v164z" />
    <glyph glyph-name="Uogonek.small" horiz-adv-x="621" 
d="M359 585h248v-119h-47v-260q0 -103 -60 -156t-163 -59q-38 -32 -38 -70q0 -45 53 -45q16 0 34 6l5 -33q-33 -25 -90 -25q-45 0 -72.5 20.5t-27.5 51.5q0 54 66 97q-96 9 -151.5 61.5t-55.5 151.5v260h-46v119h247v-119h-45v-260q0 -97 95 -97q94 0 94 97v260h-46v119z
" />
    <glyph glyph-name="c_t" horiz-adv-x="865" 
d="M467 339h-123v44q-21 3 -54 3q-105 0 -105 -136t105 -136q67 0 151 20l26 -120q-96 -24 -177 -24q-142 0 -203 66.5t-61 193.5t61 193.5t203 66.5q81 0 177 -24v-147zM566 142v252h-64v97l64 9l18 140h132v-140h118v-106h-118v-226q0 -59 66 -59q16 0 43 5l14 -115
q-52 -9 -109 -9q-88 0 -126 37t-38 115z" />
    <glyph glyph-name="s_p" horiz-adv-x="1025" 
d="M441 339h-124v45q-39 7 -82 7q-63 0 -63 -32q0 -14 14 -21.5t54 -16.5q104 -23 141 -43q78 -41 78 -122q0 -84 -54 -125t-150 -41q-138 0 -234 24v147h124v-45q43 -7 92 -7q35 0 53.5 10.5t18.5 25.5q0 14 -17 21t-56 14q-101 17 -157.5 56t-56.5 119q0 155 204 155
q119 0 215 -24v-147zM477 376v124h204v-50h2q23 27 59.5 43.5t74.5 16.5q182 0 182 -260q0 -75 -17.5 -131t-61.5 -92.5t-111 -36.5q-78 0 -126 56h-2v-122h54v-124h-258v124h54v452h-54zM840 250q0 136 -84 136q-40 0 -75 -25v-222q35 -25 75 -25q84 0 84 136z" />
    <glyph glyph-name="s_t" horiz-adv-x="860" 
d="M441 339h-124v45q-39 7 -82 7q-63 0 -63 -32q0 -14 14 -21.5t54 -16.5q104 -23 141 -43q78 -41 78 -122q0 -84 -54 -125t-150 -41q-138 0 -234 24v147h124v-45q43 -7 92 -7q35 0 53.5 10.5t18.5 25.5q0 14 -17 21t-56 14q-101 17 -157.5 56t-56.5 119q0 155 204 155
q119 0 215 -24v-147zM561 142v252h-64v97l64 9l18 140h132v-140h118v-106h-118v-226q0 -59 66 -59q16 0 43 5l14 -115q-52 -9 -109 -9q-88 0 -126 37t-38 115z" />
    <glyph glyph-name="h.superior" horiz-adv-x="307" 
d="M170 430v65h21v87q0 38 -34 38q-17 0 -41 -13v-112h22v-65h-126v65h26v220h-26v65h104v-131h1q31 36 77 36q37 0 56 -22.5t19 -61.5v-106h26v-65h-125z" />
    <glyph glyph-name="Ethsmall" horiz-adv-x="603" 
d="M14 585h283q154 0 217.5 -75.5t63.5 -212.5q0 -139 -64 -218t-217 -79h-283v119h46v135h-46v86h46v126h-46v119zM216 119h81q69 0 93.5 44t24.5 134q0 88 -24.5 128.5t-93.5 40.5h-81v-126h90v-86h-90v-135z" />
    <glyph glyph-name="Thornsmall" horiz-adv-x="566" 
d="M225 514h82q110 0 171.5 -57.5t61.5 -160.5q0 -105 -61 -162t-172 -57h-82v-77h-213v124h54v337h-54v124h213v-71zM225 391v-190h65q39 0 63 24t24 71q0 46 -24 70.5t-63 24.5h-65z" />
    <glyph glyph-name="Eng.small" horiz-adv-x="630" 
d="M569 -28v-9q0 -88 -47 -130.5t-130 -42.5q-58 0 -105 9l12 119q34 -4 50 -4q66 0 66 49v37l-210 313h-2v-194h50v-119h-239v119h46v347h-46v119h193l218 -330h2v211h-50v119h239v-119h-47v-494z" />
    <glyph glyph-name="longs_h" horiz-adv-x="900" 
d="M376 115v458q-32 8 -62 8q-53 0 -70.5 -15.5t-17.5 -43.5v-555q0 -86 -35.5 -131.5t-128.5 -45.5q-39 0 -91 9l14 115q27 -5 42 -5q27 0 38 14.5t11 44.5v554q0 85 48.5 131.5t171.5 46.5q75 0 123 -13h107v-258h2q64 72 155 72q73 0 111.5 -45t38.5 -124v-217h54v-124
h-249v124h45v182q0 80 -70 80q-38 0 -87 -29v-233h45v-124h-249v124h54z" />
    <glyph glyph-name="longs_l" horiz-adv-x="600" 
d="M226 522v-555q0 -86 -35.5 -131.5t-128.5 -45.5q-39 0 -91 9l14 115q27 -5 42 -5q27 0 38 14.5t11 44.5v554q0 85 48.5 131.5t171.5 46.5q75 0 123 -13h107v-563h53v-124h-248v124h45v449q-32 8 -62 8q-53 0 -70.5 -15.5t-17.5 -43.5z" />
    <glyph glyph-name="longs_t" horiz-adv-x="664" 
d="M76 -32v580q0 78 38 115t126 37q39 0 91 -9l-13 -115q-28 5 -43 5q-27 0 -38 -14.5t-11 -44.5v-555q0 -86 -35.5 -131.5t-128.5 -45.5q-39 0 -91 9l14 115q27 -5 42 -5q27 0 38 14.5t11 44.5zM365 142v252h-64v97l64 9l18 140h132v-140h117v-106h-117v-226q0 -59 66 -59
q15 0 43 5l13 -115q-52 -9 -108 -9q-88 0 -126 37t-38 115z" />
    <glyph glyph-name="longs_i" horiz-adv-x="595" 
d="M76 -32v580q0 78 38 115t126 37q39 0 91 -9l-13 -115q-28 5 -43 5q-27 0 -38 -14.5t-11 -44.5v-555q0 -86 -35.5 -131.5t-128.5 -45.5q-39 0 -91 9l14 115q27 -5 42 -5q27 0 38 14.5t11 44.5zM311 376v124h204v-376h54v-124h-258v124h54v252h-54z" />
    <glyph glyph-name="longs_longs" horiz-adv-x="606" 
d="M76 -32v580q0 78 38 115t126 37q39 0 91 -9l-13 -115q-28 5 -43 5q-27 0 -38 -14.5t-11 -44.5v-555q0 -86 -35.5 -131.5t-128.5 -45.5q-39 0 -91 9l14 115q27 -5 42 -5q27 0 38 14.5t11 44.5zM356 -32v580q0 78 38 115t126 37q39 0 91 -9l-13 -115q-28 5 -43 5
q-27 0 -38 -14.5t-11 -44.5v-555q0 -86 -35.5 -131.5t-128.5 -45.5q-39 0 -91 9l14 115q27 -5 42 -5q27 0 38 14.5t11 44.5z" />
    <glyph glyph-name="zero.slash" horiz-adv-x="590" 
d="M295 -10q-70 0 -121 27.5t-80.5 77.5t-43.5 112t-14 138t14 136.5t43.5 108.5t80.5 74t121 26t121 -26t80.5 -74t43.5 -108.5t14 -136.5t-14 -138t-43.5 -112t-80.5 -77.5t-121 -27.5zM295 114q100 0 100 231q0 41 -6 75l-178 -226q24 -80 84 -80zM295 566
q-55 0 -77.5 -57.5t-22.5 -163.5q0 -45 5 -72l176 224q-24 69 -81 69z" />
    <glyph glyph-name="zero.fitted" 
d="M297 566q-60 0 -84 -57t-24 -164q0 -231 108 -231t108 231q0 107 -24 164t-84 57zM297 -10q-79 0 -133 27t-82.5 78.5t-40.5 111.5t-12 138t12 136.5t40.5 108t82.5 75t133 25.5q78 0 132 -25.5t82.5 -75t40.5 -108t12 -136.5q0 -62 -7 -112t-25 -96.5t-47.5 -78t-77 -50
t-110.5 -18.5z" />
    <glyph glyph-name="one.fitted" 
d="M373 124h162v-124h-477v124h164v415l-153 -2v106l232 42h72v-561z" />
    <glyph glyph-name="two.fitted" 
d="M428 179h124v-179h-513v142q188 110 256 180t68 129q0 102 -117 102q-43 0 -82 -10v-46h-125v143q131 50 242 50q118 0 180 -58t62 -150q0 -98 -67 -178t-203 -170v-2h175v47z" />
    <glyph glyph-name="three.fitted" 
d="M43 39v143h125v-56q47 -12 109 -12q61 0 89 24.5t28 57.5q0 82 -128 82h-96v124h89q119 0 119 91q0 31 -25.5 52t-75.5 21q-49 0 -102 -14v-55h-124v144q113 49 252 49q97 0 161 -47t64 -133q0 -108 -119 -153v-2q70 -18 105 -63.5t35 -104.5q0 -95 -69.5 -146
t-194.5 -51q-133 0 -242 49z" />
    <glyph glyph-name="four.fitted" 
d="M172 307h164v219h-2q-68 -113 -162 -219zM336 124v60h-318v123l111.5 119.5t87 112.5t83.5 146h187v-378h88v-123h-88v-60h56v-124h-264v124h57z" />
    <glyph glyph-name="five.fitted" 
d="M526 680v-179h-124v46h-203l-8 -135l2 -1q58 39 137 39q102 0 160.5 -57.5t58.5 -165.5q0 -116 -71.5 -176.5t-201.5 -60.5q-120 0 -233 50v134h125v-49q47 -11 99 -11q61 0 92 29.5t31 75.5q0 42 -26.5 72.5t-87.5 30.5q-62 0 -112 -39l-108 9l13 388h457z" />
    <glyph glyph-name="six.fitted" 
d="M190 394l2 -1q59 62 144 62q102 0 160 -61.5t58 -173.5q0 -107 -68.5 -168.5t-180.5 -61.5q-133 0 -199.5 89t-66.5 221q0 390 314 390q93 0 180 -29v-160h-124v63q-30 2 -42 2q-73 0 -125.5 -43t-51.5 -129zM203 284q-8 -72 13 -121t81 -49q43 0 70.5 28t27.5 78
q0 43 -22.5 74t-76.5 31q-48 0 -93 -41z" />
    <glyph glyph-name="seven.fitted" 
d="M42 680h511v-106q-62 -105 -96.5 -170.5t-75 -176.5t-60.5 -227h-168q24 128 88.5 276.5t147.5 268.5v2h-223v-46h-124v179z" />
    <glyph glyph-name="eight.fitted" 
d="M428 359v-2q136 -66 136 -170q0 -99 -77 -148t-195 -49q-72 0 -129 17t-95.5 59.5t-38.5 104.5q0 112 135 165v2q-114 58 -114 166q0 90 73.5 138t177.5 48q98 0 170 -47t72 -131q0 -53 -28.5 -88.5t-86.5 -64.5zM185 187q0 -36 29 -61t88 -25q56 0 81.5 20.5t25.5 52.5
q0 13 -4 24.5t-14 21l-17 16t-24 14.5t-24 11t-28 10.5t-24 8.5q-89 -32 -89 -93zM292 579q-38 0 -64.5 -20.5t-26.5 -50.5q0 -36 33 -60.5t81 -35.5q34 11 56 34t22 53q0 35 -28 57.5t-73 22.5z" />
    <glyph glyph-name="nine.fitted" 
d="M403 286l-2 1q-57 -62 -144 -62q-101 0 -159.5 62t-58.5 173q0 107 68.5 168.5t181.5 61.5q133 0 199 -89t66 -221q0 -390 -314 -390q-91 0 -180 29v160h125v-63q15 -2 42 -2q73 0 125 43t51 129zM390 396q5 45 0 80.5t-28.5 62.5t-65.5 27t-69.5 -28t-27.5 -78
q0 -43 22.5 -74t76.5 -31q49 0 92 41z" />
    <glyph glyph-name="zerooldstyle" horiz-adv-x="570" 
d="M285 386q-44 0 -72 -33t-28 -103t28 -103t72 -33q43 0 71.5 33.5t28.5 102.5t-28.5 102.5t-71.5 33.5zM285 -10q-120 0 -189.5 68t-69.5 192t69.5 192t189.5 68q119 0 189 -68t70 -192t-69.5 -192t-189.5 -68z" />
    <glyph glyph-name="oneoldstyle" horiz-adv-x="390" 
d="M267 124h105v-124h-360v124h105v235l-103 -2v106l183 42h70v-381z" />
    <glyph glyph-name="twooldstyle" horiz-adv-x="530" 
d="M389 161h123v-161h-496v142q199 68 251 96q68 37 68 76q0 59 -85 59q-52 0 -100 -14v-42h-124v152q113 41 242 41q115 0 170.5 -44t55.5 -112q0 -29 -9 -54.5t-20.5 -44t-36.5 -37t-41.5 -28.5t-52 -24.5t-51 -20l-55.5 -19.5v-2h161v37z" />
    <glyph glyph-name="threeoldstyle" horiz-adv-x="520" 
d="M15 -141v143h124v-56q44 -12 102 -12q56 0 82 24.5t26 57.5q0 82 -119 82h-93v124h86q111 0 111 91q0 30 -24 51.5t-69 21.5q-47 0 -95 -14v-55h-124v144q111 49 245 49q92 0 154.5 -47t62.5 -133q0 -108 -114 -153v-2q67 -18 100.5 -63.5t33.5 -104.5
q0 -94 -67.5 -145.5t-187.5 -51.5q-68 0 -120.5 10.5t-113.5 38.5z" />
    <glyph glyph-name="fouroldstyle" horiz-adv-x="570" 
d="M169 124h151v222h-2q-69 -125 -149 -222zM320 -56v56h-304v124q100 109 160 190.5t108 190.5h186v-381h84v-124h-84v-56h54v-124h-258v124h54z" />
    <glyph glyph-name="fiveoldstyle" horiz-adv-x="540" 
d="M492 500v-179h-123v46h-191l-7 -135l2 -1q54 39 130 39q98 0 154.5 -57.5t56.5 -165.5q0 -116 -69 -176.5t-195 -60.5q-115 0 -225 50v134h124v-49q43 -11 92 -11q57 0 85.5 29.5t28.5 75.5q0 42 -24.5 72.5t-81.5 30.5q-35 0 -57 -9t-48 -30l-107 9l12 388h443z" />
    <glyph glyph-name="sixoldstyle" horiz-adv-x="550" 
d="M176 394l2 -1q55 62 136 62q98 0 154 -62t56 -173q0 -106 -66.5 -168t-174.5 -62q-128 0 -192.5 89t-64.5 221q0 390 303 390q90 0 175 -29v-160h-124v63q-26 2 -38 2q-66 0 -116.5 -43.5t-49.5 -128.5zM189 284q-5 -45 -0.5 -81t26.5 -62.5t61 -26.5t64 28t25 78
q0 43 -20.5 74t-70.5 31q-44 0 -85 -41z" />
    <glyph glyph-name="sevenoldstyle" horiz-adv-x="490" 
d="M17 500h457v-106q-58 -103 -91.5 -170t-72 -177.5t-56.5 -226.5h-168q22 129 83.5 277.5t140.5 267.5v2h-169v-46h-124v179z" />
    <glyph glyph-name="eightoldstyle" horiz-adv-x="550" 
d="M405 359v-2q129 -65 129 -170q0 -99 -75.5 -148t-187.5 -49q-69 0 -124.5 17t-93 59.5t-37.5 104.5q0 112 127 165v2q-107 57 -107 166q0 90 71.5 138t171.5 48q94 0 164.5 -47t70.5 -131q0 -53 -27 -88.5t-82 -64.5zM171 187q0 -35 27 -60.5t82 -25.5q51 0 75 20.5
t24 52.5q0 13 -3.5 24.5t-13 21l-16.5 16t-22.5 14l-23 11t-26 10.5t-22.5 9q-81 -32 -81 -93zM271 579q-37 0 -61 -20.5t-24 -50.5q0 -36 31.5 -60.5t75.5 -35.5q31 11 51 34t20 53q0 35 -25.5 57.5t-67.5 22.5z" />
    <glyph glyph-name="nineoldstyle" horiz-adv-x="550" 
d="M374 106l-2 1q-55 -62 -136 -62q-98 0 -154 61.5t-56 173.5q0 106 66.5 168t174.5 62q128 0 192.5 -89t64.5 -221q0 -390 -303 -390q-90 0 -175 29v160h124v-63q13 -2 38 -2q66 0 116.5 43.5t49.5 128.5zM361 216q5 45 0.5 81t-26.5 62.5t-61 26.5t-64 -28t-25 -78
q0 -43 20.5 -74t70.5 -31q44 0 85 41z" />
    <glyph glyph-name="zero.taboldstyle" 
d="M297 386q-44 0 -72 -33t-28 -103t28 -103t72 -33q43 0 71.5 33.5t28.5 102.5t-28.5 102.5t-71.5 33.5zM297 -10q-120 0 -189.5 68t-69.5 192t69.5 192t189.5 68q119 0 189 -68t70 -192t-69.5 -192t-189.5 -68z" />
    <glyph glyph-name="one.taboldstyle" 
d="M373 124h162v-124h-477v124h164v235l-153 -2v106l232 42h72v-381z" />
    <glyph glyph-name="two.taboldstyle" 
d="M421 161h123v-161h-495v142q199 68 251 97q67 36 67 75q0 59 -85 59q-53 0 -100 -14v-42h-124v152q113 41 242 41q115 0 170.5 -44t55.5 -112q0 -29 -9 -54.5t-20.5 -44t-36 -37t-41 -28.5t-51.5 -24.5t-51.5 -20.5t-55.5 -19v-2h160v37z" />
    <glyph glyph-name="three.taboldstyle" 
d="M43 -141v143h125v-56q47 -12 109 -12q61 0 89 24.5t28 57.5q0 82 -128 82h-96v124h89q119 0 119 91q0 31 -25.5 52t-75.5 21q-49 0 -102 -14v-55h-124v144q113 49 252 49q97 0 161 -47t64 -133q0 -108 -119 -153v-2q70 -18 105 -63.5t35 -104.5q0 -95 -69.5 -146
t-194.5 -51q-133 0 -242 49z" />
    <glyph glyph-name="four.taboldstyle" 
d="M172 124h164v222h-2q-76 -126 -162 -222zM336 -56v56h-318v124l111 119t88.5 115.5t82.5 146.5h187v-381h88v-124h-88v-56h56v-124h-264v124h57z" />
    <glyph glyph-name="five.taboldstyle" 
d="M526 500v-179h-124v46h-203l-8 -135l2 -1q58 39 137 39q102 0 160.5 -57.5t58.5 -165.5q0 -116 -71.5 -176.5t-201.5 -60.5q-120 0 -233 50v134h125v-49q47 -11 99 -11q61 0 92 29.5t31 75.5q0 42 -26.5 72.5t-87.5 30.5q-62 0 -112 -39l-108 9l13 388h457z" />
    <glyph glyph-name="six.taboldstyle" 
d="M190 394l2 -1q59 62 144 62q102 0 160 -61.5t58 -173.5q0 -107 -68.5 -168.5t-180.5 -61.5q-133 0 -199.5 89t-66.5 221q0 390 314 390q93 0 180 -29v-160h-124v63q-30 2 -42 2q-73 0 -125.5 -43t-51.5 -129zM203 284q-8 -72 13 -121t81 -49q43 0 70.5 28t27.5 78
q0 43 -22.5 74t-76.5 31q-48 0 -93 -41z" />
    <glyph glyph-name="seven.taboldstyle" 
d="M42 500h511v-106q-62 -105 -96.5 -170.5t-75 -176.5t-60.5 -227h-168q24 128 88.5 276.5t147.5 268.5v2h-223v-46h-124v179z" />
    <glyph glyph-name="eight.taboldstyle" 
d="M428 359v-2q136 -66 136 -170q0 -99 -77 -148t-195 -49q-72 0 -129 17t-95.5 59.5t-38.5 104.5q0 112 135 165v2q-114 58 -114 166q0 90 73.5 138t177.5 48q98 0 170 -47t72 -131q0 -53 -28.5 -88.5t-86.5 -64.5zM185 187q0 -36 29 -61t88 -25q56 0 81.5 20.5t25.5 52.5
q0 13 -4 24.5t-14 21l-17 16t-24 14.5t-24 11t-28 10.5t-24 8.5q-89 -32 -89 -93zM292 579q-38 0 -64.5 -20.5t-26.5 -50.5q0 -36 33 -60.5t81 -35.5q34 11 56 34t22 53q0 35 -28 57.5t-73 22.5z" />
    <glyph glyph-name="nine.taboldstyle" 
d="M403 106l-2 1q-57 -62 -144 -62q-101 0 -159.5 62t-58.5 173q0 107 68.5 168.5t181.5 61.5q133 0 199 -89t66 -221q0 -390 -314 -390q-91 0 -180 29v160h125v-63q15 -2 42 -2q73 0 125 43t51 129zM390 216q5 45 0 80.5t-28.5 62.5t-65.5 27t-69.5 -28t-27.5 -78
q0 -43 22.5 -74t76.5 -31q49 0 92 41z" />
    <glyph glyph-name="currency.taboldstyle" horiz-adv-x="513" 
d="M100 249q0 68 48 114l-78 90l8 8l79 -90q44 36 100 36q55 0 99 -36l78 90l9 -8l-78 -89q50 -47 50 -115t-49 -114l76 -86l-9 -9l-77 87q-43 -35 -99 -35q-57 0 -100 35l-76 -87l-9 9l76 86q-48 46 -48 114zM112 249q0 -59 43 -102t102 -43t102.5 43t43.5 102t-43.5 102.5
t-102.5 43.5t-102 -43.5t-43 -102.5z" />
    <glyph glyph-name="cent.taboldstyle" 
d="M375 -130h-80v100h80v-100zM375 530h-80v100h80v-100zM394 339v44q-27 3 -54 3q-49 0 -77 -34.5t-28 -101.5q0 -68 28.5 -102t76.5 -34q67 0 151 22l26 -120q-96 -26 -177 -26q-141 0 -202.5 67t-61.5 193q0 125 61 192.5t203 67.5q79 0 177 -24v-147h-123z" />
    <glyph glyph-name="dollar.taboldstyle" 
d="M350 -130h-80v100h80v-100zM350 530h-80v100h80v-100zM498 339h-124v45q-38 7 -82 7q-63 0 -63 -32q0 -14 14 -21.5t54 -16.5q104 -23 141 -43q78 -41 78 -122q0 -84 -54 -125t-150 -41q-138 0 -234 24v147h124v-45q43 -7 92 -7q35 0 53.5 10.5t18.5 25.5q0 14 -17 21
t-57 14q-100 17 -156.5 56t-56.5 119q0 155 204 155q119 0 215 -24v-147z" />
    <glyph glyph-name="Euro.taboldstyle" 
d="M260 227h109v-45h-99q25 -68 95 -68q67 0 151 22l26 -120q-96 -26 -177 -26q-230 0 -259 192h-55v45h50q-2 21 0 45h-50v45h55q28 193 259 193q81 0 177 -26v-145h-123v42q-28 5 -54 5q-68 0 -95 -69h99v-45h-109q-2 -24 0 -45z" />
    <glyph glyph-name="franc.taboldstyle" 
d="M260 227h109v-45h-99q25 -68 95 -68q67 0 151 22l26 -120q-96 -26 -177 -26q-230 0 -259 192h-55v45h50q-2 21 0 45h-50v45h55q28 193 259 193q81 0 177 -26v-145h-123v42q-28 5 -54 5q-68 0 -95 -69h99v-45h-109q-2 -24 0 -45z" />
    <glyph glyph-name="sterling.taboldstyle" 
d="M425 132v47h124v-179h-507v132h50v74h-50v89h50v36q0 92 66 135.5t176 43.5q103 0 217 -35v-145h-124v42q-60 14 -102 14q-43 0 -63 -17.5t-20 -42.5v-31h118v-89h-118v-74h183z" />
    <glyph glyph-name="yen.taboldstyle" horiz-adv-x="600" 
d="M376 124h55v-124h-260v124h55v51h-109v71h69l-98 130h-47v124h192l71 -178h2l74 178h179v-124h-55l-98 -130h70v-71h-100v-51z" />
    <glyph glyph-name="lira.taboldstyle" 
d="M260 227h109v-45h-99q25 -68 95 -68q67 0 151 22l26 -120q-96 -26 -177 -26q-230 0 -259 192h-55v45h50q-2 21 0 45h-50v45h55q28 193 259 193q81 0 177 -26v-145h-123v42q-28 5 -54 5q-68 0 -95 -69h99v-45h-109q-2 -24 0 -45z" />
    <glyph glyph-name="peseta.taboldstyle" 
d="M260 227h109v-45h-99q25 -68 95 -68q67 0 151 22l26 -120q-96 -26 -177 -26q-230 0 -259 192h-55v45h50q-2 21 0 45h-50v45h55q28 193 259 193q81 0 177 -26v-145h-123v42q-28 5 -54 5q-68 0 -95 -69h99v-45h-109q-2 -24 0 -45z" />
    <glyph glyph-name="colonmonetary.taboldstyle" 
d="M409 -130h-63v100h63v-100zM409 530h-63v100h63v-100zM394 339v44q-27 3 -54 3q-49 0 -77 -34.5t-28 -101.5q0 -68 28.5 -102t76.5 -34q67 0 151 22l26 -120q-96 -26 -177 -26q-141 0 -202.5 67t-61.5 193q0 125 61 192.5t203 67.5q79 0 177 -24v-147h-123zM291 -130h-62
v100h62v-100zM291 530h-62v100h62v-100z" />
    <glyph glyph-name="florin.taboldstyle" horiz-adv-x="600" 
d="M221 -32v226h-64v97l64 9v58q0 78 38 115t126 37q39 0 91 -9l-13 -115q-28 5 -43 5q-27 0 -38 -14.5t-11 -44.5v-32h100v-106h-100v-227q0 -86 -35.5 -131.5t-128.5 -45.5q-39 0 -91 9l14 115q27 -5 42 -5q27 0 38 14.5t11 44.5z" />
    <glyph glyph-name="numbersign.taboldstyle" horiz-adv-x="600" 
d="M172 500h106l-10 -96h95l10 96h107l-11 -96h100l-10 -98h-100l-12 -112h100l-10 -98h-100l-10 -96h-107l11 96h-95l-11 -96h-106l11 96h-100l10 98h100l12 112h-100l10 98h100zM258 306l-12 -112h95l12 112h-95z" />
    <glyph glyph-name="hyphensuperior" horiz-adv-x="241" 
d="M12 705h216v-65h-216v65z" />
    <glyph glyph-name="commasuperior" horiz-adv-x="103" 
d="M54 475h-23l14 65h-32v77h78v-77z" />
    <glyph glyph-name="periodsuperior" horiz-adv-x="103" 
d="M12 617h78v-77h-78v77z" />
    <glyph glyph-name="centsuperior" horiz-adv-x="306" 
d="M229 641h65v-87q-55 -16 -109 -19v-45h-33v46q-140 8 -140 177q0 76 31.5 121.5t108.5 49.5v46h33v-45q47 -3 109 -19v-87h-65v36q-29 5 -55 5q-74 0 -74 -107q0 -113 74 -113q32 0 55 5v36z" />
    <glyph glyph-name="dollarsuperior" horiz-adv-x="291" 
d="M12 646h65v-33q43 -9 68 -9q46 0 46 30q0 21 -41 34q-4 1 -34 10q-99 28 -99 108q0 47 31.5 71t82.5 27v46h33v-46q43 -1 105 -18v-92h-65v36q-30 6 -59 6q-40 0 -40 -27t66 -42q107 -25 107 -104q0 -50 -31.5 -77t-82.5 -30v-46h-33v46q-61 2 -119 18v92z" />
    <glyph glyph-name="hypheninferior" horiz-adv-x="241" 
d="M12 -35h216v-65h-216v65z" />
    <glyph glyph-name="commainferior" horiz-adv-x="103" 
d="M54 -265h-23l14 65h-32v77h78v-77z" />
    <glyph glyph-name="periodinferior" horiz-adv-x="103" 
d="M12 -123h78v-77h-78v77z" />
    <glyph glyph-name="centinferior" horiz-adv-x="306" 
d="M229 -99h65v-87q-55 -16 -109 -19v-45h-33v46q-140 8 -140 177q0 76 31.5 121.5t108.5 49.5v46h33v-45q47 -3 109 -19v-87h-65v36q-29 5 -55 5q-74 0 -74 -107q0 -113 74 -113q32 0 55 5v36z" />
    <glyph glyph-name="dollarinferior" horiz-adv-x="291" 
d="M12 -94h65v-33q44 -9 68 -9q46 0 46 30q0 21 -41 34q-4 1 -34 10q-99 28 -99 108q0 47 31.5 71t82.5 27v46h33v-46q43 -1 105 -18v-92h-65v36q-30 6 -59 6q-40 0 -40 -27t66 -42q107 -25 107 -104q0 -50 -31.5 -77t-82.5 -30v-46h-33v46q-61 2 -119 18v92z" />
    <glyph glyph-name="zero.denominator" horiz-adv-x="286" 
d="M143 280q-48 0 -48 -107q0 -113 48 -113t48 113q0 107 -48 107zM143 -5q-74 0 -102.5 47.5t-28.5 130.5q0 81 28.5 126.5t102.5 45.5q73 0 101.5 -45.5t28.5 -126.5q0 -83 -28.5 -130.5t-101.5 -47.5z" />
    <glyph glyph-name="one.denominator" horiz-adv-x="207" 
d="M143 65h51v-65h-181v65h52v202l-52 -1v55l93 22h37v-278z" />
    <glyph glyph-name="two.denominator" horiz-adv-x="275" 
d="M199 91h64v-91h-251v74q89 55 121.5 88.5t32.5 62.5q0 49 -54 49q-19 0 -35 -5v-21h-65v72q61 25 118 25q58 0 88 -29t30 -75q0 -49 -31.5 -88.5t-93.5 -82.5v-1h76v22z" />
    <glyph glyph-name="three.denominator" horiz-adv-x="271" 
d="M12 20v72h65v-27q20 -5 49 -5q26 0 39 11.5t13 27.5q0 39 -57 39h-47v64h43q54 0 54 44q0 15 -11.5 24.5t-33.5 9.5t-46 -6v-26h-65v72q56 25 125 25q46 0 77.5 -23.5t31.5 -67.5q0 -52 -56 -75v-1q66 -19 66 -84q0 -47 -34 -73t-94 -26q-64 0 -119 25z" />
    <glyph glyph-name="four.denominator" horiz-adv-x="296" 
d="M92 156h71v103h-1q-32 -57 -70 -103zM163 65v26h-151v65l53 59t41 55.5t40 72.5h96v-187h41v-65h-41v-26h26v-65h-131v65h26z" />
    <glyph glyph-name="five.denominator" horiz-adv-x="271" 
d="M248 340v-91h-64v22h-92l-3 -63h1q26 17 63 17q49 0 77.5 -28.5t28.5 -82.5q0 -58 -35 -88.5t-98 -30.5q-56 0 -114 25v68h65v-24q20 -4 45 -4q27 0 40.5 14t13.5 35t-12 35.5t-39 14.5t-51 -18l-55 5l5 194h224z" />
    <glyph glyph-name="six.denominator" horiz-adv-x="276" 
d="M90 199l1 -1q27 30 67 30q49 0 77 -31t28 -87q0 -53 -33 -84t-88 -31q-64 0 -97 44.5t-33 110.5q0 195 153 195q46 0 88 -15v-81h-65v31h-17q-32 0 -56.5 -19.5t-24.5 -61.5zM97 141q-8 -81 41 -81q18 0 30.5 13t12.5 37q0 50 -44 50q-19 0 -40 -19z" />
    <glyph glyph-name="seven.denominator" horiz-adv-x="255" 
d="M12 340h231v-55q-29 -52 -45.5 -84.5t-35.5 -87.5t-28 -113h-87q11 64 41 137.5t69 132.5v1h-81v-22h-64v91z" />
    <glyph glyph-name="eight.denominator" horiz-adv-x="286" 
d="M211 180v-1q62 -35 62 -85t-38 -74.5t-94 -24.5q-55 0 -92 22t-37 69q0 57 62 81v1q-52 30 -52 83q0 46 36.5 70t86.5 24q47 0 82.5 -23.5t35.5 -66.5q0 -47 -52 -75zM93 94q0 -17 13 -29t40 -12q47 0 47 34q0 6 -2 11.5t-6.5 10.5t-8 8t-11 6.5t-11 5.5t-12.5 5t-11 4
q-38 -15 -38 -44zM141 287q-18 0 -29.5 -10t-11.5 -23q0 -34 52 -47q33 13 33 42q0 16 -12 27t-32 11z" />
    <glyph glyph-name="nine.denominator" horiz-adv-x="276" 
d="M185 141l-1 1q-26 -29 -67 -29q-49 0 -77 30.5t-28 86.5q0 53 33.5 84t88.5 31q64 0 96.5 -44.5t32.5 -110.5q0 -195 -152 -195q-44 0 -88 14v82h64v-31h17q32 0 57 19.5t24 61.5zM178 199q10 81 -40 81q-19 0 -31 -13t-12 -37q0 -50 43 -50q21 0 40 19z" />
    <glyph glyph-name="parenleft.denominator" horiz-adv-x="165" 
d="M12 170q0 134 89 240h51q-62 -112 -62 -240q0 -123 62 -240h-51q-89 106 -89 240z" />
    <glyph glyph-name="parenright.denominator" horiz-adv-x="165" 
d="M152 170q0 -136 -89 -240h-51q62 115 62 240q0 131 -62 240h51q89 -104 89 -240z" />
    <glyph glyph-name="cent.denominator" horiz-adv-x="306" 
d="M229 101h65v-87q-55 -16 -109 -19v-45h-33v46q-140 8 -140 177q0 76 31.5 121.5t108.5 49.5v46h33v-45q47 -3 109 -19v-87h-65v36q-29 5 -55 5q-74 0 -74 -107q0 -113 74 -113q32 0 55 5v36z" />
    <glyph glyph-name="dollar.denominator" horiz-adv-x="291" 
d="M12 106h65v-33q44 -9 68 -9q46 0 46 30q0 21 -41 34q-4 1 -34 10q-99 28 -99 108q0 47 31.5 71t82.5 27v46h33v-46q43 -1 105 -18v-92h-65v36q-30 6 -59 6q-40 0 -40 -27t66 -42q107 -25 107 -104q0 -50 -31.5 -77t-82.5 -30v-46h-33v46q-61 2 -119 18v92z" />
    <glyph glyph-name="hyphen.denominator" horiz-adv-x="241" 
d="M12 165h216v-65h-216v65z" />
    <glyph glyph-name="comma.denominator" horiz-adv-x="103" 
d="M54 -65h-23l14 65h-32v77h78v-77z" />
    <glyph glyph-name="period.denominator" horiz-adv-x="103" 
d="M12 77h78v-77h-78v77z" />
    <glyph glyph-name="zero.numerator" horiz-adv-x="286" 
d="M143 620q-48 0 -48 -107q0 -113 48 -113t48 113q0 107 -48 107zM143 335q-74 0 -102.5 47.5t-28.5 130.5q0 81 28.5 126.5t102.5 45.5q73 0 101.5 -45.5t28.5 -126.5q0 -83 -28.5 -130.5t-101.5 -47.5z" />
    <glyph glyph-name="one.numerator" horiz-adv-x="207" 
d="M143 405h51v-65h-181v65h52v202l-52 -1v55l93 22h37v-278z" />
    <glyph glyph-name="two.numerator" horiz-adv-x="275" 
d="M199 431h64v-91h-251v74q89 55 121.5 88.5t32.5 62.5q0 49 -54 49q-19 0 -35 -5v-21h-65v72q61 25 118 25q58 0 88 -29t30 -75q0 -49 -31.5 -88.5t-93.5 -82.5v-1h76v22z" />
    <glyph glyph-name="three.numerator" horiz-adv-x="271" 
d="M12 360v72h65v-27q20 -5 49 -5q26 0 39 11.5t13 27.5q0 39 -57 39h-47v64h43q54 0 54 44q0 15 -11.5 24.5t-33.5 9.5t-46 -6v-26h-65v72q56 25 125 25q46 0 77.5 -23.5t31.5 -67.5q0 -52 -56 -75v-1q66 -19 66 -84q0 -47 -34 -73t-94 -26q-64 0 -119 25z" />
    <glyph glyph-name="four.numerator" horiz-adv-x="296" 
d="M92 496h71v103h-1q-32 -57 -70 -103zM163 405v26h-151v65l53 59t41 55.5t40 72.5h96v-187h41v-65h-41v-26h26v-65h-131v65h26z" />
    <glyph glyph-name="five.numerator" horiz-adv-x="271" 
d="M248 680v-91h-64v22h-92l-3 -63h1q26 17 63 17q49 0 77.5 -28.5t28.5 -82.5q0 -58 -35 -88.5t-98 -30.5q-56 0 -114 25v68h65v-24q20 -4 45 -4q27 0 40.5 14t13.5 35t-12 35.5t-39 14.5t-51 -18l-55 5l5 194h224z" />
    <glyph glyph-name="six.numerator" horiz-adv-x="276" 
d="M90 539l1 -1q27 30 67 30q49 0 77 -31t28 -87q0 -53 -33 -84t-88 -31q-64 0 -97 44.5t-33 110.5q0 195 153 195q46 0 88 -15v-81h-65v31h-17q-32 0 -56.5 -19.5t-24.5 -61.5zM97 481q-8 -81 41 -81q18 0 30.5 13t12.5 37q0 50 -44 50q-19 0 -40 -19z" />
    <glyph glyph-name="seven.numerator" horiz-adv-x="255" 
d="M12 680h231v-55q-29 -52 -45.5 -84.5t-35.5 -87.5t-28 -113h-87q11 64 41 137.5t69 132.5v1h-81v-22h-64v91z" />
    <glyph glyph-name="eight.numerator" horiz-adv-x="286" 
d="M211 520v-1q62 -35 62 -85t-38 -74.5t-94 -24.5q-55 0 -92 22t-37 69q0 57 62 81v1q-52 30 -52 83q0 46 36.5 70t86.5 24q47 0 82.5 -23.5t35.5 -66.5q0 -47 -52 -75zM93 434q0 -17 13 -29t40 -12q47 0 47 34q0 6 -2 11.5t-6.5 10.5t-8 8t-11 6.5t-11 5.5t-12.5 5t-11 4
q-38 -15 -38 -44zM141 627q-18 0 -29.5 -10t-11.5 -23q0 -34 52 -47q33 13 33 42q0 16 -12 27t-32 11z" />
    <glyph glyph-name="nine.numerator" horiz-adv-x="276" 
d="M185 481l-1 1q-26 -29 -67 -29q-49 0 -77 30.5t-28 86.5q0 53 33.5 84t88.5 31q64 0 96.5 -44.5t32.5 -110.5q0 -195 -152 -195q-44 0 -88 14v82h64v-31h17q32 0 57 19.5t24 61.5zM178 539q10 81 -40 81q-19 0 -31 -13t-12 -37q0 -50 43 -50q21 0 40 19z" />
    <glyph glyph-name="parenleft.numerator" horiz-adv-x="165" 
d="M12 510q0 134 89 240h51q-62 -112 -62 -240q0 -123 62 -240h-51q-89 106 -89 240z" />
    <glyph glyph-name="parenright.numerator" horiz-adv-x="165" 
d="M152 510q0 -136 -89 -240h-51q62 115 62 240q0 131 -62 240h51q89 -104 89 -240z" />
    <glyph glyph-name="cent.numerator" horiz-adv-x="306" 
d="M229 441h65v-87q-55 -16 -109 -19v-45h-33v46q-140 8 -140 177q0 76 31.5 121.5t108.5 49.5v46h33v-45q47 -3 109 -19v-87h-65v36q-29 5 -55 5q-74 0 -74 -107q0 -113 74 -113q32 0 55 5v36z" />
    <glyph glyph-name="dollar.numerator" horiz-adv-x="291" 
d="M12 446h65v-33q43 -9 68 -9q46 0 46 30q0 21 -41 34q-4 1 -34 10q-99 28 -99 108q0 47 31.5 71t82.5 27v46h33v-46q43 -1 105 -18v-92h-65v36q-30 6 -59 6q-40 0 -40 -27t66 -42q107 -25 107 -104q0 -50 -31.5 -77t-82.5 -30v-46h-33v46q-61 2 -119 18v92z" />
    <glyph glyph-name="hyphen.numerator" horiz-adv-x="241" 
d="M12 505h216v-65h-216v65z" />
    <glyph glyph-name="comma.numerator" horiz-adv-x="103" 
d="M54 275h-23l14 65h-32v77h78v-77z" />
    <glyph glyph-name="period.numerator" horiz-adv-x="103" 
d="M12 417h78v-77h-78v77z" />
    <glyph glyph-name="at.cap" horiz-adv-x="810" 
d="M574 411v-173q62 0 92.5 50t30.5 114q0 110 -78 178t-194 68q-138 0 -224.5 -87.5t-86.5 -227.5q0 -124 80.5 -207.5t203.5 -83.5l-9 -82q-161 0 -265 106t-104 267q0 174 114.5 286.5t289.5 112.5q154 0 260 -91.5t106 -234.5q0 -112 -63 -186t-177 -74h-93v39h-1
q-43 -46 -112 -46q-56 0 -87 34.5t-31 86.5q0 67 49 95t115 28h67v14q0 29 -14.5 38.5t-53.5 9.5q-8 0 -28 -2q-1 -11 -8 -18t-20 -9t-25.5 -2t-30 0.5t-26.5 0.5v106q85 20 164 20q82 0 120.5 -27t38.5 -103zM457 247v68h-49q-65 0 -65 -45q0 -21 14.5 -31.5t35.5 -10.5
q37 0 64 19z" />
    <glyph glyph-name="parenleft.cap" horiz-adv-x="330" 
d="M38 340q0 128 45 252.5t133 227.5h98q-126 -220 -126 -480q0 -247 126 -480h-98q-87 103 -132.5 228.5t-45.5 251.5z" />
    <glyph glyph-name="parenright.cap" horiz-adv-x="330" 
d="M292 340q0 -126 -45.5 -251.5t-132.5 -228.5h-98q126 233 126 480q0 260 -126 480h98q88 -103 133 -227.5t45 -252.5z" />
    <glyph glyph-name="bracketleft.cap" horiz-adv-x="300" 
d="M195 -51h89v-89h-248v960h248v-89h-89v-782z" />
    <glyph glyph-name="bracketright.cap" horiz-adv-x="300" 
d="M16 -51h89v782h-89v89h248v-960h-248v89z" />
    <glyph glyph-name="braceleft.cap" horiz-adv-x="340" 
d="M255 17q0 -34 4 -54t15 -28.5t20.5 -10.5t29.5 -2v-62q-45 0 -71.5 1.5t-60 9.5t-52 22.5t-31.5 43t-13 69.5q0 31 5 95.5t5 93.5q0 30 -1 43.5t-7.5 30t-21 24t-40.5 11.5v72q26 4 40.5 11.5t21 24t7.5 30t1 43.5q0 29 -5 93.5t-5 95.5q0 41 13 69t31.5 43t52 23
t60.5 9.5t71 1.5v-63q-20 0 -29 -1.5t-20.5 -10t-15.5 -29t-4 -54.5q0 -30 6.5 -101t6.5 -102q0 -54 -26.5 -79t-78.5 -39v-2q52 -14 78.5 -39t26.5 -79q0 -31 -6.5 -102.5t-6.5 -101.5z" />
    <glyph glyph-name="braceright.cap" horiz-adv-x="340" 
d="M85 662q0 34 -4 54.5t-15.5 29t-20.5 10t-29 1.5v63q44 0 71 -1.5t60.5 -9.5t52 -23t31.5 -43t13 -69q0 -31 -5 -95.5t-5 -93.5q0 -30 1 -43.5t7.5 -30t21 -24t40.5 -11.5v-72q-26 -4 -40.5 -11.5t-21 -24t-7.5 -30t-1 -43.5q0 -29 5 -93.5t5 -95.5q0 -41 -13 -69.5
t-31.5 -43t-52.5 -22.5t-60.5 -9.5t-70.5 -1.5v62q20 0 29.5 2t20.5 10.5t15 28.5t4 54q0 30 -7 101.5t-7 102.5q0 54 27 79t79 39v2q-52 14 -79 39t-27 79q0 31 7 102t7 101z" />
    <glyph glyph-name="exclamdown.cap" horiz-adv-x="222" 
d="M186 527h-150v153h150v-153zM186 0h-150l9 470h132z" />
    <glyph glyph-name="questiondown.cap" horiz-adv-x="480" 
d="M454 209v-179q-96 -40 -218 -40q-60 0 -103 17t-65.5 46t-32 59t-9.5 64q0 46 17 81.5t41.5 57.5t49 40.5t41.5 39.5t17 45v30h133v-30q0 -46 -15 -80.5t-36 -54.5t-42 -36.5t-36 -35.5t-15 -41q0 -61 85 -61q21 0 64 9v69h124zM334 680v-153h-150v153h150z" />
    <glyph glyph-name="guillemotleft.cap" horiz-adv-x="730" 
d="M36 354l308 201v-159l-149 -86l149 -86v-159l-308 201v88zM386 354l308 201v-159l-149 -86l149 -86v-159l-308 201v88z" />
    <glyph glyph-name="guillemotright.cap" horiz-adv-x="730" 
d="M36 555l308 -201v-88l-308 -201v159l149 86l-149 86v159zM386 555l308 -201v-88l-308 -201v159l149 86l-149 86v159z" />
    <glyph glyph-name="guilsinglleft.cap" horiz-adv-x="380" 
d="M36 354l308 201v-159l-149 -86l149 -86v-159l-308 201v88z" />
    <glyph glyph-name="guilsinglright.cap" horiz-adv-x="380" 
d="M36 555l308 -201v-88l-308 -201v159l149 86l-149 86v159z" />
    <glyph glyph-name="hyphen.cap" horiz-adv-x="500" 
d="M36 387h428v-124h-428v124z" />
    <glyph glyph-name="endash.cap" horiz-adv-x="600" 
d="M36 387h528v-124h-528v124z" />
    <glyph glyph-name="emdash.cap" horiz-adv-x="700" 
d="M36 387h628v-124h-628v124z" />
    <glyph glyph-name="periodcentered.cap" horiz-adv-x="222" 
d="M36 326h150v-152h-150v152z" />
    <glyph glyph-name="percent.oldstyle" horiz-adv-x="760" 
d="M614 580l-370 -580h-98l370 580h98zM180 285q-70 0 -108 40t-38 111t38 110.5t108 39.5q71 0 109 -39.5t38 -110.5t-38 -111t-109 -40zM180 360q54 0 54 76t-54 76q-53 0 -53 -76t53 -76zM580 -6q-71 0 -109 39.5t-38 110.5t38 110.5t109 39.5q70 0 108 -39.5t38 -110.5
t-38 -110.5t-108 -39.5zM580 68q53 0 53 76t-53 76q-54 0 -54 -76t54 -76z" />
    <glyph glyph-name="perthousand.oldstyle" horiz-adv-x="1110" 
d="M614 580l-370 -580h-98l370 580h98zM180 285q-70 0 -108 40t-38 111t38 110.5t108 39.5q71 0 109 -39.5t38 -110.5t-38 -111t-109 -40zM180 360q54 0 54 76t-54 76q-53 0 -53 -76t53 -76zM580 -6q-71 0 -109 39.5t-38 110.5t38 110.5t109 39.5q70 0 108 -39.5t38 -110.5
t-38 -110.5t-108 -39.5zM580 68q53 0 53 76t-53 76q-54 0 -54 -76t54 -76zM930 -6q-71 0 -109 39.5t-38 110.5t38 110.5t109 39.5t108.5 -39.5t37.5 -110.5t-37.5 -110.5t-108.5 -39.5zM930 68q54 0 54 76t-54 76t-54 -76t54 -76z" />
    <glyph glyph-name="overscore" horiz-adv-x="400" 
d="M34 672h332v-106h-332v106z" />
    <glyph glyph-name="ampersand.alt" horiz-adv-x="840" 
d="M531 197h-244q-75 0 -75 -41q0 -42 79 -42q70 0 148 30l18 -115q-94 -39 -197 -39q-105 0 -164.5 36.5t-59.5 103.5q0 101 126 123v2q-48 12 -77 43.5t-29 81.5q0 130 214 130q106 0 187 -39l-17 -115q-78 30 -148 30q-77 0 -77 -41q0 -17 17.5 -29t54.5 -12h244l18 196
h132v-196h118v-93h-118v-43q0 -59 66 -59q16 0 43 5l14 -115q-52 -9 -109 -9q-88 0 -126 37t-38 115v55z" />
    <glyph glyph-name="y.alt" horiz-adv-x="560" 
d="M374 27v35h-2q-66 -72 -156 -72q-73 0 -111.5 45t-38.5 124v217h-54v124h204v-306q0 -80 70 -80q37 0 88 29v233h-58v124h208v-473q0 -113 -61 -175t-203 -62q-82 0 -178 24l27 120q84 -20 151 -20q55 0 84.5 23.5t29.5 89.5z" />
    <glyph glyph-name="yacute.alt" horiz-adv-x="560" 
d="M374 27v35h-2q-66 -72 -156 -72q-73 0 -111.5 45t-38.5 124v217h-54v124h204v-306q0 -80 70 -80q37 0 88 29v233h-58v124h208v-473q0 -113 -61 -175t-203 -62q-82 0 -178 24l27 120q84 -20 151 -20q55 0 84.5 23.5t29.5 89.5zM414 700l-97 -140h-80l53 140h124z" />
    <glyph glyph-name="ydieresis.alt" horiz-adv-x="560" 
d="M374 27v35h-2q-66 -72 -156 -72q-73 0 -111.5 45t-38.5 124v217h-54v124h204v-306q0 -80 70 -80q37 0 88 29v233h-58v124h208v-473q0 -113 -61 -175t-203 -62q-82 0 -178 24l27 120q84 -20 151 -20q55 0 84.5 23.5t29.5 89.5zM86 700h133v-135h-133v135zM321 700h133
v-135h-133v135z" />
    <glyph glyph-name="ycircumflex.alt" horiz-adv-x="560" 
d="M374 27v35h-2q-66 -72 -156 -72q-73 0 -111.5 45t-38.5 124v217h-54v124h204v-306q0 -80 70 -80q37 0 88 29v233h-58v124h208v-473q0 -113 -61 -175t-203 -62q-82 0 -178 24l27 120q84 -20 151 -20q55 0 84.5 23.5t29.5 89.5zM270 618l-74 -58h-80l109 140h90l109 -140
h-80z" />
    <glyph glyph-name="ygrave.alt" horiz-adv-x="560" 
d="M374 27v35h-2q-66 -72 -156 -72q-73 0 -111.5 45t-38.5 124v217h-54v124h204v-306q0 -80 70 -80q37 0 88 29v233h-58v124h208v-473q0 -113 -61 -175t-203 -62q-82 0 -178 24l27 120q84 -20 151 -20q55 0 84.5 23.5t29.5 89.5zM219 560l-97 140h124l53 -140h-80z" />
    </font>
</defs>
</svg>
